  0
SECTION
  2
HEADER
  9
$ACADVER
  1
AC1015
  9
$ACADMAINTVER
 70
     6
  9
$DWGCODEPAGE
  3
ANSI_1252
  9
$INSBASE
 10
0.0
 20
0.0
 30
0.0
  9
$EXTMIN
 10
-288.208949
 20
-149.433007
 30
0.0
  9
$EXTMAX
 10
551.791051
 20
444.566993
 30
0.0
  9
$LIMMIN
 10
-288.208949
 20
-149.433007
  9
$LIMMAX
 10
551.791051
 20
444.566993
  9
$ORTHOMODE
 70
     0
  9
$REGENMODE
 70
     1
  9
$FILLMODE
 70
     1
  9
$QTEXTMODE
 70
     0
  9
$MIRRTEXT
 70
     1
  9
$LTSCALE
 40
2.0
  9
$ATTMODE
 70
     1
  9
$TEXTSIZE
 40
2.5
  9
$TRACEWID
 40
1.0
  9
$TEXTSTYLE
  7
Standard
  9
$CLAYER
  8
0
  9
$CELTYPE
  6
ByLayer
  9
$CECOLOR
 62
     7
  9
$CELTSCALE
 40
1.0
  9
$DISPSILH
 70
     0
  9
$DIMSCALE
 40
2.0
  9
$DIMASZ
 40
3.5
  9
$DIMEXO
 40
0.625
  9
$DIMDLI
 40
3.75
  9
$DIMRND
 40
0.0
  9
$DIMDLE
 40
0.0
  9
$DIMEXE
 40
1.25
  9
$DIMTP
 40
0.0
  9
$DIMTM
 40
0.0
  9
$DIMTXT
 40
3.5
  9
$DIMCEN
 40
2.5
  9
$DIMTSZ
 40
0.0
  9
$DIMTOL
 70
     0
  9
$DIMLIM
 70
     0
  9
$DIMTIH
 70
     0
  9
$DIMTOH
 70
     0
  9
$DIMSE1
 70
     0
  9
$DIMSE2
 70
     0
  9
$DIMTAD
 70
     1
  9
$DIMZIN
 70
     8
  9
$DIMBLK
  1

  9
$DIMASO
 70
     1
  9
$DIMSHO
 70
     1
  9
$DIMPOST
  1

  9
$DIMAPOST
  1

  9
$DIMALT
 70
     0
  9
$DIMALTD
 70
     3
  9
$DIMALTF
 40
0.03937
  9
$DIMLFAC
 40
1.0
  9
$DIMTOFL
 70
     1
  9
$DIMTVP
 40
0.0
  9
$DIMTIX
 70
     0
  9
$DIMSOXD
 70
     0
  9
$DIMSAH
 70
     0
  9
$DIMBLK1
  1

  9
$DIMBLK2
  1

  9
$DIMSTYLE
  2
ISO-25
  9
$DIMCLRD
 70
     0
  9
$DIMCLRE
 70
     0
  9
$DIMCLRT
 70
     0
  9
$DIMTFAC
 40
1.0
  9
$DIMGAP
 40
0.625
  9
$DIMJUST
 70
     0
  9
$DIMSD1
 70
     0
  9
$DIMSD2
 70
     0
  9
$DIMTOLJ
 70
     0
  9
$DIMTZIN
 70
     8
  9
$DIMALTZ
 70
     0
  9
$DIMALTTZ
 70
     0
  9
$DIMUPT
 70
     0
  9
$DIMDEC
 70
     2
  9
$DIMTDEC
 70
     2
  9
$DIMALTU
 70
     2
  9
$DIMALTTD
 70
     3
  9
$DIMTXSTY
  7
Standard
  9
$DIMAUNIT
 70
     0
  9
$DIMADEC
 70
     0
  9
$DIMALTRND
 40
0.0
  9
$DIMAZIN
 70
     0
  9
$DIMDSEP
 70
    44
  9
$DIMATFIT
 70
     3
  9
$DIMFRAC
 70
     0
  9
$DIMLDRBLK
  1

  9
$DIMLUNIT
 70
     2
  9
$DIMLWD
 70
    -2
  9
$DIMLWE
 70
    -2
  9
$DIMTMOVE
 70
     0
  9
$LUNITS
 70
     2
  9
$LUPREC
 70
     4
  9
$SKETCHINC
 40
1.0
  9
$FILLETRAD
 40
10.0
  9
$AUNITS
 70
     0
  9
$AUPREC
 70
     0
  9
$MENU
  1
.
  9
$ELEVATION
 40
0.0
  9
$PELEVATION
 40
0.0
  9
$THICKNESS
 40
0.0
  9
$LIMCHECK
 70
     0
  9
$CHAMFERA
 40
10.0
  9
$CHAMFERB
 40
10.0
  9
$CHAMFERC
 40
20.0
  9
$CHAMFERD
 40
0.0
  9
$SKPOLY
 70
     0
  9
$TDCREATE
 40
2455285.446891991
  9
$TDUCREATE
 40
2455285.363558658
  9
$TDUPDATE
 40
2455285.446892002
  9
$TDUUPDATE
 40
2455285.363558669
  9
$TDINDWG
 40
0.0000000116
  9
$TDUSRTIMER
 40
0.0000000116
  9
$USRTIMER
 70
     1
  9
$ANGBASE
 50
0.0
  9
$ANGDIR
 70
     0
  9
$PDMODE
 70
     0
  9
$PDSIZE
 40
0.0
  9
$PLINEWID
 40
0.0
  9
$SPLFRAME
 70
     0
  9
$SPLINETYPE
 70
     6
  9
$SPLINESEGS
 70
     8
  9
$HANDSEED
  5
2D6
  9
$SURFTAB1
 70
     6
  9
$SURFTAB2
 70
     6
  9
$SURFTYPE
 70
     6
  9
$SURFU
 70
     6
  9
$SURFV
 70
     6
  9
$UCSBASE
  2

  9
$UCSNAME
  2

  9
$UCSORG
 10
0.0
 20
0.0
 30
0.0
  9
$UCSXDIR
 10
1.0
 20
0.0
 30
0.0
  9
$UCSYDIR
 10
0.0
 20
1.0
 30
0.0
  9
$UCSORTHOREF
  2

  9
$UCSORTHOVIEW
 70
     0
  9
$UCSORGTOP
 10
0.0
 20
0.0
 30
0.0
  9
$UCSORGBOTTOM
 10
0.0
 20
0.0
 30
0.0
  9
$UCSORGLEFT
 10
0.0
 20
0.0
 30
0.0
  9
$UCSORGRIGHT
 10
0.0
 20
0.0
 30
0.0
  9
$UCSORGFRONT
 10
0.0
 20
0.0
 30
0.0
  9
$UCSORGBACK
 10
0.0
 20
0.0
 30
0.0
  9
$PUCSBASE
  2

  9
$PUCSNAME
  2

  9
$PUCSORG
 10
0.0
 20
0.0
 30
0.0
  9
$PUCSXDIR
 10
1.0
 20
0.0
 30
0.0
  9
$PUCSYDIR
 10
0.0
 20
1.0
 30
0.0
  9
$PUCSORTHOREF
  2

  9
$PUCSORTHOVIEW
 70
     0
  9
$PUCSORGTOP
 10
0.0
 20
0.0
 30
0.0
  9
$PUCSORGBOTTOM
 10
0.0
 20
0.0
 30
0.0
  9
$PUCSORGLEFT
 10
0.0
 20
0.0
 30
0.0
  9
$PUCSORGRIGHT
 10
0.0
 20
0.0
 30
0.0
  9
$PUCSORGFRONT
 10
0.0
 20
0.0
 30
0.0
  9
$PUCSORGBACK
 10
0.0
 20
0.0
 30
0.0
  9
$USERI1
 70
     0
  9
$USERI2
 70
     0
  9
$USERI3
 70
     0
  9
$USERI4
 70
     0
  9
$USERI5
 70
     0
  9
$USERR1
 40
0.0
  9
$USERR2
 40
0.0
  9
$USERR3
 40
0.0
  9
$USERR4
 40
0.0
  9
$USERR5
 40
0.0
  9
$WORLDVIEW
 70
     1
  9
$SHADEDGE
 70
     3
  9
$SHADEDIF
 70
    70
  9
$TILEMODE
 70
     1
  9
$MAXACTVP
 70
    64
  9
$PINSBASE
 10
0.0
 20
0.0
 30
0.0
  9
$PLIMCHECK
 70
     0
  9
$PEXTMIN
 10
-288.208949
 20
-149.433007
 30
0.0
  9
$PEXTMAX
 10
551.791051
 20
444.566993
 30
0.0
  9
$PLIMMIN
 10
-288.208949
 20
-149.433007
  9
$PLIMMAX
 10
551.791051
 20
444.566993
  9
$UNITMODE
 70
     0
  9
$VISRETAIN
 70
     1
  9
$PLINEGEN
 70
     0
  9
$PSLTSCALE
 70
     1
  9
$TREEDEPTH
 70
  3020
  9
$CMLSTYLE
  2
Standard
  9
$CMLJUST
 70
     0
  9
$CMLSCALE
 40
20.0
  9
$PROXYGRAPHICS
 70
     1
  9
$MEASUREMENT
 70
     1
  9
$CELWEIGHT
370
    -1
  9
$ENDCAPS
280
     0
  9
$JOINSTYLE
280
     0
  9
$LWDISPLAY
290
     0
  9
$INSUNITS
 70
     4
  9
$HYPERLINKBASE
  1

  9
$STYLESHEET
  1

  9
$XEDIT
290
     1
  9
$CEPSNTYPE
380
     0
  9
$PSTYLEMODE
290
     1
  9
$FINGERPRINTGUID
  2
{FAEB1C30-E019-11D5-929B-00C0DF256EC4}
  9
$VERSIONGUID
  2
{FAEB1C32-E019-11D5-929B-00C0DF256EC4}
  9
$EXTNAMES
290
     1
  9
$PSVPSCALE
 40
0.0
  9
$OLESTARTUP
290
     0
  0
ENDSEC
  0
SECTION
  2
CLASSES
  0
CLASS
  1
ACDBDICTIONARYWDFLT
  2
AcDbDictionaryWithDefault
  3
ObjectDBX Classes
 90
        0
280
     0
281
     0
  0
CLASS
  1
ACDBPLACEHOLDER
  2
AcDbPlaceHolder
  3
ObjectDBX Classes
 90
        0
280
     0
281
     0
  0
CLASS
  1
LAYOUT
  2
AcDbLayout
  3
ObjectDBX Classes
 90
        0
280
     0
281
     0
  0
ENDSEC
  0
SECTION
  2
TABLES
  0
TABLE
  2
VPORT
  5
8
330
0
100
AcDbSymbolTable
 70
     2
  0
VPORT
  5
29
330
8
100
AcDbSymbolTableRecord
100
AcDbViewportTableRecord
  2
*ACTIVE
 70
     0
 10
0.0
 20
0.0
 11
1.0
 21
1.0
 12
131.791051
 22
147.566993
 13
0.0
 23
0.0
 14
1.0
 24
1.0
 15
0.0
 25
0.0
 16
0.0
 26
0.0
 36
1.0
 17
0.0
 27
0.0
 37
0.0
 40
594.0
 41
1.414141
 42
50.0
 43
0.0
 44
0.0
 50
0.0
 51
0.0
 71
    16
 72
   100
 73
     1
 74
     0
 75
     0
 76
     0
 77
     0
 78
     0
281
     0
 65
     0
110
0.0
120
0.0
130
0.0
111
1.0
121
0.0
131
0.0
112
0.0
122
1.0
132
0.0
 79
     0
146
0.0
  0
ENDTAB
  0
TABLE
  2
LTYPE
  5
5
330
0
100
AcDbSymbolTable
 70
     3
  0
LTYPE
  5
14
330
5
100
AcDbSymbolTableRecord
100
AcDbLinetypeTableRecord
  2
ByBlock
 70
     0
  3

 72
    65
 73
     0
 40
0.0
  0
LTYPE
  5
15
330
5
100
AcDbSymbolTableRecord
100
AcDbLinetypeTableRecord
  2
ByLayer
 70
     0
  3

 72
    65
 73
     0
 40
0.0
  0
LTYPE
  5
16
330
5
100
AcDbSymbolTableRecord
100
AcDbLinetypeTableRecord
  2
Continuous
 70
     0
  3
Solid line
 72
    65
 73
     0
 40
0.0
  0
LTYPE
  5
2A
330
5
100
AcDbSymbolTableRecord
100
AcDbLinetypeTableRecord
  2
DASHED
 70
     0
  3
__ __ __ __ __
 72
    65
 73
     2
 40
6.25
 49
5.0
 74
     4
 75
     0
340
0
 46
1.0
 50
0.0
 44
0.0
 45
0.0
 49
-1.25
 74
     4
 75
     0
340
0
 46
1.0
 50
0.0
 44
0.0
 45
0.0
  0
LTYPE
  5
28F
330
5
100
AcDbSymbolTableRecord
100
AcDbLinetypeTableRecord
  2
DASHDOT
 70
     0
  3
__ . __ . __ . __ . __
 72
    65
 73
     4
 40
7.5
 49
5.0
 74
     4
 75
     0
340
0
 46
1.0
 50
0.0
 44
0.0
 45
0.0
 49
-1.25
 74
     4
 75
     0
340
0
 46
1.0
 50
0.0
 44
0.0
 45
0.0
 49
0.0
 74
     4
 75
     0
340
0
 46
1.0
 50
0.0
 44
0.0
 45
0.0
 49
-1.25
 74
     4
 75
     0
340
0
 46
1.0
 50
0.0
 44
0.0
 45
0.0
  0
ENDTAB
  0
TABLE
  2
LAYER
  5
2
330
0
100
AcDbSymbolTable
 70
     8
  0
LAYER
  5
10
330
2
100
AcDbSymbolTableRecord
100
AcDbLayerTableRecord
  2
0
 70
     0
 62
     7
  6
Continuous
370
    -3
390
F
  0
LAYER
  5
2B
330
2
100
AcDbSymbolTableRecord
100
AcDbLayerTableRecord
  2
LC-INFO-1-2-mm-A3-0
 70
     1
 62
     7
  6
ByBlock
370
    -3
390
F
  0
LAYER
  5
2C
330
2
100
AcDbSymbolTableRecord
100
AcDbLayerTableRecord
  2
LC-CUT-HIDDEN
 70
     0
 62
     7
  6
DASHED
370
    -3
390
F
  0
LAYER
  5
2D
330
2
100
AcDbSymbolTableRecord
100
AcDbLayerTableRecord
  2
LC-VIEWPORT
 70
     0
 62
     7
  6
ByBlock
370
    -3
390
F
  0
LAYER
  5
2E
330
2
100
AcDbSymbolTableRecord
100
AcDbLayerTableRecord
  2
LC-3D-HIDDEN
 70
     0
 62
     9
  6
DASHED
370
    -3
390
F
  0
LAYER
  5
30
330
2
100
AcDbSymbolTableRecord
100
AcDbLayerTableRecord
  2
LC-001-100-D00-0
 70
     0
 62
     1
  6
ByBlock
370
    -3
390
F
  0
LAYER
  5
293
330
2
100
AcDbSymbolTableRecord
100
AcDbLayerTableRecord
  2
LC-002-003-----0
 70
     0
 62
     2
  6
ByBlock
370
    -3
390
F
  0
LAYER
  5
295
330
2
100
AcDbSymbolTableRecord
100
AcDbLayerTableRecord
  2
Defpoints
 70
     0
 62
     7
  6
Continuous
290
     0
370
    -3
390
F
  0
ENDTAB
  0
TABLE
  2
STYLE
  5
3
330
0
100
AcDbSymbolTable
 70
     3
  0
STYLE
  5
11
330
3
100
AcDbSymbolTableRecord
100
AcDbTextStyleTableRecord
  2
Standard
 70
     0
 40
0.0
 41
1.0
 50
0.0
 71
     0
 42
2.5
  3
txt
  4

  0
STYLE
  5
2F
330
3
100
AcDbSymbolTableRecord
100
AcDbTextStyleTableRecord
  2
LCTX15-400-0-0-Arial
 70
     0
 40
0.0
 41
0.8
 50
0.0
 71
     0
 42
3.5
  3

  4

1001
ACAD
1000
Arial
1071
 16777218
  0
STYLE
  5
291
330
3
100
AcDbSymbolTableRecord
100
AcDbTextStyleTableRecord
  2
LCTX15-400-0-0pDIN-Schrift
 70
     0
 40
2.5
 41
0.8
 50
15.0
 71
     0
 42
3.5
  3
STANDARD
  4

  0
ENDTAB
  0
TABLE
  2
VIEW
  5
6
330
0
100
AcDbSymbolTable
 70
     0
  0
ENDTAB
  0
TABLE
  2
UCS
  5
7
330
0
100
AcDbSymbolTable
 70
     0
  0
ENDTAB
  0
TABLE
  2
APPID
  5
9
330
0
100
AcDbSymbolTable
 70
     1
  0
APPID
  5
12
330
9
100
AcDbSymbolTableRecord
100
AcDbRegAppTableRecord
  2
ACAD
 70
     0
  0
ENDTAB
  0
TABLE
  2
DIMSTYLE
  5
A
330
0
100
AcDbSymbolTable
 70
     2
100
AcDbDimStyleTable
  0
DIMSTYLE
105
27
330
A
100
AcDbSymbolTableRecord
100
AcDbDimStyleTableRecord
  2
ISO-25
 70
     0
 41
2.5
 42
0.625
 43
3.75
 44
1.25
 73
     0
 74
     0
 77
     1
 78
     8
140
2.5
141
2.5
143
0.03937
147
0.625
171
     3
172
     1
271
     2
272
     2
274
     3
278
    44
283
     0
284
     8
340
11
  0
DIMSTYLE
105
292
102
{ACAD_REACTORS
330
294
330
2A2
330
2AF
330
2BC
330
2C9
102
}
330
A
100
AcDbSymbolTableRecord
100
AcDbDimStyleTableRecord
  2
LC-DIM-L-0140-02-02
 70
     0
 40
2.0
 41
14.0
 42
0.0
 43
7.5
 44
1.8
 73
     0
 74
     0
 77
     1
 78
     8
 79
     2
140
14.0
141
0.0
146
0.71
147
1.5
176
     2
177
     2
178
     2
179
     2
271
     2
278
    44
289
     1
340
291
  0
ENDTAB
  0
TABLE
  2
BLOCK_RECORD
  5
1
330
0
100
AcDbSymbolTable
 70
    19
  0
BLOCK_RECORD
  5
1F
330
1
100
AcDbSymbolTableRecord
100
AcDbBlockTableRecord
  2
*Model_Space
340
22
  0
BLOCK_RECORD
  5
1B
330
1
100
AcDbSymbolTableRecord
100
AcDbBlockTableRecord
  2
*Paper_Space
340
1E
  0
BLOCK_RECORD
  5
23
330
1
100
AcDbSymbolTableRecord
100
AcDbBlockTableRecord
  2
*Paper_Space0
340
26
  0
BLOCK_RECORD
  5
B3
330
1
100
AcDbSymbolTableRecord
100
AcDbBlockTableRecord
  2
POLY1
340
0
102
{BLKREFS
331
C4
102
}
  0
BLOCK_RECORD
  5
C9
330
1
100
AcDbSymbolTableRecord
100
AcDbBlockTableRecord
  2
POLY2
340
0
102
{BLKREFS
331
DA
102
}
  0
BLOCK_RECORD
  5
172
330
1
100
AcDbSymbolTableRecord
100
AcDbBlockTableRecord
  2
POLY3
340
0
102
{BLKREFS
331
183
102
}
  0
BLOCK_RECORD
  5
184
330
1
100
AcDbSymbolTableRecord
100
AcDbBlockTableRecord
  2
POLY4
340
0
102
{BLKREFS
331
195
102
}
  0
BLOCK_RECORD
  5
199
330
1
100
AcDbSymbolTableRecord
100
AcDbBlockTableRecord
  2
POLY5
340
0
102
{BLKREFS
331
1AA
102
}
  0
BLOCK_RECORD
  5
1AB
330
1
100
AcDbSymbolTableRecord
100
AcDbBlockTableRecord
  2
POLY6
340
0
102
{BLKREFS
331
1BC
102
}
  0
BLOCK_RECORD
  5
1FB
330
1
100
AcDbSymbolTableRecord
100
AcDbBlockTableRecord
  2
POLY7
340
0
102
{BLKREFS
331
20C
102
}
  0
BLOCK_RECORD
  5
210
330
1
100
AcDbSymbolTableRecord
100
AcDbBlockTableRecord
  2
POLY8
340
0
102
{BLKREFS
331
221
102
}
  0
BLOCK_RECORD
  5
24A
330
1
100
AcDbSymbolTableRecord
100
AcDbBlockTableRecord
  2
KLON1
340
0
102
{BLKREFS
331
24F
102
}
  0
BLOCK_RECORD
  5
250
330
1
100
AcDbSymbolTableRecord
100
AcDbBlockTableRecord
  2
KLON2
340
0
102
{BLKREFS
331
255
102
}
  0
BLOCK_RECORD
  5
256
330
1
100
AcDbSymbolTableRecord
100
AcDbBlockTableRecord
  2
KLON3
340
0
102
{BLKREFS
331
268
102
}
  0
BLOCK_RECORD
  5
269
330
1
100
AcDbSymbolTableRecord
100
AcDbBlockTableRecord
  2
KLON4
340
0
102
{BLKREFS
331
27A
102
}
  0
BLOCK_RECORD
  5
27C
330
1
100
AcDbSymbolTableRecord
100
AcDbBlockTableRecord
  2
KLON5
340
0
102
{BLKREFS
331
28D
102
}
  0
BLOCK_RECORD
  5
296
330
1
100
AcDbSymbolTableRecord
100
AcDbBlockTableRecord
  2
*D14
340
0
  0
BLOCK_RECORD
  5
2A3
330
1
100
AcDbSymbolTableRecord
100
AcDbBlockTableRecord
  2
*D15
340
0
  0
BLOCK_RECORD
  5
2B0
330
1
100
AcDbSymbolTableRecord
100
AcDbBlockTableRecord
  2
*D16
340
0
  0
BLOCK_RECORD
  5
2BD
330
1
100
AcDbSymbolTableRecord
100
AcDbBlockTableRecord
  2
*D17
340
0
  0
BLOCK_RECORD
  5
2CA
330
1
100
AcDbSymbolTableRecord
100
AcDbBlockTableRecord
  2
*D18
340
0
  0
ENDTAB
  0
ENDSEC
  0
SECTION
  2
BLOCKS
  0
BLOCK
  5
20
330
1F
100
AcDbEntity
  8
0
100
AcDbBlockBegin
  2
*Model_Space
 70
     0
 71
     0
 10
0.0
 20
0.0
 30
0.0
  3
*Model_Space
  1

  0
ENDBLK
  5
21
330
1F
100
AcDbEntity
  8
0
100
AcDbBlockEnd
  0
BLOCK
  5
1C
330
1B
100
AcDbEntity
 67
     1
  8
0
100
AcDbBlockBegin
  2
*Paper_Space
 70
     0
 71
     0
 10
0.0
 20
0.0
 30
0.0
  3
*Paper_Space
  1

  0
ENDBLK
  5
1D
330
1B
100
AcDbEntity
 67
     1
  8
0
100
AcDbBlockEnd
  0
BLOCK
  5
24
330
23
100
AcDbEntity
  8
0
100
AcDbBlockBegin
  2
*Paper_Space0
 70
     0
 71
     0
 10
0.0
 20
0.0
 30
0.0
  3
*Paper_Space0
  1

  0
ENDBLK
  5
25
330
23
100
AcDbEntity
  8
0
100
AcDbBlockEnd
  0
BLOCK
  5
B4
330
B3
100
AcDbEntity
  8
0
100
AcDbBlockBegin
  2
POLY1
 70
     0
 71
     0
 10
0.0
 20
0.0
 30
0.0
  3
POLY1
  1

  4
POLY1
  0
LINE
  5
B6
330
B3
100
AcDbEntity
  8
LC-001-100-D00-0
 62
     7
370
    50
100
AcDbLine
 10
-36.008083
 20
222.556562
 30
0.0
 11
-36.008083
 21
222.556562
 31
0.0
  0
LINE
  5
B7
330
B3
100
AcDbEntity
  8
LC-001-100-D00-0
 62
     7
370
    50
100
AcDbLine
 10
-36.008083
 20
222.556562
 30
0.0
 11
-36.006262
 21
222.667799
 31
0.0
  0
LINE
  5
B8
330
B3
100
AcDbEntity
  8
LC-001-100-D00-0
 62
     7
370
    50
100
AcDbLine
 10
-36.006262
 20
222.667799
 30
0.0
 11
-36.006262
 21
222.667799
 31
0.0
  0
LINE
  5
B9
330
B3
100
AcDbEntity
  8
LC-001-100-D00-0
 62
     7
370
    50
100
AcDbLine
 10
-36.006262
 20
222.667799
 30
0.0
 11
-36.002621
 21
222.89025
 31
0.0
  0
LINE
  5
BA
330
B3
100
AcDbEntity
  8
LC-001-100-D00-0
 62
     7
370
    50
100
AcDbLine
 10
-36.002621
 20
222.89025
 30
0.0
 11
-36.002621
 21
222.89025
 31
0.0
  0
LINE
  5
BB
330
B3
100
AcDbEntity
  8
LC-001-100-D00-0
 62
     7
370
    50
100
AcDbLine
 10
-36.002621
 20
222.89025
 30
0.0
 11
-35.974003
 21
223.187145
 31
0.0
  0
LINE
  5
BC
330
B3
100
AcDbEntity
  8
LC-001-100-D00-0
 62
     7
370
    50
100
AcDbLine
 10
-35.974003
 20
223.187145
 30
0.0
 11
-35.974003
 21
223.187145
 31
0.0
  0
LINE
  5
BD
330
B3
100
AcDbEntity
  8
LC-001-100-D00-0
 62
     7
370
    50
100
AcDbLine
 10
-35.974003
 20
223.187145
 30
0.0
 11
-35.930948
 21
223.413237
 31
0.0
  0
LINE
  5
BE
330
B3
100
AcDbEntity
  8
LC-001-100-D00-0
 62
     7
370
    50
100
AcDbLine
 10
-35.930948
 20
223.413237
 30
0.0
 11
-35.930948
 21
223.413237
 31
0.0
  0
LINE
  5
BF
330
B3
100
AcDbEntity
  8
LC-001-100-D00-0
 62
     7
370
    50
100
AcDbLine
 10
-35.930948
 20
223.413237
 30
0.0
 11
-35.881074
 21
223.537849
 31
0.0
  0
LINE
  5
C0
330
B3
100
AcDbEntity
  8
LC-001-100-D00-0
 62
     7
370
    50
100
AcDbLine
 10
-35.881074
 20
223.537849
 30
0.0
 11
-35.881074
 21
223.537849
 31
0.0
  0
LINE
  5
C1
330
B3
100
AcDbEntity
  8
LC-001-100-D00-0
 62
     7
370
    50
100
AcDbLine
 10
-35.881074
 20
223.537849
 30
0.0
 11
-35.846491
 21
223.551085
 31
0.0
  0
LINE
  5
C2
330
B3
100
AcDbEntity
  8
LC-001-100-D00-0
 62
     7
370
    50
100
AcDbLine
 10
-35.846491
 20
223.551085
 30
0.0
 11
-35.846491
 21
223.551085
 31
0.0
  0
LINE
  5
C3
330
B3
100
AcDbEntity
  8
LC-001-100-D00-0
 62
     7
370
    50
100
AcDbLine
 10
-35.846491
 20
223.551085
 30
0.0
 11
-35.832175
 21
223.556565
 31
0.0
  0
ENDBLK
  5
B5
330
B3
100
AcDbEntity
  8
0
100
AcDbBlockEnd
  0
BLOCK
  5
CA
330
C9
100
AcDbEntity
  8
0
100
AcDbBlockBegin
  2
POLY2
 70
     0
 71
     0
 10
0.0
 20
0.0
 30
0.0
  3
POLY2
  1

  4
POLY2
  0
LINE
  5
CC
330
C9
100
AcDbEntity
  8
LC-001-100-D00-0
 62
     7
370
    50
100
AcDbLine
 10
103.84114
 20
223.556565
 30
0.0
 11
103.84114
 21
223.556565
 31
0.0
  0
LINE
  5
CD
330
C9
100
AcDbEntity
  8
LC-001-100-D00-0
 62
     7
370
    50
100
AcDbLine
 10
103.84114
 20
223.556565
 30
0.0
 11
103.861802
 21
223.545285
 31
0.0
  0
LINE
  5
CE
330
C9
100
AcDbEntity
  8
LC-001-100-D00-0
 62
     7
370
    50
100
AcDbLine
 10
103.861802
 20
223.545285
 30
0.0
 11
103.861802
 21
223.545285
 31
0.0
  0
LINE
  5
CF
330
C9
100
AcDbEntity
  8
LC-001-100-D00-0
 62
     7
370
    50
100
AcDbLine
 10
103.861802
 20
223.545285
 30
0.0
 11
103.903132
 21
223.522722
 31
0.0
  0
LINE
  5
D0
330
C9
100
AcDbEntity
  8
LC-001-100-D00-0
 62
     7
370
    50
100
AcDbLine
 10
103.903132
 20
223.522722
 30
0.0
 11
103.903132
 21
223.522722
 31
0.0
  0
LINE
  5
D1
330
C9
100
AcDbEntity
  8
LC-001-100-D00-0
 62
     7
370
    50
100
AcDbLine
 10
103.903132
 20
223.522722
 30
0.0
 11
103.956233
 21
223.34618
 31
0.0
  0
LINE
  5
D2
330
C9
100
AcDbEntity
  8
LC-001-100-D00-0
 62
     7
370
    50
100
AcDbLine
 10
103.956233
 20
223.34618
 30
0.0
 11
103.956233
 21
223.34618
 31
0.0
  0
LINE
  5
D3
330
C9
100
AcDbEntity
  8
LC-001-100-D00-0
 62
     7
370
    50
100
AcDbLine
 10
103.956233
 20
223.34618
 30
0.0
 11
103.995052
 21
223.087126
 31
0.0
  0
LINE
  5
D4
330
C9
100
AcDbEntity
  8
LC-001-100-D00-0
 62
     7
370
    50
100
AcDbLine
 10
103.995052
 20
223.087126
 30
0.0
 11
103.995052
 21
223.087126
 31
0.0
  0
LINE
  5
D5
330
C9
100
AcDbEntity
  8
LC-001-100-D00-0
 62
     7
370
    50
100
AcDbLine
 10
103.995052
 20
223.087126
 30
0.0
 11
104.014438
 21
222.806854
 31
0.0
  0
LINE
  5
D6
330
C9
100
AcDbEntity
  8
LC-001-100-D00-0
 62
     7
370
    50
100
AcDbLine
 10
104.014438
 20
222.806854
 30
0.0
 11
104.014438
 21
222.806854
 31
0.0
  0
LINE
  5
D7
330
C9
100
AcDbEntity
  8
LC-001-100-D00-0
 62
     7
370
    50
100
AcDbLine
 10
104.014438
 20
222.806854
 30
0.0
 11
104.01633
 21
222.625455
 31
0.0
  0
LINE
  5
D8
330
C9
100
AcDbEntity
  8
LC-001-100-D00-0
 62
     7
370
    50
100
AcDbLine
 10
104.01633
 20
222.625455
 30
0.0
 11
104.01633
 21
222.625455
 31
0.0
  0
LINE
  5
D9
330
C9
100
AcDbEntity
  8
LC-001-100-D00-0
 62
     7
370
    50
100
AcDbLine
 10
104.01633
 20
222.625455
 30
0.0
 11
104.017049
 21
222.556562
 31
0.0
  0
ENDBLK
  5
CB
330
C9
100
AcDbEntity
  8
0
100
AcDbBlockEnd
  0
BLOCK
  5
173
330
172
100
AcDbEntity
  8
0
100
AcDbBlockBegin
  2
POLY3
 70
     0
 71
     0
 10
0.0
 20
0.0
 30
0.0
  3
POLY3
  1

  4
POLY3
  0
LINE
  5
175
330
172
100
AcDbEntity
  8
LC-001-100-D00-0
 62
     7
370
    50
100
AcDbLine
 10
-35.832175
 20
223.556565
 30
0.0
 11
-35.832175
 21
223.556565
 31
0.0
  0
LINE
  5
176
330
172
100
AcDbEntity
  8
LC-001-100-D00-0
 62
     7
370
    50
100
AcDbLine
 10
-35.832175
 20
223.556565
 30
0.0
 11
-35.81111
 21
223.545212
 31
0.0
  0
LINE
  5
177
330
172
100
AcDbEntity
  8
LC-001-100-D00-0
 62
     7
370
    50
100
AcDbLine
 10
-35.81111
 20
223.545212
 30
0.0
 11
-35.81111
 21
223.545212
 31
0.0
  0
LINE
  5
178
330
172
100
AcDbEntity
  8
LC-001-100-D00-0
 62
     7
370
    50
100
AcDbLine
 10
-35.81111
 20
223.545212
 30
0.0
 11
-35.768977
 21
223.522503
 31
0.0
  0
LINE
  5
179
330
172
100
AcDbEntity
  8
LC-001-100-D00-0
 62
     7
370
    50
100
AcDbLine
 10
-35.768977
 20
223.522503
 30
0.0
 11
-35.768977
 21
223.522503
 31
0.0
  0
LINE
  5
17A
330
172
100
AcDbEntity
  8
LC-001-100-D00-0
 62
     7
370
    50
100
AcDbLine
 10
-35.768977
 20
223.522503
 30
0.0
 11
-35.711033
 21
223.345274
 31
0.0
  0
LINE
  5
17B
330
172
100
AcDbEntity
  8
LC-001-100-D00-0
 62
     7
370
    50
100
AcDbLine
 10
-35.711033
 20
223.345274
 30
0.0
 11
-35.711033
 21
223.345274
 31
0.0
  0
LINE
  5
17C
330
172
100
AcDbEntity
  8
LC-001-100-D00-0
 62
     7
370
    50
100
AcDbLine
 10
-35.711033
 20
223.345274
 30
0.0
 11
-35.666994
 21
223.085321
 31
0.0
  0
LINE
  5
17D
330
172
100
AcDbEntity
  8
LC-001-100-D00-0
 62
     7
370
    50
100
AcDbLine
 10
-35.666994
 20
223.085321
 30
0.0
 11
-35.666994
 21
223.085321
 31
0.0
  0
LINE
  5
17E
330
172
100
AcDbEntity
  8
LC-001-100-D00-0
 62
     7
370
    50
100
AcDbLine
 10
-35.666994
 20
223.085321
 30
0.0
 11
-35.644469
 21
222.805028
 31
0.0
  0
LINE
  5
17F
330
172
100
AcDbEntity
  8
LC-001-100-D00-0
 62
     7
370
    50
100
AcDbLine
 10
-35.644469
 20
222.805028
 30
0.0
 11
-35.644469
 21
222.805028
 31
0.0
  0
LINE
  5
180
330
172
100
AcDbEntity
  8
LC-001-100-D00-0
 62
     7
370
    50
100
AcDbLine
 10
-35.644469
 20
222.805028
 30
0.0
 11
-35.642288
 21
222.624385
 31
0.0
  0
LINE
  5
181
330
172
100
AcDbEntity
  8
LC-001-100-D00-0
 62
     7
370
    50
100
AcDbLine
 10
-35.642288
 20
222.624385
 30
0.0
 11
-35.642288
 21
222.624385
 31
0.0
  0
LINE
  5
182
330
172
100
AcDbEntity
  8
LC-001-100-D00-0
 62
     7
370
    50
100
AcDbLine
 10
-35.642288
 20
222.624385
 30
0.0
 11
-35.64147
 21
222.556562
 31
0.0
  0
ENDBLK
  5
174
330
172
100
AcDbEntity
  8
0
100
AcDbBlockEnd
  0
BLOCK
  5
185
330
184
100
AcDbEntity
  8
0
100
AcDbBlockBegin
  2
POLY4
 70
     0
 71
     0
 10
0.0
 20
0.0
 30
0.0
  3
POLY4
  1

  4
POLY4
  0
LINE
  5
187
330
184
100
AcDbEntity
  8
LC-001-100-D00-0
 62
     7
370
    50
100
AcDbLine
 10
20.20449
 20
222.556562
 30
0.0
 11
20.20449
 21
222.556562
 31
0.0
  0
LINE
  5
188
330
184
100
AcDbEntity
  8
LC-001-100-D00-0
 62
     7
370
    50
100
AcDbLine
 10
20.20449
 20
222.556562
 30
0.0
 11
20.215254
 21
222.66743
 31
0.0
  0
LINE
  5
189
330
184
100
AcDbEntity
  8
LC-001-100-D00-0
 62
     7
370
    50
100
AcDbLine
 10
20.215254
 20
222.66743
 30
0.0
 11
20.215254
 21
222.66743
 31
0.0
  0
LINE
  5
18A
330
184
100
AcDbEntity
  8
LC-001-100-D00-0
 62
     7
370
    50
100
AcDbLine
 10
20.215254
 20
222.66743
 30
0.0
 11
20.23678
 21
222.889126
 31
0.0
  0
LINE
  5
18B
330
184
100
AcDbEntity
  8
LC-001-100-D00-0
 62
     7
370
    50
100
AcDbLine
 10
20.23678
 20
222.889126
 30
0.0
 11
20.23678
 21
222.889126
 31
0.0
  0
LINE
  5
18C
330
184
100
AcDbEntity
  8
LC-001-100-D00-0
 62
     7
370
    50
100
AcDbLine
 10
20.23678
 20
222.889126
 30
0.0
 11
20.404295
 21
223.185206
 31
0.0
  0
LINE
  5
18D
330
184
100
AcDbEntity
  8
LC-001-100-D00-0
 62
     7
370
    50
100
AcDbLine
 10
20.404295
 20
223.185206
 30
0.0
 11
20.404295
 21
223.185206
 31
0.0
  0
LINE
  5
18E
330
184
100
AcDbEntity
  8
LC-001-100-D00-0
 62
     7
370
    50
100
AcDbLine
 10
20.404295
 20
223.185206
 30
0.0
 11
20.651792
 21
223.411567
 31
0.0
  0
LINE
  5
18F
330
184
100
AcDbEntity
  8
LC-001-100-D00-0
 62
     7
370
    50
100
AcDbLine
 10
20.651792
 20
223.411567
 30
0.0
 11
20.651792
 21
223.411567
 31
0.0
  0
LINE
  5
190
330
184
100
AcDbEntity
  8
LC-001-100-D00-0
 62
     7
370
    50
100
AcDbLine
 10
20.651792
 20
223.411567
 30
0.0
 11
20.933929
 21
223.53746
 31
0.0
  0
LINE
  5
191
330
184
100
AcDbEntity
  8
LC-001-100-D00-0
 62
     7
370
    50
100
AcDbLine
 10
20.933929
 20
223.53746
 30
0.0
 11
20.933929
 21
223.53746
 31
0.0
  0
LINE
  5
192
330
184
100
AcDbEntity
  8
LC-001-100-D00-0
 62
     7
370
    50
100
AcDbLine
 10
20.933929
 20
223.53746
 30
0.0
 11
21.125009
 21
223.550952
 31
0.0
  0
LINE
  5
193
330
184
100
AcDbEntity
  8
LC-001-100-D00-0
 62
     7
370
    50
100
AcDbLine
 10
21.125009
 20
223.550952
 30
0.0
 11
21.125009
 21
223.550952
 31
0.0
  0
LINE
  5
194
330
184
100
AcDbEntity
  8
LC-001-100-D00-0
 62
     7
370
    50
100
AcDbLine
 10
21.125009
 20
223.550952
 30
0.0
 11
21.204489
 21
223.556565
 31
0.0
  0
ENDBLK
  5
186
330
184
100
AcDbEntity
  8
0
100
AcDbBlockEnd
  0
BLOCK
  5
19A
330
199
100
AcDbEntity
  8
0
100
AcDbBlockBegin
  2
POLY5
 70
     0
 71
     0
 10
0.0
 20
0.0
 30
0.0
  3
POLY5
  1

  4
POLY5
  0
LINE
  5
19C
330
199
100
AcDbEntity
  8
LC-001-100-D00-0
 62
     7
370
    50
100
AcDbLine
 10
103.650435
 20
222.556562
 30
0.0
 11
103.650435
 21
222.556562
 31
0.0
  0
LINE
  5
19D
330
199
100
AcDbEntity
  8
LC-001-100-D00-0
 62
     7
370
    50
100
AcDbLine
 10
103.650435
 20
222.556562
 30
0.0
 11
103.652575
 21
222.66743
 31
0.0
  0
LINE
  5
19E
330
199
100
AcDbEntity
  8
LC-001-100-D00-0
 62
     7
370
    50
100
AcDbLine
 10
103.652575
 20
222.66743
 30
0.0
 11
103.652575
 21
222.66743
 31
0.0
  0
LINE
  5
19F
330
199
100
AcDbEntity
  8
LC-001-100-D00-0
 62
     7
370
    50
100
AcDbLine
 10
103.652575
 20
222.66743
 30
0.0
 11
103.656854
 21
222.889126
 31
0.0
  0
LINE
  5
1A0
330
199
100
AcDbEntity
  8
LC-001-100-D00-0
 62
     7
370
    50
100
AcDbLine
 10
103.656854
 20
222.889126
 30
0.0
 11
103.656854
 21
222.889126
 31
0.0
  0
LINE
  5
1A1
330
199
100
AcDbEntity
  8
LC-001-100-D00-0
 62
     7
370
    50
100
AcDbLine
 10
103.656854
 20
222.889126
 30
0.0
 11
103.689839
 21
223.185206
 31
0.0
  0
LINE
  5
1A2
330
199
100
AcDbEntity
  8
LC-001-100-D00-0
 62
     7
370
    50
100
AcDbLine
 10
103.689839
 20
223.185206
 30
0.0
 11
103.689839
 21
223.185206
 31
0.0
  0
LINE
  5
1A3
330
199
100
AcDbEntity
  8
LC-001-100-D00-0
 62
     7
370
    50
100
AcDbLine
 10
103.689839
 20
223.185206
 30
0.0
 11
103.737764
 21
223.411567
 31
0.0
  0
LINE
  5
1A4
330
199
100
AcDbEntity
  8
LC-001-100-D00-0
 62
     7
370
    50
100
AcDbLine
 10
103.737764
 20
223.411567
 30
0.0
 11
103.737764
 21
223.411567
 31
0.0
  0
LINE
  5
1A5
330
199
100
AcDbEntity
  8
LC-001-100-D00-0
 62
     7
370
    50
100
AcDbLine
 10
103.737764
 20
223.411567
 30
0.0
 11
103.791264
 21
223.53746
 31
0.0
  0
LINE
  5
1A6
330
199
100
AcDbEntity
  8
LC-001-100-D00-0
 62
     7
370
    50
100
AcDbLine
 10
103.791264
 20
223.53746
 30
0.0
 11
103.791264
 21
223.53746
 31
0.0
  0
LINE
  5
1A7
330
199
100
AcDbEntity
  8
LC-001-100-D00-0
 62
     7
370
    50
100
AcDbLine
 10
103.791264
 20
223.53746
 30
0.0
 11
103.826489
 21
223.550952
 31
0.0
  0
LINE
  5
1A8
330
199
100
AcDbEntity
  8
LC-001-100-D00-0
 62
     7
370
    50
100
AcDbLine
 10
103.826489
 20
223.550952
 30
0.0
 11
103.826489
 21
223.550952
 31
0.0
  0
LINE
  5
1A9
330
199
100
AcDbEntity
  8
LC-001-100-D00-0
 62
     7
370
    50
100
AcDbLine
 10
103.826489
 20
223.550952
 30
0.0
 11
103.84114
 21
223.556565
 31
0.0
  0
ENDBLK
  5
19B
330
199
100
AcDbEntity
  8
0
100
AcDbBlockEnd
  0
BLOCK
  5
1AC
330
1AB
100
AcDbEntity
  8
0
100
AcDbBlockBegin
  2
POLY6
 70
     0
 71
     0
 10
0.0
 20
0.0
 30
0.0
  3
POLY6
  1

  4
POLY6
  0
LINE
  5
1AE
330
1AB
100
AcDbEntity
  8
LC-001-100-D00-0
 62
     7
370
    50
100
AcDbLine
 10
46.804568
 20
223.556565
 30
0.0
 11
46.804568
 21
223.556565
 31
0.0
  0
LINE
  5
1AF
330
1AB
100
AcDbEntity
  8
LC-001-100-D00-0
 62
     7
370
    50
100
AcDbLine
 10
46.804568
 20
223.556565
 30
0.0
 11
46.918554
 21
223.545212
 31
0.0
  0
LINE
  5
1B0
330
1AB
100
AcDbEntity
  8
LC-001-100-D00-0
 62
     7
370
    50
100
AcDbLine
 10
46.918554
 20
223.545212
 30
0.0
 11
46.918554
 21
223.545212
 31
0.0
  0
LINE
  5
1B1
330
1AB
100
AcDbEntity
  8
LC-001-100-D00-0
 62
     7
370
    50
100
AcDbLine
 10
46.918554
 20
223.545212
 30
0.0
 11
47.146551
 21
223.522503
 31
0.0
  0
LINE
  5
1B2
330
1AB
100
AcDbEntity
  8
LC-001-100-D00-0
 62
     7
370
    50
100
AcDbLine
 10
47.146551
 20
223.522503
 30
0.0
 11
47.146551
 21
223.522503
 31
0.0
  0
LINE
  5
1B3
330
1AB
100
AcDbEntity
  8
LC-001-100-D00-0
 62
     7
370
    50
100
AcDbLine
 10
47.146551
 20
223.522503
 30
0.0
 11
47.449566
 21
223.345274
 31
0.0
  0
LINE
  5
1B4
330
1AB
100
AcDbEntity
  8
LC-001-100-D00-0
 62
     7
370
    50
100
AcDbLine
 10
47.449566
 20
223.345274
 30
0.0
 11
47.449566
 21
223.345274
 31
0.0
  0
LINE
  5
1B5
330
1AB
100
AcDbEntity
  8
LC-001-100-D00-0
 62
     7
370
    50
100
AcDbLine
 10
47.449566
 20
223.345274
 30
0.0
 11
47.675542
 21
223.085321
 31
0.0
  0
LINE
  5
1B6
330
1AB
100
AcDbEntity
  8
LC-001-100-D00-0
 62
     7
370
    50
100
AcDbLine
 10
47.675542
 20
223.085321
 30
0.0
 11
47.675542
 21
223.085321
 31
0.0
  0
LINE
  5
1B7
330
1AB
100
AcDbEntity
  8
LC-001-100-D00-0
 62
     7
370
    50
100
AcDbLine
 10
47.675542
 20
223.085321
 30
0.0
 11
47.789457
 21
222.805028
 31
0.0
  0
LINE
  5
1B8
330
1AB
100
AcDbEntity
  8
LC-001-100-D00-0
 62
     7
370
    50
100
AcDbLine
 10
47.789457
 20
222.805028
 30
0.0
 11
47.789457
 21
222.805028
 31
0.0
  0
LINE
  5
1B9
330
1AB
100
AcDbEntity
  8
LC-001-100-D00-0
 62
     7
370
    50
100
AcDbLine
 10
47.789457
 20
222.805028
 30
0.0
 11
47.800443
 21
222.624385
 31
0.0
  0
LINE
  5
1BA
330
1AB
100
AcDbEntity
  8
LC-001-100-D00-0
 62
     7
370
    50
100
AcDbLine
 10
47.800443
 20
222.624385
 30
0.0
 11
47.800443
 21
222.624385
 31
0.0
  0
LINE
  5
1BB
330
1AB
100
AcDbEntity
  8
LC-001-100-D00-0
 62
     7
370
    50
100
AcDbLine
 10
47.800443
 20
222.624385
 30
0.0
 11
47.804568
 21
222.556562
 31
0.0
  0
ENDBLK
  5
1AD
330
1AB
100
AcDbEntity
  8
0
100
AcDbBlockEnd
  0
BLOCK
  5
1FC
330
1FB
100
AcDbEntity
  8
0
100
AcDbBlockBegin
  2
POLY7
 70
     0
 71
     0
 10
0.0
 20
0.0
 30
0.0
  3
POLY7
  1

  4
POLY7
  0
LINE
  5
1FE
330
1FB
100
AcDbEntity
  8
LC-001-100-D00-0
 62
     7
370
    50
100
AcDbLine
 10
45.804569
 20
222.556562
 30
0.0
 11
45.804569
 21
222.556562
 31
0.0
  0
LINE
  5
1FF
330
1FB
100
AcDbEntity
  8
LC-001-100-D00-0
 62
     7
370
    50
100
AcDbLine
 10
45.804569
 20
222.556562
 30
0.0
 11
45.815403
 21
222.667799
 31
0.0
  0
LINE
  5
200
330
1FB
100
AcDbEntity
  8
LC-001-100-D00-0
 62
     7
370
    50
100
AcDbLine
 10
45.815403
 20
222.667799
 30
0.0
 11
45.815403
 21
222.667799
 31
0.0
  0
LINE
  5
201
330
1FB
100
AcDbEntity
  8
LC-001-100-D00-0
 62
     7
370
    50
100
AcDbLine
 10
45.815403
 20
222.667799
 30
0.0
 11
45.837068
 21
222.89025
 31
0.0
  0
LINE
  5
202
330
1FB
100
AcDbEntity
  8
LC-001-100-D00-0
 62
     7
370
    50
100
AcDbLine
 10
45.837068
 20
222.89025
 30
0.0
 11
45.837068
 21
222.89025
 31
0.0
  0
LINE
  5
203
330
1FB
100
AcDbEntity
  8
LC-001-100-D00-0
 62
     7
370
    50
100
AcDbLine
 10
45.837068
 20
222.89025
 30
0.0
 11
46.005706
 21
223.187145
 31
0.0
  0
LINE
  5
204
330
1FB
100
AcDbEntity
  8
LC-001-100-D00-0
 62
     7
370
    50
100
AcDbLine
 10
46.005706
 20
223.187145
 30
0.0
 11
46.005706
 21
223.187145
 31
0.0
  0
LINE
  5
205
330
1FB
100
AcDbEntity
  8
LC-001-100-D00-0
 62
     7
370
    50
100
AcDbLine
 10
46.005706
 20
223.187145
 30
0.0
 11
46.254442
 21
223.413237
 31
0.0
  0
LINE
  5
206
330
1FB
100
AcDbEntity
  8
LC-001-100-D00-0
 62
     7
370
    50
100
AcDbLine
 10
46.254442
 20
223.413237
 30
0.0
 11
46.254442
 21
223.413237
 31
0.0
  0
LINE
  5
207
330
1FB
100
AcDbEntity
  8
LC-001-100-D00-0
 62
     7
370
    50
100
AcDbLine
 10
46.254442
 20
223.413237
 30
0.0
 11
46.536254
 21
223.537849
 31
0.0
  0
LINE
  5
208
330
1FB
100
AcDbEntity
  8
LC-001-100-D00-0
 62
     7
370
    50
100
AcDbLine
 10
46.536254
 20
223.537849
 30
0.0
 11
46.536254
 21
223.537849
 31
0.0
  0
LINE
  5
209
330
1FB
100
AcDbEntity
  8
LC-001-100-D00-0
 62
     7
370
    50
100
AcDbLine
 10
46.536254
 20
223.537849
 30
0.0
 11
46.726012
 21
223.551085
 31
0.0
  0
LINE
  5
20A
330
1FB
100
AcDbEntity
  8
LC-001-100-D00-0
 62
     7
370
    50
100
AcDbLine
 10
46.726012
 20
223.551085
 30
0.0
 11
46.726012
 21
223.551085
 31
0.0
  0
LINE
  5
20B
330
1FB
100
AcDbEntity
  8
LC-001-100-D00-0
 62
     7
370
    50
100
AcDbLine
 10
46.726012
 20
223.551085
 30
0.0
 11
46.804568
 21
223.556565
 31
0.0
  0
ENDBLK
  5
1FD
330
1FB
100
AcDbEntity
  8
0
100
AcDbBlockEnd
  0
BLOCK
  5
211
330
210
100
AcDbEntity
  8
0
100
AcDbBlockBegin
  2
POLY8
 70
     0
 71
     0
 10
0.0
 20
0.0
 30
0.0
  3
POLY8
  1

  4
POLY8
  0
LINE
  5
213
330
210
100
AcDbEntity
  8
LC-001-100-D00-0
 62
     7
370
    50
100
AcDbLine
 10
21.204489
 20
223.556565
 30
0.0
 11
21.204489
 21
223.556565
 31
0.0
  0
LINE
  5
214
330
210
100
AcDbEntity
  8
LC-001-100-D00-0
 62
     7
370
    50
100
AcDbLine
 10
21.204489
 20
223.556565
 30
0.0
 11
21.318162
 21
223.545285
 31
0.0
  0
LINE
  5
215
330
210
100
AcDbEntity
  8
LC-001-100-D00-0
 62
     7
370
    50
100
AcDbLine
 10
21.318162
 20
223.545285
 30
0.0
 11
21.318162
 21
223.545285
 31
0.0
  0
LINE
  5
216
330
210
100
AcDbEntity
  8
LC-001-100-D00-0
 62
     7
370
    50
100
AcDbLine
 10
21.318162
 20
223.545285
 30
0.0
 11
21.545543
 21
223.522722
 31
0.0
  0
LINE
  5
217
330
210
100
AcDbEntity
  8
LC-001-100-D00-0
 62
     7
370
    50
100
AcDbLine
 10
21.545543
 20
223.522722
 30
0.0
 11
21.545543
 21
223.522722
 31
0.0
  0
LINE
  5
218
330
210
100
AcDbEntity
  8
LC-001-100-D00-0
 62
     7
370
    50
100
AcDbLine
 10
21.545543
 20
223.522722
 30
0.0
 11
21.848275
 21
223.34618
 31
0.0
  0
LINE
  5
219
330
210
100
AcDbEntity
  8
LC-001-100-D00-0
 62
     7
370
    50
100
AcDbLine
 10
21.848275
 20
223.34618
 30
0.0
 11
21.848275
 21
223.34618
 31
0.0
  0
LINE
  5
21A
330
210
100
AcDbEntity
  8
LC-001-100-D00-0
 62
     7
370
    50
100
AcDbLine
 10
21.848275
 20
223.34618
 30
0.0
 11
22.074232
 21
223.087126
 31
0.0
  0
LINE
  5
21B
330
210
100
AcDbEntity
  8
LC-001-100-D00-0
 62
     7
370
    50
100
AcDbLine
 10
22.074232
 20
223.087126
 30
0.0
 11
22.074232
 21
223.087126
 31
0.0
  0
LINE
  5
21C
330
210
100
AcDbEntity
  8
LC-001-100-D00-0
 62
     7
370
    50
100
AcDbLine
 10
22.074232
 20
223.087126
 30
0.0
 11
22.189038
 21
222.806854
 31
0.0
  0
LINE
  5
21D
330
210
100
AcDbEntity
  8
LC-001-100-D00-0
 62
     7
370
    50
100
AcDbLine
 10
22.189038
 20
222.806854
 30
0.0
 11
22.189038
 21
222.806854
 31
0.0
  0
LINE
  5
21E
330
210
100
AcDbEntity
  8
LC-001-100-D00-0
 62
     7
370
    50
100
AcDbLine
 10
22.189038
 20
222.806854
 30
0.0
 11
22.200236
 21
222.625455
 31
0.0
  0
LINE
  5
21F
330
210
100
AcDbEntity
  8
LC-001-100-D00-0
 62
     7
370
    50
100
AcDbLine
 10
22.200236
 20
222.625455
 30
0.0
 11
22.200236
 21
222.625455
 31
0.0
  0
LINE
  5
220
330
210
100
AcDbEntity
  8
LC-001-100-D00-0
 62
     7
370
    50
100
AcDbLine
 10
22.200236
 20
222.625455
 30
0.0
 11
22.204489
 21
222.556562
 31
0.0
  0
ENDBLK
  5
212
330
210
100
AcDbEntity
  8
0
100
AcDbBlockEnd
  0
BLOCK
  5
24B
330
24A
100
AcDbEntity
  8
0
100
AcDbBlockBegin
  2
KLON1
 70
     0
 71
     0
 10
0.0
 20
0.0
 30
0.0
  3
KLON1
  1

  4
KLON1
  0
LINE
  5
24D
330
24A
100
AcDbEntity
  8
LC-001-100-D00-0
 62
     1
370
    25
100
AcDbLine
 10
97.252139
 20
133.25665
 30
0.0
 11
101.752139
 21
137.75665
 31
0.0
  0
LINE
  5
24E
330
24A
100
AcDbEntity
  8
LC-001-100-D00-0
 62
     1
370
    25
100
AcDbLine
 10
109.004472
 20
145.008982
 30
0.0
 11
111.254472
 21
147.258982
 31
0.0
  0
ENDBLK
  5
24C
330
24A
100
AcDbEntity
  8
0
100
AcDbBlockEnd
  0
BLOCK
  5
251
330
250
100
AcDbEntity
  8
0
100
AcDbBlockBegin
  2
KLON2
 70
     0
 71
     0
 10
0.0
 20
0.0
 30
0.0
  3
KLON2
  1

  4
KLON2
  0
LINE
  5
253
330
250
100
AcDbEntity
  8
LC-001-100-D00-0
 62
     1
370
    25
100
AcDbLine
 10
-36.745528
 20
133.962824
 30
0.0
 11
-32.951703
 21
137.75665
 31
0.0
  0
LINE
  5
254
330
250
100
AcDbEntity
  8
LC-001-100-D00-0
 62
     1
370
    25
100
AcDbLine
 10
-43.245528
 20
149.913464
 30
0.0
 11
-40.995528
 21
152.163464
 31
0.0
  0
ENDBLK
  5
252
330
250
100
AcDbEntity
  8
0
100
AcDbBlockEnd
  0
BLOCK
  5
257
330
256
100
AcDbEntity
  8
0
100
AcDbBlockBegin
  2
KLON3
 70
     0
 71
     0
 10
0.0
 20
0.0
 30
0.0
  3
KLON3
  1

  4
KLON3
  0
LINE
  5
259
330
256
100
AcDbEntity
  8
LC-001-100-D00-0
 62
     1
370
    25
100
AcDbLine
 10
105.004472
 20
208.360903
 30
0.0
 11
107.904472
 21
211.260903
 31
0.0
  0
LINE
  5
25A
330
256
100
AcDbEntity
  8
LC-001-100-D00-0
 62
     1
370
    25
100
AcDbLine
 10
104.504472
 20
230.311543
 30
0.0
 11
116.303428
 21
242.1105
 31
0.0
  0
LINE
  5
25B
330
256
100
AcDbEntity
  8
LC-001-100-D00-0
 62
     1
370
    25
100
AcDbLine
 10
98.765508
 20
247.02322
 30
0.0
 11
110.312561
 21
258.570273
 31
0.0
  0
LINE
  5
25C
330
256
100
AcDbEntity
  8
LC-001-100-D00-0
 62
     1
370
    25
100
AcDbLine
 10
92.774642
 20
263.482994
 30
0.0
 11
104.321693
 21
275.030046
 31
0.0
  0
LINE
  5
25D
330
256
100
AcDbEntity
  8
LC-001-100-D00-0
 62
     1
370
    25
100
AcDbLine
 10
86.783775
 20
279.942768
 30
0.0
 11
98.330826
 21
291.489819
 31
0.0
  0
LINE
  5
25E
330
256
100
AcDbEntity
  8
LC-001-100-D00-0
 62
     1
370
    25
100
AcDbLine
 10
75.846941
 20
291.456574
 30
0.0
 11
89.095852
 21
304.705485
 31
0.0
  0
LINE
  5
25F
330
256
100
AcDbEntity
  8
LC-001-100-D00-0
 62
     1
370
    25
100
AcDbLine
 10
53.396301
 20
291.456574
 30
0.0
 11
68.196301
 21
306.256574
 31
0.0
  0
LINE
  5
260
330
256
100
AcDbEntity
  8
LC-001-100-D00-0
 62
     1
370
    25
100
AcDbLine
 10
-39.895528
 20
220.615385
 30
0.0
 11
-36.995528
 21
223.515385
 31
0.0
  0
LINE
  5
261
330
256
100
AcDbEntity
  8
LC-001-100-D00-0
 62
     1
370
    25
100
AcDbLine
 10
-36.954346
 20
223.556568
 30
0.0
 11
-36.495528
 21
224.015385
 31
0.0
  0
LINE
  5
262
330
256
100
AcDbEntity
  8
LC-001-100-D00-0
 62
     1
370
    25
100
AcDbLine
 10
30.94566
 20
291.456574
 30
0.0
 11
45.74566
 21
306.256574
 31
0.0
  0
LINE
  5
263
330
256
100
AcDbEntity
  8
LC-001-100-D00-0
 62
     1
370
    25
100
AcDbLine
 10
45.806736
 20
306.31765
 30
0.0
 11
45.84566
 21
306.356574
 31
0.0
  0
LINE
  5
264
330
256
100
AcDbEntity
  8
LC-001-100-D00-0
 62
     1
370
    25
100
AcDbLine
 10
-50.498964
 20
232.46259
 30
0.0
 11
-27.791281
 21
255.170273
 31
0.0
  0
LINE
  5
265
330
256
100
AcDbEntity
  8
LC-001-100-D00-0
 62
     1
370
    25
100
AcDbLine
 10
8.49502
 20
291.456574
 30
0.0
 11
23.29502
 21
306.256574
 31
0.0
  0
LINE
  5
266
330
256
100
AcDbEntity
  8
LC-001-100-D00-0
 62
     1
370
    25
100
AcDbLine
 10
-39.706557
 20
265.705637
 30
0.0
 11
-14.943829
 21
290.468365
 31
0.0
  0
LINE
  5
267
330
256
100
AcDbEntity
  8
LC-001-100-D00-0
 62
     1
370
    25
100
AcDbLine
 10
-13.95562
 20
291.456574
 30
0.0
 11
0.84438
 21
306.256574
 31
0.0
  0
ENDBLK
  5
258
330
256
100
AcDbEntity
  8
0
100
AcDbBlockEnd
  0
BLOCK
  5
26A
330
269
100
AcDbEntity
  8
0
100
AcDbBlockBegin
  2
KLON4
 70
     0
 71
     0
 10
0.0
 20
0.0
 30
0.0
  3
KLON4
  1

  4
KLON4
  0
LINE
  5
26C
330
269
100
AcDbEntity
  8
LC-001-100-D00-0
 62
     1
370
    25
100
AcDbLine
 10
93.004472
 20
84.107702
 30
0.0
 11
96.504472
 21
87.607702
 31
0.0
  0
LINE
  5
26D
330
269
100
AcDbEntity
  8
LC-001-100-D00-0
 62
     1
370
    25
100
AcDbLine
 10
93.004472
 20
106.558342
 30
0.0
 11
96.504472
 21
110.058342
 31
0.0
  0
LINE
  5
26E
330
269
100
AcDbEntity
  8
LC-001-100-D00-0
 62
     1
370
    25
100
AcDbLine
 10
93.004472
 20
129.008982
 30
0.0
 11
96.504472
 21
132.508982
 31
0.0
  0
LINE
  5
26F
330
269
100
AcDbEntity
  8
LC-001-100-D00-0
 62
     1
370
    25
100
AcDbLine
 10
111.227554
 20
147.232065
 30
0.0
 11
114.104472
 21
150.108982
 31
0.0
  0
LINE
  5
270
330
269
100
AcDbEntity
  8
LC-001-100-D00-0
 62
     1
370
    25
100
AcDbLine
 10
191.752478
 20
227.756989
 30
0.0
 11
195.252057
 21
231.256568
 31
0.0
  0
LINE
  5
271
330
269
100
AcDbEntity
  8
LC-001-100-D00-0
 62
     1
370
    25
100
AcDbLine
 10
97.504472
 20
155.959622
 30
0.0
 11
101.004472
 21
159.459622
 31
0.0
  0
LINE
  5
272
330
269
100
AcDbEntity
  8
LC-001-100-D00-0
 62
     1
370
    25
100
AcDbLine
 10
110.925748
 20
169.380899
 30
0.0
 11
114.104472
 21
172.559622
 31
0.0
  0
LINE
  5
273
330
269
100
AcDbEntity
  8
LC-001-100-D00-0
 62
     1
370
    25
100
AcDbLine
 10
169.301838
 20
227.756989
 30
0.0
 11
172.801417
 21
231.256568
 31
0.0
  0
LINE
  5
274
330
269
100
AcDbEntity
  8
LC-001-100-D00-0
 62
     1
370
    25
100
AcDbLine
 10
97.504472
 20
178.410263
 30
0.0
 11
101.004472
 21
181.910263
 31
0.0
  0
LINE
  5
275
330
269
100
AcDbEntity
  8
LC-001-100-D00-0
 62
     1
370
    25
100
AcDbLine
 10
102.850857
 20
183.756648
 30
0.0
 11
106.904472
 21
187.810263
 31
0.0
  0
LINE
  5
276
330
269
100
AcDbEntity
  8
LC-001-100-D00-0
 62
     1
370
    25
100
AcDbLine
 10
110.623942
 20
191.529733
 30
0.0
 11
114.104472
 21
195.010263
 31
0.0
  0
LINE
  5
277
330
269
100
AcDbEntity
  8
LC-001-100-D00-0
 62
     1
370
    25
100
AcDbLine
 10
146.851198
 20
227.756989
 30
0.0
 11
150.350777
 21
231.256568
 31
0.0
  0
LINE
  5
278
330
269
100
AcDbEntity
  8
LC-001-100-D00-0
 62
     1
370
    25
100
AcDbLine
 10
112.754426
 20
216.110858
 30
0.0
 11
116.254461
 21
219.610892
 31
0.0
  0
LINE
  5
279
330
269
100
AcDbEntity
  8
LC-001-100-D00-0
 62
     1
370
    25
100
AcDbLine
 10
124.400557
 20
227.756989
 30
0.0
 11
127.900136
 21
231.256568
 31
0.0
  0
ENDBLK
  5
26B
330
269
100
AcDbEntity
  8
0
100
AcDbBlockEnd
  0
BLOCK
  5
27D
330
27C
100
AcDbEntity
  8
0
100
AcDbBlockBegin
  2
KLON5
 70
     0
 71
     0
 10
0.0
 20
0.0
 30
0.0
  3
KLON5
  1

  4
KLON5
  0
LINE
  5
27F
330
27C
100
AcDbEntity
  8
LC-001-100-D00-0
 62
     1
370
    25
100
AcDbLine
 10
-28.200573
 20
75.155859
 30
0.0
 11
-24.995528
 21
78.360903
 31
0.0
  0
LINE
  5
280
330
27C
100
AcDbEntity
  8
LC-001-100-D00-0
 62
     1
370
    25
100
AcDbLine
 10
-28.495528
 20
97.311543
 30
0.0
 11
-24.995528
 21
100.811543
 31
0.0
  0
LINE
  5
281
330
27C
100
AcDbEntity
  8
LC-001-100-D00-0
 62
     1
370
    25
100
AcDbLine
 10
-28.495528
 20
119.762184
 30
0.0
 11
-24.995528
 21
123.262184
 31
0.0
  0
LINE
  5
282
330
27C
100
AcDbEntity
  8
LC-001-100-D00-0
 62
     1
370
    25
100
AcDbLine
 10
-28.495528
 20
142.212824
 30
0.0
 11
-24.995528
 21
145.712824
 31
0.0
  0
LINE
  5
283
330
27C
100
AcDbEntity
  8
LC-001-100-D00-0
 62
     1
370
    25
100
AcDbLine
 10
-46.095528
 20
147.063464
 30
0.0
 11
-43.181197
 21
149.977796
 31
0.0
  0
LINE
  5
284
330
27C
100
AcDbEntity
  8
LC-001-100-D00-0
 62
     1
370
    25
100
AcDbLine
 10
-32.995528
 20
160.163464
 30
0.0
 11
-29.495528
 21
163.663464
 31
0.0
  0
LINE
  5
285
330
27C
100
AcDbEntity
  8
LC-001-100-D00-0
 62
     1
370
    25
100
AcDbLine
 10
-46.095528
 20
169.514105
 30
0.0
 11
-42.871052
 21
172.738581
 31
0.0
  0
LINE
  5
286
330
27C
100
AcDbEntity
  8
LC-001-100-D00-0
 62
     1
370
    25
100
AcDbLine
 10
-32.995528
 20
182.614105
 30
0.0
 11
-29.495528
 21
186.114105
 31
0.0
  0
LINE
  5
287
330
27C
100
AcDbEntity
  8
LC-001-100-D00-0
 62
     1
370
    25
100
AcDbLine
 10
-46.095528
 20
191.964745
 30
0.0
 11
-41.602135
 21
196.458139
 31
0.0
  0
LINE
  5
288
330
27C
100
AcDbEntity
  8
LC-001-100-D00-0
 62
     1
370
    25
100
AcDbLine
 10
-47.742794
 20
212.76812
 30
0.0
 11
-44.745482
 21
215.765432
 31
0.0
  0
LINE
  5
289
330
27C
100
AcDbEntity
  8
LC-001-100-D00-0
 62
     1
370
    25
100
AcDbLine
 10
-55.204565
 20
227.756989
 30
0.0
 11
-51.704986
 21
231.256568
 31
0.0
  0
LINE
  5
28A
330
27C
100
AcDbEntity
  8
LC-001-100-D00-0
 62
     1
370
    25
100
AcDbLine
 10
-77.655205
 20
227.756989
 30
0.0
 11
-74.155626
 21
231.256568
 31
0.0
  0
LINE
  5
28B
330
27C
100
AcDbEntity
  8
LC-001-100-D00-0
 62
     1
370
    25
100
AcDbLine
 10
-100.105846
 20
227.756989
 30
0.0
 11
-96.606267
 21
231.256568
 31
0.0
  0
LINE
  5
28C
330
27C
100
AcDbEntity
  8
LC-001-100-D00-0
 62
     1
370
    25
100
AcDbLine
 10
-122.556486
 20
227.756989
 30
0.0
 11
-119.056907
 21
231.256568
 31
0.0
  0
ENDBLK
  5
27E
330
27C
100
AcDbEntity
  8
0
100
AcDbBlockEnd
  0
BLOCK
  5
2A0
330
296
100
AcDbEntity
  8
0
100
AcDbBlockBegin
  2
*D14
 70
     1
 71
     0
 10
0.0
 20
0.0
 30
0.0
  3
*D14
  1

  0
LINE
  5
297
330
296
100
AcDbEntity
  8
LC-002-003-----0
 62
     2
370
    -2
100
AcDbLine
 10
-141.507547
 20
231.256568
 30
0.0
 11
-112.507105
 21
231.256568
 31
0.0
  0
LINE
  5
298
330
296
100
AcDbEntity
  8
LC-002-003-----0
 62
     2
370
    -2
100
AcDbLine
 10
-37.995528
 20
135.25665
 30
0.0
 11
-119.707105
 21
135.25665
 31
0.0
  0
LINE
  5
299
330
296
100
AcDbEntity
  8
LC-002-003-----0
 62
     2
370
    -2
100
AcDbLine
 10
-116.107105
 20
203.256568
 30
0.0
 11
-116.107105
 21
163.25665
 31
0.0
  0
SOLID
  5
29A
330
296
100
AcDbEntity
  8
LC-002-003-----0
 62
     2
100
AcDbTrace
 10
-111.440439
 20
203.256568
 30
0.0
 11
-120.773772
 21
203.256568
 31
0.0
 12
-116.107105
 22
231.256568
 32
0.0
 13
-116.107105
 23
231.256568
 33
0.0
  0
SOLID
  5
29B
330
296
100
AcDbEntity
  8
LC-002-003-----0
 62
     2
100
AcDbTrace
 10
-120.773772
 20
163.25665
 30
0.0
 11
-111.440439
 21
163.25665
 31
0.0
 12
-116.107105
 22
135.25665
 32
0.0
 13
-116.107105
 23
135.25665
 33
0.0
  0
MTEXT
  5
29C
330
296
100
AcDbEntity
  8
LC-002-003-----0
 62
     2
100
AcDbMText
 10
-146.907105
 20
179.642993
 30
0.0
 40
28.0
 41
0.0
 71
     5
 72
     1
  1
\A1;96
  7
LCTX15-400-0-0pDIN-Schrift
 11
6.123031769111886E-17
 21
1.0
 31
0.0
 73
     1
 44
1.0
  0
POINT
  5
29D
330
296
100
AcDbEntity
  8
Defpoints
 62
     0
100
AcDbPoint
 10
-141.507547
 20
231.256568
 30
0.0
  0
POINT
  5
29E
330
296
100
AcDbEntity
  8
Defpoints
 62
     0
100
AcDbPoint
 10
-37.995528
 20
135.25665
 30
0.0
  0
POINT
  5
29F
330
296
100
AcDbEntity
  8
Defpoints
 62
     0
100
AcDbPoint
 10
-116.107105
 20
135.25665
 30
0.0
  0
ENDBLK
  5
2A1
330
296
100
AcDbEntity
  8
0
100
AcDbBlockEnd
  0
BLOCK
  5
2AD
330
2A3
100
AcDbEntity
  8
0
100
AcDbBlockBegin
  2
*D15
 70
     1
 71
     0
 10
0.0
 20
0.0
 30
0.0
  3
*D15
  1

  0
LINE
  5
2A4
330
2A3
100
AcDbEntity
  8
LC-002-003-----0
 62
     2
370
    -2
100
AcDbLine
 10
-143.995528
 20
231.256568
 30
0.0
 11
-180.363037
 21
231.256568
 31
0.0
  0
LINE
  5
2A5
330
2A3
100
AcDbEntity
  8
LC-002-003-----0
 62
     2
370
    -2
100
AcDbLine
 10
-24.995529
 20
71.256648
 30
0.0
 11
-180.363037
 21
71.256648
 31
0.0
  0
LINE
  5
2A6
330
2A3
100
AcDbEntity
  8
LC-002-003-----0
 62
     2
370
    -2
100
AcDbLine
 10
-176.763037
 20
203.256568
 30
0.0
 11
-176.763037
 21
99.256648
 31
0.0
  0
SOLID
  5
2A7
330
2A3
100
AcDbEntity
  8
LC-002-003-----0
 62
     2
100
AcDbTrace
 10
-172.096371
 20
203.256568
 30
0.0
 11
-181.429704
 21
203.256568
 31
0.0
 12
-176.763037
 22
231.256568
 32
0.0
 13
-176.763037
 23
231.256568
 33
0.0
  0
SOLID
  5
2A8
330
2A3
100
AcDbEntity
  8
LC-002-003-----0
 62
     2
100
AcDbTrace
 10
-181.429704
 20
99.256648
 30
0.0
 11
-172.096371
 21
99.256648
 31
0.0
 12
-176.763037
 22
71.256648
 32
0.0
 13
-176.763037
 23
71.256648
 33
0.0
  0
MTEXT
  5
2A9
330
2A3
100
AcDbEntity
  8
LC-002-003-----0
 62
     2
100
AcDbMText
 10
-207.563037
 20
151.130993
 30
0.0
 40
28.0
 41
0.0
 71
     5
 72
     1
  1
\A1;160
  7
LCTX15-400-0-0pDIN-Schrift
 11
6.123031769111886E-17
 21
1.0
 31
0.0
 73
     1
 44
1.0
  0
POINT
  5
2AA
330
2A3
100
AcDbEntity
  8
Defpoints
 62
     0
100
AcDbPoint
 10
-143.995528
 20
231.256568
 30
0.0
  0
POINT
  5
2AB
330
2A3
100
AcDbEntity
  8
Defpoints
 62
     0
100
AcDbPoint
 10
-24.995529
 20
71.256648
 30
0.0
  0
POINT
  5
2AC
330
2A3
100
AcDbEntity
  8
Defpoints
 62
     0
100
AcDbPoint
 10
-176.763037
 20
71.256648
 30
0.0
  0
ENDBLK
  5
2AE
330
2A3
100
AcDbEntity
  8
0
100
AcDbBlockEnd
  0
BLOCK
  5
2BA
330
2B0
100
AcDbEntity
  8
0
100
AcDbBlockBegin
  2
*D16
 70
     1
 71
     0
 10
0.0
 20
0.0
 30
0.0
  3
*D16
  1

  0
LINE
  5
2B1
330
2B0
100
AcDbEntity
  8
LC-002-003-----0
 62
     2
370
    -2
100
AcDbLine
 10
-28.495528
 20
76.256648
 30
0.0
 11
-28.495528
 21
21.602993
 31
0.0
  0
LINE
  5
2B2
330
2B0
100
AcDbEntity
  8
LC-002-003-----0
 62
     2
370
    -2
100
AcDbLine
 10
96.504472
 20
76.256648
 30
0.0
 11
96.504472
 21
21.602993
 31
0.0
  0
LINE
  5
2B3
330
2B0
100
AcDbEntity
  8
LC-002-003-----0
 62
     2
370
    -2
100
AcDbLine
 10
-0.495528
 20
25.202993
 30
0.0
 11
68.504472
 21
25.202993
 31
0.0
  0
SOLID
  5
2B4
330
2B0
100
AcDbEntity
  8
LC-002-003-----0
 62
     2
100
AcDbTrace
 10
-0.495528
 20
29.86966
 30
0.0
 11
-0.495528
 21
20.536327
 31
0.0
 12
-28.495528
 22
25.202993
 32
0.0
 13
-28.495528
 23
25.202993
 33
0.0
  0
SOLID
  5
2B5
330
2B0
100
AcDbEntity
  8
LC-002-003-----0
 62
     2
100
AcDbTrace
 10
68.504472
 20
20.536327
 30
0.0
 11
68.504472
 21
29.86966
 31
0.0
 12
96.504472
 22
25.202993
 32
0.0
 13
96.504472
 23
25.202993
 33
0.0
  0
MTEXT
  5
2B6
330
2B0
100
AcDbEntity
  8
LC-002-003-----0
 62
     2
100
AcDbMText
 10
32.455974
 20
56.002993
 30
0.0
 40
28.0
 41
0.0
 71
     5
 72
     1
  1
\A1;DN125
  7
LCTX15-400-0-0pDIN-Schrift
 73
     1
 44
1.0
  0
POINT
  5
2B7
330
2B0
100
AcDbEntity
  8
Defpoints
 62
     0
100
AcDbPoint
 10
-28.495528
 20
76.256648
 30
0.0
  0
POINT
  5
2B8
330
2B0
100
AcDbEntity
  8
Defpoints
 62
     0
100
AcDbPoint
 10
96.504472
 20
76.256648
 30
0.0
  0
POINT
  5
2B9
330
2B0
100
AcDbEntity
  8
Defpoints
 62
     0
100
AcDbPoint
 10
96.504472
 20
25.202993
 30
0.0
  0
ENDBLK
  5
2BB
330
2B0
100
AcDbEntity
  8
0
100
AcDbBlockEnd
  0
BLOCK
  5
2C7
330
2BD
100
AcDbEntity
  8
0
100
AcDbBlockBegin
  2
*D17
 70
     1
 71
     0
 10
0.0
 20
0.0
 30
0.0
  3
*D17
  1

  0
LINE
  5
2BE
330
2BD
100
AcDbEntity
  8
LC-002-003-----0
 62
     2
370
    -2
100
AcDbLine
 10
-145.995535
 20
227.756993
 30
0.0
 11
-145.995535
 21
335.900993
 31
0.0
  0
LINE
  5
2BF
330
2BD
100
AcDbEntity
  8
LC-002-003-----0
 62
     2
370
    -2
100
AcDbLine
 10
214.004479
 20
227.756993
 30
0.0
 11
214.004479
 21
335.900993
 31
0.0
  0
LINE
  5
2C0
330
2BD
100
AcDbEntity
  8
LC-002-003-----0
 62
     2
370
    -2
100
AcDbLine
 10
-117.995535
 20
332.300993
 30
0.0
 11
186.004479
 21
332.300993
 31
0.0
  0
SOLID
  5
2C1
330
2BD
100
AcDbEntity
  8
LC-002-003-----0
 62
     2
100
AcDbTrace
 10
-117.995535
 20
336.96766
 30
0.0
 11
-117.995535
 21
327.634327
 31
0.0
 12
-145.995535
 22
332.300993
 32
0.0
 13
-145.995535
 23
332.300993
 33
0.0
  0
SOLID
  5
2C2
330
2BD
100
AcDbEntity
  8
LC-002-003-----0
 62
     2
100
AcDbTrace
 10
186.004479
 20
327.634327
 30
0.0
 11
186.004479
 21
336.96766
 31
0.0
 12
214.004479
 22
332.300993
 32
0.0
 13
214.004479
 23
332.300993
 33
0.0
  0
MTEXT
  5
2C3
330
2BD
100
AcDbEntity
  8
LC-002-003-----0
 62
     2
100
AcDbMText
 10
31.576903
 20
363.100993
 30
0.0
 40
28.0
 41
0.0
 71
     5
 72
     1
  1
%%c\A1;360
  7
LCTX15-400-0-0pDIN-Schrift
 73
     1
 44
1.0
  0
POINT
  5
2C4
330
2BD
100
AcDbEntity
  8
Defpoints
 62
     0
100
AcDbPoint
 10
-145.995535
 20
227.756993
 30
0.0
  0
POINT
  5
2C5
330
2BD
100
AcDbEntity
  8
Defpoints
 62
     0
100
AcDbPoint
 10
214.004479
 20
227.756993
 30
0.0
  0
POINT
  5
2C6
330
2BD
100
AcDbEntity
  8
Defpoints
 62
     0
100
AcDbPoint
 10
214.004479
 20
332.300993
 30
0.0
  0
ENDBLK
  5
2C8
330
2BD
100
AcDbEntity
  8
0
100
AcDbBlockEnd
  0
BLOCK
  5
2D4
330
2CA
100
AcDbEntity
  8
0
100
AcDbBlockBegin
  2
*D18
 70
     1
 71
     0
 10
0.0
 20
0.0
 30
0.0
  3
*D18
  1

  0
LINE
  5
2CB
330
2CA
100
AcDbEntity
  8
LC-002-003-----0
 62
     2
370
    -2
100
AcDbLine
 10
-46.095528
 20
145.256647
 30
0.0
 11
-46.095528
 21
-43.143007
 31
0.0
  0
LINE
  5
2CC
330
2CA
100
AcDbEntity
  8
LC-002-003-----0
 62
     2
370
    -2
100
AcDbLine
 10
114.104472
 20
145.256647
 30
0.0
 11
114.104472
 21
-43.143007
 31
0.0
  0
LINE
  5
2CD
330
2CA
100
AcDbEntity
  8
LC-002-003-----0
 62
     2
370
    -2
100
AcDbLine
 10
-18.095528
 20
-39.543007
 30
0.0
 11
86.104472
 21
-39.543007
 31
0.0
  0
SOLID
  5
2CE
330
2CA
100
AcDbEntity
  8
LC-002-003-----0
 62
     2
100
AcDbTrace
 10
-18.095528
 20
-34.87634
 30
0.0
 11
-18.095528
 21
-44.209673
 31
0.0
 12
-46.095528
 22
-39.543007
 32
0.0
 13
-46.095528
 23
-39.543007
 33
0.0
  0
SOLID
  5
2CF
330
2CA
100
AcDbEntity
  8
LC-002-003-----0
 62
     2
100
AcDbTrace
 10
86.104472
 20
-44.209673
 30
0.0
 11
86.104472
 21
-34.87634
 31
0.0
 12
114.104472
 22
-39.543007
 32
0.0
 13
114.104472
 23
-39.543007
 33
0.0
  0
MTEXT
  5
2D0
330
2CA
100
AcDbEntity
  8
LC-002-003-----0
 62
     2
100
AcDbMText
 10
24.544331
 20
-8.743007
 30
0.0
 40
28.0
 41
0.0
 71
     5
 72
     1
  1
\A1;%%c160
  7
LCTX15-400-0-0pDIN-Schrift
 73
     1
 44
1.0
  0
POINT
  5
2D1
330
2CA
100
AcDbEntity
  8
Defpoints
 62
     0
100
AcDbPoint
 10
-46.095528
 20
145.256647
 30
0.0
  0
POINT
  5
2D2
330
2CA
100
AcDbEntity
  8
Defpoints
 62
     0
100
AcDbPoint
 10
114.104472
 20
145.256647
 30
0.0
  0
POINT
  5
2D3
330
2CA
100
AcDbEntity
  8
Defpoints
 62
     0
100
AcDbPoint
 10
114.104472
 20
-39.543007
 30
0.0
  0
ENDBLK
  5
2D5
330
2CA
100
AcDbEntity
  8
0
100
AcDbBlockEnd
  0
ENDSEC
  0
SECTION
  2
ENTITIES
  0
LINE
  5
31
330
1F
100
AcDbEntity
  8
LC-001-100-D00-0
 62
     7
370
    50
100
AcDbLine
 10
98.754472
 20
198.958145
 30
0.0
 11
98.754472
 21
198.458136
 31
0.0
  0
LINE
  5
32
330
1F
100
AcDbEntity
  8
LC-001-100-D00-0
 62
     7
370
    50
100
AcDbLine
 10
-30.745529
 20
198.458136
 30
0.0
 11
98.754472
 21
198.458136
 31
0.0
  0
LINE
  5
33
330
1F
100
AcDbEntity
  8
LC-001-100-D00-0
 62
     7
370
    50
100
AcDbLine
 10
-30.745529
 20
198.458136
 30
0.0
 11
-30.745529
 21
198.958145
 31
0.0
  0
LINE
  5
34
330
1F
100
AcDbEntity
  8
LC-001-100-D00-0
 62
     7
370
    50
100
AcDbLine
 10
-43.245525
 20
198.458136
 30
0.0
 11
-42.090826
 21
196.458132
 31
0.0
  0
LINE
  5
35
330
1F
100
AcDbEntity
  8
LC-001-100-D00-0
 62
     7
370
    50
100
AcDbLine
 10
110.09977
 20
196.458132
 30
0.0
 11
111.254468
 21
198.458136
 31
0.0
  0
ARC
  5
36
330
1F
100
AcDbEntity
  8
LC-001-100-D00-0
 62
     7
370
    50
100
AcDbCircle
 10
100.754472
 20
198.958139
 30
0.0
 40
2.0
100
AcDbArc
 50
90.0
 51
180.0
  0
LINE
  5
37
330
1F
100
AcDbEntity
  8
LC-001-100-D00-0
 62
     7
370
    50
100
AcDbLine
 10
111.254468
 20
200.958134
 30
0.0
 11
100.754469
 21
200.958134
 31
0.0
  0
LINE
  5
38
330
1F
100
AcDbEntity
  8
LC-001-100-D00-0
 62
     7
370
    50
100
AcDbLine
 10
111.254468
 20
198.458136
 30
0.0
 11
111.254468
 21
200.958134
 31
0.0
  0
LINE
  5
39
330
1F
100
AcDbEntity
  8
LC-001-100-D00-0
 62
     7
370
    50
100
AcDbLine
 10
103.254474
 20
196.458132
 30
0.0
 11
110.09977
 21
196.458132
 31
0.0
  0
ARC
  5
3A
330
1F
100
AcDbEntity
  8
LC-001-100-D00-0
 62
     7
370
    50
100
AcDbCircle
 10
101.254472
 20
196.458139
 30
0.0
 40
2.0
100
AcDbArc
 50
0.0
 51
90.0
  0
LINE
  5
3B
330
1F
100
AcDbEntity
  8
LC-001-100-D00-0
 62
     7
370
    50
100
AcDbLine
 10
98.754472
 20
198.458136
 30
0.0
 11
101.25447
 21
198.458136
 31
0.0
  0
LINE
  5
3C
330
1F
100
AcDbEntity
  8
LC-001-100-D00-0
 62
     7
370
    50
100
AcDbLine
 10
-43.245525
 20
200.958134
 30
0.0
 11
-43.245525
 21
198.458136
 31
0.0
  0
ARC
  5
3D
330
1F
100
AcDbEntity
  8
LC-001-100-D00-0
 62
     7
370
    50
100
AcDbCircle
 10
-32.745528
 20
198.958139
 30
0.0
 40
2.0
100
AcDbArc
 50
0.0
 51
90.0
  0
ARC
  5
3E
330
1F
100
AcDbEntity
  8
LC-001-100-D00-0
 62
     7
370
    50
100
AcDbCircle
 10
-33.245528
 20
196.458139
 30
0.0
 40
2.0
100
AcDbArc
 50
90.0
 51
180.0
  0
LINE
  5
3F
330
1F
100
AcDbEntity
  8
LC-001-100-D00-0
 62
     7
370
    50
100
AcDbLine
 10
-32.745526
 20
200.958134
 30
0.0
 11
-43.245525
 21
200.958134
 31
0.0
  0
LINE
  5
40
330
1F
100
AcDbEntity
  8
LC-001-100-D00-0
 62
     7
370
    50
100
AcDbLine
 10
-42.090826
 20
196.458132
 30
0.0
 11
-35.245531
 21
196.458132
 31
0.0
  0
LINE
  5
41
330
1F
100
AcDbEntity
  8
LC-001-100-D00-0
 62
     7
370
    50
100
AcDbLine
 10
-33.245527
 20
198.458136
 30
0.0
 11
-30.745529
 21
198.458136
 31
0.0
  0
LINE
  5
42
330
1F
100
AcDbEntity
  8
LC-001-100-D00-0
 62
     7
370
    50
100
AcDbLine
 10
-32.745526
 20
200.958134
 30
0.0
 11
100.754469
 21
200.958134
 31
0.0
  0
LINE
  5
43
330
1F
100
AcDbEntity
  8
LC-001-100-D00-0
 62
     7
370
    50
100
AcDbLine
 10
-35.245531
 20
196.458132
 30
0.0
 11
103.254474
 21
196.458132
 31
0.0
  0
LINE
  5
44
330
1F
100
AcDbEntity
  8
LC-001-100-D00-0
 62
     7
370
    50
100
AcDbLine
 10
-27.155784
 20
71.256648
 30
0.0
 11
-28.495528
 21
76.256648
 31
0.0
  0
LINE
  5
45
330
1F
100
AcDbEntity
  8
LC-001-100-D00-0
 62
     7
370
    50
100
AcDbLine
 10
96.504472
 20
76.256648
 30
0.0
 11
95.164727
 21
71.256648
 31
0.0
  0
LINE
  5
46
330
1F
100
AcDbEntity
  8
LC-001-100-D00-0
 62
     7
370
    50
100
AcDbLine
 10
104.404471
 20
183.756651
 30
0.0
 11
101.004473
 21
183.756651
 31
0.0
  0
LINE
  5
47
330
1F
100
AcDbEntity
  8
LC-001-100-D00-0
 62
     7
370
    50
100
AcDbLine
 10
101.004473
 20
183.756651
 30
0.0
 11
101.004473
 21
144.256653
 31
0.0
  0
LINE
  5
48
330
1F
100
AcDbEntity
  8
LC-001-100-D00-0
 62
     7
370
    50
100
AcDbLine
 10
101.004473
 20
144.256653
 30
0.0
 11
98.504468
 21
144.256653
 31
0.0
  0
LINE
  5
49
330
1F
100
AcDbEntity
  8
LC-001-100-D00-0
 62
     7
370
    50
100
AcDbLine
 10
98.504468
 20
144.256653
 30
0.0
 11
96.504472
 21
144.006648
 31
0.0
  0
LINE
  5
4A
330
1F
100
AcDbEntity
  8
LC-001-100-D00-0
 62
     7
370
    50
100
AcDbLine
 10
96.504472
 20
144.006648
 30
0.0
 11
96.504472
 21
76.256648
 31
0.0
  0
LINE
  5
4B
330
1F
100
AcDbEntity
  8
LC-001-100-D00-0
 62
     7
370
    50
100
AcDbLine
 10
95.164727
 20
71.256648
 30
0.0
 11
93.004472
 21
71.256648
 31
0.0
  0
LINE
  5
4C
330
1F
100
AcDbEntity
  8
LC-001-100-D00-0
 62
     7
370
    50
100
AcDbLine
 10
93.004472
 20
71.256648
 30
0.0
 11
93.004472
 21
147.756198
 31
0.0
  0
LINE
  5
4D
330
1F
100
AcDbEntity
  8
LC-001-100-D00-0
 62
     7
370
    50
100
AcDbLine
 10
93.004472
 20
147.756198
 30
0.0
 11
97.504474
 21
147.756198
 31
0.0
  0
LINE
  5
4E
330
1F
100
AcDbEntity
  8
LC-001-100-D00-0
 62
     7
370
    50
100
AcDbLine
 10
97.504474
 20
147.756198
 30
0.0
 11
97.504474
 21
186.256648
 31
0.0
  0
ARC
  5
4F
330
1F
100
AcDbEntity
  8
LC-001-100-D00-0
 62
     7
370
    50
100
AcDbCircle
 10
98.504472
 20
186.256648
 30
0.0
 40
0.9999999999998863
100
AcDbArc
 50
90.0
 51
180.0
  0
LINE
  5
50
330
1F
100
AcDbEntity
  8
LC-001-100-D00-0
 62
     7
370
    50
100
AcDbLine
 10
98.504468
 20
187.25665
 30
0.0
 11
102.404475
 21
187.25665
 31
0.0
  0
ARC
  5
51
330
1F
100
AcDbEntity
  8
LC-001-100-D00-0
 62
     7
370
    50
100
AcDbCircle
 10
102.404472
 20
188.256648
 30
0.0
 40
1.0
100
AcDbArc
 50
270.0
 51
0.0
  0
LINE
  5
52
330
1F
100
AcDbEntity
  8
LC-001-100-D00-0
 62
     7
370
    50
100
AcDbLine
 10
103.404469
 20
188.256645
 30
0.0
 11
103.404469
 21
195.458145
 31
0.0
  0
ARC
  5
53
330
1F
100
AcDbEntity
  8
LC-001-100-D00-0
 62
     7
370
    50
100
AcDbCircle
 10
104.404472
 20
195.458139
 30
0.0
 40
0.9999999999998863
100
AcDbArc
 50
90.0
 51
180.0
  0
LINE
  5
54
330
1F
100
AcDbEntity
  8
LC-001-100-D00-0
 62
     7
370
    50
100
AcDbLine
 10
104.404471
 20
196.458132
 30
0.0
 11
111.004471
 21
196.458132
 31
0.0
  0
LINE
  5
55
330
1F
100
AcDbEntity
  8
LC-001-100-D00-0
 62
     7
370
    50
100
AcDbLine
 10
111.004471
 20
196.458132
 30
0.0
 11
111.004471
 21
201.056646
 31
0.0
  0
LINE
  5
56
330
1F
100
AcDbEntity
  8
LC-001-100-D00-0
 62
     7
370
    50
100
AcDbLine
 10
111.004471
 20
201.056646
 30
0.0
 11
109.504468
 21
202.056648
 31
0.0
  0
LINE
  5
57
330
1F
100
AcDbEntity
  8
LC-001-100-D00-0
 62
     7
370
    50
100
AcDbLine
 10
109.504468
 20
202.056648
 30
0.0
 11
109.504468
 21
206.313567
 31
0.0
  0
LINE
  5
58
330
1F
100
AcDbEntity
  8
LC-001-100-D00-0
 62
     7
370
    50
100
AcDbLine
 10
109.504468
 20
206.313567
 30
0.0
 11
108.75456
 21
206.756653
 31
0.0
  0
LINE
  5
59
330
1F
100
AcDbEntity
  8
LC-001-100-D00-0
 62
     7
370
    50
100
AcDbLine
 10
108.75456
 20
206.756653
 30
0.0
 11
108.75456
 21
207.656653
 31
0.0
  0
LINE
  5
5A
330
1F
100
AcDbEntity
  8
LC-001-100-D00-0
 62
     7
370
    50
100
AcDbLine
 10
108.75456
 20
207.656653
 30
0.0
 11
112.754419
 21
214.558483
 31
0.0
  0
LINE
  5
5B
330
1F
100
AcDbEntity
  8
LC-001-100-D00-0
 62
     7
370
    50
100
AcDbLine
 10
112.754419
 20
214.558483
 30
0.0
 11
112.754471
 21
230.256574
 31
0.0
  0
ARC
  5
5C
330
1F
100
AcDbEntity
  8
LC-001-100-D00-0
 62
     7
370
    50
100
AcDbCircle
 10
113.754469
 20
230.256568
 30
0.0
 40
1.0
100
AcDbArc
 50
90.0
 51
179.999828
  0
LINE
  5
5D
330
1F
100
AcDbEntity
  8
LC-001-100-D00-0
 62
     7
370
    50
100
AcDbLine
 10
113.754466
 20
231.256561
 30
0.0
 11
196.004472
 21
231.256561
 31
0.0
  0
LINE
  5
5E
330
1F
100
AcDbEntity
  8
LC-001-100-D00-0
 62
     7
370
    50
100
AcDbLine
 10
196.004472
 20
231.256561
 30
0.0
 11
198.004476
 21
229.256572
 31
0.0
  0
LINE
  5
5F
330
1F
100
AcDbEntity
  8
LC-001-100-D00-0
 62
     7
370
    50
100
AcDbLine
 10
198.004476
 20
227.756993
 30
0.0
 11
198.004476
 21
229.256572
 31
0.0
  0
LINE
  5
60
330
1F
100
AcDbEntity
  8
LC-001-100-D00-0
 62
     7
370
    50
100
AcDbLine
 10
198.004476
 20
227.756993
 30
0.0
 11
116.254471
 21
227.756993
 31
0.0
  0
LINE
  5
61
330
1F
100
AcDbEntity
  8
LC-001-100-D00-0
 62
     7
370
    50
100
AcDbLine
 10
116.254471
 20
227.756993
 30
0.0
 11
116.254456
 21
213.65665
 31
0.0
  0
LINE
  5
62
330
1F
100
AcDbEntity
  8
LC-001-100-D00-0
 62
     7
370
    50
100
AcDbLine
 10
116.254456
 20
213.65665
 30
0.0
 11
114.104472
 21
209.856646
 31
0.0
  0
LINE
  5
63
330
1F
100
AcDbEntity
  8
LC-001-100-D00-0
 62
     7
370
    50
100
AcDbLine
 10
114.104472
 20
209.856646
 30
0.0
 11
114.104472
 21
145.256647
 31
0.0
  0
LINE
  5
64
330
1F
100
AcDbEntity
  8
LC-001-100-D00-0
 62
     7
370
    50
100
AcDbLine
 10
114.104472
 20
145.256647
 30
0.0
 11
111.254468
 21
145.256647
 31
0.0
  0
LINE
  5
65
330
1F
100
AcDbEntity
  8
LC-001-100-D00-0
 62
     7
370
    50
100
AcDbLine
 10
111.254468
 20
145.256647
 30
0.0
 11
110.604472
 21
192.958587
 31
0.0
  0
LINE
  5
66
330
1F
100
AcDbEntity
  8
LC-001-100-D00-0
 62
     7
370
    50
100
AcDbLine
 10
110.604472
 20
192.958587
 30
0.0
 11
106.904469
 21
192.958587
 31
0.0
  0
LINE
  5
67
330
1F
100
AcDbEntity
  8
LC-001-100-D00-0
 62
     7
370
    50
100
AcDbLine
 10
106.904469
 20
192.958587
 30
0.0
 11
106.904469
 21
186.256648
 31
0.0
  0
ARC
  5
68
330
1F
100
AcDbEntity
  8
LC-001-100-D00-0
 62
     7
370
    50
100
AcDbCircle
 10
104.404472
 20
186.256648
 30
0.0
 40
2.5
100
AcDbArc
 50
270.0
 51
0.0
  0
LINE
  5
69
330
1F
100
AcDbEntity
  8
LC-001-100-D00-0
 62
     7
370
    50
100
AcDbLine
 10
-38.895526
 20
186.256648
 30
0.0
 11
-38.895526
 21
192.958587
 31
0.0
  0
LINE
  5
6A
330
1F
100
AcDbEntity
  8
LC-001-100-D00-0
 62
     7
370
    50
100
AcDbLine
 10
-38.895526
 20
192.958587
 30
0.0
 11
-42.595529
 21
192.958587
 31
0.0
  0
LINE
  5
6B
330
1F
100
AcDbEntity
  8
LC-001-100-D00-0
 62
     7
370
    50
100
AcDbLine
 10
-42.595529
 20
192.958587
 30
0.0
 11
-43.245525
 21
145.256647
 31
0.0
  0
LINE
  5
6C
330
1F
100
AcDbEntity
  8
LC-001-100-D00-0
 62
     7
370
    50
100
AcDbLine
 10
-43.245525
 20
145.256647
 30
0.0
 11
-46.095528
 21
145.256647
 31
0.0
  0
LINE
  5
6D
330
1F
100
AcDbEntity
  8
LC-001-100-D00-0
 62
     7
370
    50
100
AcDbLine
 10
-46.095528
 20
145.256647
 30
0.0
 11
-46.095528
 21
209.856646
 31
0.0
  0
LINE
  5
6E
330
1F
100
AcDbEntity
  8
LC-001-100-D00-0
 62
     7
370
    50
100
AcDbLine
 10
-46.095528
 20
209.856646
 30
0.0
 11
-48.245512
 21
213.65665
 31
0.0
  0
LINE
  5
6F
330
1F
100
AcDbEntity
  8
LC-001-100-D00-0
 62
     7
370
    50
100
AcDbLine
 10
-48.245512
 20
213.65665
 30
0.0
 11
-48.245527
 21
227.756993
 31
0.0
  0
LINE
  5
70
330
1F
100
AcDbEntity
  8
LC-001-100-D00-0
 62
     7
370
    50
100
AcDbLine
 10
-48.245527
 20
227.756993
 30
0.0
 11
-129.995533
 21
227.756993
 31
0.0
  0
LINE
  5
71
330
1F
100
AcDbEntity
  8
LC-001-100-D00-0
 62
     7
370
    50
100
AcDbLine
 10
-129.995533
 20
229.256572
 30
0.0
 11
-129.995533
 21
227.756993
 31
0.0
  0
LINE
  5
72
330
1F
100
AcDbEntity
  8
LC-001-100-D00-0
 62
     7
370
    50
100
AcDbLine
 10
-129.995533
 20
229.256572
 30
0.0
 11
-127.995529
 21
231.256561
 31
0.0
  0
LINE
  5
73
330
1F
100
AcDbEntity
  8
LC-001-100-D00-0
 62
     7
370
    50
100
AcDbLine
 10
-127.995529
 20
231.256561
 30
0.0
 11
-45.745522
 21
231.256561
 31
0.0
  0
ARC
  5
74
330
1F
100
AcDbEntity
  8
LC-001-100-D00-0
 62
     7
370
    50
100
AcDbCircle
 10
-45.745525
 20
230.256568
 30
0.0
 40
1.000000000000173
100
AcDbArc
 50
0.000172
 51
90.0
  0
LINE
  5
75
330
1F
100
AcDbEntity
  8
LC-001-100-D00-0
 62
     7
370
    50
100
AcDbLine
 10
-44.745528
 20
230.256574
 30
0.0
 11
-44.745476
 21
214.558483
 31
0.0
  0
LINE
  5
76
330
1F
100
AcDbEntity
  8
LC-001-100-D00-0
 62
     7
370
    50
100
AcDbLine
 10
-44.745476
 20
214.558483
 30
0.0
 11
-40.745616
 21
207.656653
 31
0.0
  0
LINE
  5
77
330
1F
100
AcDbEntity
  8
LC-001-100-D00-0
 62
     7
370
    50
100
AcDbLine
 10
-40.745616
 20
207.656653
 30
0.0
 11
-40.745616
 21
206.756653
 31
0.0
  0
LINE
  5
78
330
1F
100
AcDbEntity
  8
LC-001-100-D00-0
 62
     7
370
    50
100
AcDbLine
 10
-40.745616
 20
206.756653
 30
0.0
 11
-41.495525
 21
206.313567
 31
0.0
  0
LINE
  5
79
330
1F
100
AcDbEntity
  8
LC-001-100-D00-0
 62
     7
370
    50
100
AcDbLine
 10
-41.495525
 20
206.313567
 30
0.0
 11
-41.495525
 21
202.056648
 31
0.0
  0
LINE
  5
7A
330
1F
100
AcDbEntity
  8
LC-001-100-D00-0
 62
     7
370
    50
100
AcDbLine
 10
-41.495525
 20
202.056648
 30
0.0
 11
-42.995528
 21
201.056646
 31
0.0
  0
LINE
  5
7B
330
1F
100
AcDbEntity
  8
LC-001-100-D00-0
 62
     7
370
    50
100
AcDbLine
 10
-42.995528
 20
201.056646
 30
0.0
 11
-42.995528
 21
196.458132
 31
0.0
  0
LINE
  5
7C
330
1F
100
AcDbEntity
  8
LC-001-100-D00-0
 62
     7
370
    50
100
AcDbLine
 10
-42.995528
 20
196.458132
 30
0.0
 11
-36.395528
 21
196.458132
 31
0.0
  0
ARC
  5
7D
330
1F
100
AcDbEntity
  8
LC-001-100-D00-0
 62
     7
370
    50
100
AcDbCircle
 10
-36.395528
 20
195.458139
 30
0.0
 40
1.000000000000114
100
AcDbArc
 50
0.0
 51
90.0
  0
LINE
  5
7E
330
1F
100
AcDbEntity
  8
LC-001-100-D00-0
 62
     7
370
    50
100
AcDbLine
 10
-35.395526
 20
195.458145
 30
0.0
 11
-35.395526
 21
188.256645
 31
0.0
  0
ARC
  5
7F
330
1F
100
AcDbEntity
  8
LC-001-100-D00-0
 62
     7
370
    50
100
AcDbCircle
 10
-34.395528
 20
188.256648
 30
0.0
 40
1.0
100
AcDbArc
 50
180.0
 51
270.0
  0
LINE
  5
80
330
1F
100
AcDbEntity
  8
LC-001-100-D00-0
 62
     7
370
    50
100
AcDbLine
 10
-34.395531
 20
187.25665
 30
0.0
 11
-30.495525
 21
187.25665
 31
0.0
  0
ARC
  5
81
330
1F
100
AcDbEntity
  8
LC-001-100-D00-0
 62
     7
370
    50
100
AcDbCircle
 10
-30.495528
 20
186.256648
 30
0.0
 40
1.000000000000114
100
AcDbArc
 50
0.0
 51
90.0
  0
LINE
  5
82
330
1F
100
AcDbEntity
  8
LC-001-100-D00-0
 62
     7
370
    50
100
AcDbLine
 10
-29.49553
 20
186.256648
 30
0.0
 11
-29.49553
 21
147.756198
 31
0.0
  0
LINE
  5
83
330
1F
100
AcDbEntity
  8
LC-001-100-D00-0
 62
     7
370
    50
100
AcDbLine
 10
-29.49553
 20
147.756198
 30
0.0
 11
-24.995529
 21
147.756198
 31
0.0
  0
LINE
  5
84
330
1F
100
AcDbEntity
  8
LC-001-100-D00-0
 62
     7
370
    50
100
AcDbLine
 10
-24.995529
 20
147.756198
 30
0.0
 11
-24.995529
 21
71.256648
 31
0.0
  0
LINE
  5
85
330
1F
100
AcDbEntity
  8
LC-001-100-D00-0
 62
     7
370
    50
100
AcDbLine
 10
-24.995529
 20
71.256648
 30
0.0
 11
-27.155784
 21
71.256648
 31
0.0
  0
LINE
  5
86
330
1F
100
AcDbEntity
  8
LC-001-100-D00-0
 62
     7
370
    50
100
AcDbLine
 10
-28.495528
 20
76.256648
 30
0.0
 11
-28.495528
 21
144.006648
 31
0.0
  0
LINE
  5
87
330
1F
100
AcDbEntity
  8
LC-001-100-D00-0
 62
     7
370
    50
100
AcDbLine
 10
-28.495528
 20
144.006648
 30
0.0
 11
-30.495525
 21
144.256653
 31
0.0
  0
LINE
  5
88
330
1F
100
AcDbEntity
  8
LC-001-100-D00-0
 62
     7
370
    50
100
AcDbLine
 10
-30.495525
 20
144.256653
 30
0.0
 11
-32.99553
 21
144.256653
 31
0.0
  0
LINE
  5
89
330
1F
100
AcDbEntity
  8
LC-001-100-D00-0
 62
     7
370
    50
100
AcDbLine
 10
-32.99553
 20
144.256653
 30
0.0
 11
-32.99553
 21
183.756651
 31
0.0
  0
LINE
  5
8A
330
1F
100
AcDbEntity
  8
LC-001-100-D00-0
 62
     7
370
    50
100
AcDbLine
 10
-32.99553
 20
183.756651
 30
0.0
 11
-36.395528
 21
183.756651
 31
0.0
  0
ARC
  5
8B
330
1F
100
AcDbEntity
  8
LC-001-100-D00-0
 62
     7
370
    50
100
AcDbCircle
 10
-36.395528
 20
186.256648
 30
0.0
 40
2.5
100
AcDbArc
 50
180.0
 51
270.0
  0
LINE
  5
8C
330
1F
100
AcDbEntity
  8
LC-001-100-D00-0
 62
     7
370
    50
100
AcDbLine
 10
93.004472
 20
147.756198
 30
0.0
 11
-24.995529
 21
147.756198
 31
0.0
  0
LINE
  5
8D
330
1F
100
AcDbEntity
  8
LC-001-100-D00-0
 62
     7
370
    50
100
AcDbLine
 10
93.004472
 20
71.256648
 30
0.0
 11
-24.995529
 21
71.256648
 31
0.0
  0
LINE
  5
8E
330
1F
100
AcDbEntity
  8
LC-001-100-D00-0
 62
     7
370
    50
100
AcDbLine
 10
-30.495525
 20
187.25665
 30
0.0
 11
98.504468
 21
187.25665
 31
0.0
  0
LINE
  5
8F
330
1F
100
AcDbEntity
  8
LC-001-100-D00-0
 62
     7
370
    50
100
AcDbLine
 10
111.004471
 20
201.056646
 30
0.0
 11
-42.995528
 21
201.056646
 31
0.0
  0
LINE
  5
90
330
1F
100
AcDbEntity
  8
LC-001-100-D00-0
 62
     7
370
    50
100
AcDbLine
 10
109.504468
 20
202.056648
 30
0.0
 11
-41.495525
 21
202.056648
 31
0.0
  0
LINE
  5
91
330
1F
100
AcDbEntity
  8
LC-001-100-D00-0
 62
     7
370
    50
100
AcDbLine
 10
109.504468
 20
206.313567
 30
0.0
 11
107.904471
 21
206.313567
 31
0.0
  0
LINE
  5
92
330
1F
100
AcDbEntity
  8
LC-001-100-D00-0
 62
     7
370
    50
100
AcDbLine
 10
104.017049
 20
206.313567
 30
0.0
 11
45.804569
 21
206.313567
 31
0.0
  0
LINE
  5
93
330
1F
100
AcDbEntity
  8
LC-001-100-D00-0
 62
     7
370
    50
100
AcDbLine
 10
22.204489
 20
206.313567
 30
0.0
 11
-36.008083
 21
206.313567
 31
0.0
  0
LINE
  5
94
330
1F
100
AcDbEntity
  8
LC-001-100-D00-0
 62
     7
370
    50
100
AcDbLine
 10
-39.895528
 20
206.313567
 30
0.0
 11
-41.495525
 21
206.313567
 31
0.0
  0
LINE
  5
95
330
1F
100
AcDbEntity
  8
LC-001-100-D00-0
 62
     7
370
    50
100
AcDbLine
 10
108.75456
 20
206.756653
 30
0.0
 11
107.904471
 21
206.756653
 31
0.0
  0
LINE
  5
96
330
1F
100
AcDbEntity
  8
LC-001-100-D00-0
 62
     7
370
    50
100
AcDbLine
 10
104.017049
 20
206.756653
 30
0.0
 11
45.804569
 21
206.756653
 31
0.0
  0
LINE
  5
97
330
1F
100
AcDbEntity
  8
LC-001-100-D00-0
 62
     7
370
    50
100
AcDbLine
 10
22.204489
 20
206.756653
 30
0.0
 11
-36.008083
 21
206.756653
 31
0.0
  0
LINE
  5
98
330
1F
100
AcDbEntity
  8
LC-001-100-D00-0
 62
     7
370
    50
100
AcDbLine
 10
-39.895528
 20
206.756653
 30
0.0
 11
-40.745616
 21
206.756653
 31
0.0
  0
LINE
  5
99
330
1F
100
AcDbEntity
  8
LC-001-100-D00-0
 62
     7
370
    50
100
AcDbLine
 10
112.754419
 20
214.558483
 30
0.0
 11
110.022552
 21
214.558483
 31
0.0
  0
LINE
  5
9A
330
1F
100
AcDbEntity
  8
LC-001-100-D00-0
 62
     7
370
    50
100
AcDbLine
 10
47.804568
 20
214.558483
 30
0.0
 11
45.804569
 21
214.558483
 31
0.0
  0
LINE
  5
9B
330
1F
100
AcDbEntity
  8
LC-001-100-D00-0
 62
     7
370
    50
100
AcDbLine
 10
22.204489
 20
214.558483
 30
0.0
 11
20.20449
 21
214.558483
 31
0.0
  0
LINE
  5
9C
330
1F
100
AcDbEntity
  8
LC-001-100-D00-0
 62
     7
370
    50
100
AcDbLine
 10
-42.013608
 20
214.558483
 30
0.0
 11
-44.745476
 21
214.558483
 31
0.0
  0
LINE
  5
9D
330
1F
100
AcDbEntity
  8
LC-001-100-D00-0
 62
     7
370
    50
100
AcDbLine
 10
108.75456
 20
207.656653
 30
0.0
 11
107.904471
 21
207.656653
 31
0.0
  0
LINE
  5
9E
330
1F
100
AcDbEntity
  8
LC-001-100-D00-0
 62
     7
370
    50
100
AcDbLine
 10
104.017049
 20
207.656653
 30
0.0
 11
45.804569
 21
207.656653
 31
0.0
  0
LINE
  5
9F
330
1F
100
AcDbEntity
  8
LC-001-100-D00-0
 62
     7
370
    50
100
AcDbLine
 10
22.204489
 20
207.656653
 30
0.0
 11
-36.008083
 21
207.656653
 31
0.0
  0
LINE
  5
A0
330
1F
100
AcDbEntity
  8
LC-001-100-D00-0
 62
     7
370
    50
100
AcDbLine
 10
-39.895528
 20
207.656653
 30
0.0
 11
-40.745616
 21
207.656653
 31
0.0
  0
LINE
  5
A1
330
1F
100
AcDbEntity
  8
LC-001-100-D00-0
 62
     7
370
    50
100
AcDbLine
 10
-145.995535
 20
227.756993
 30
0.0
 11
-145.995535
 21
229.256572
 31
0.0
  0
LINE
  5
A2
330
1F
100
AcDbEntity
  8
LC-001-100-D00-0
 62
     7
370
    50
100
AcDbLine
 10
214.004479
 20
229.256572
 30
0.0
 11
214.004479
 21
227.756993
 31
0.0
  0
LINE
  5
A3
330
1F
100
AcDbEntity
  8
LC-001-100-D00-0
 62
     7
370
    50
100
AcDbLine
 10
202.004469
 20
229.256572
 30
0.0
 11
202.004469
 21
227.756993
 31
0.0
  0
LINE
  5
A4
330
1F
100
AcDbEntity
  8
LC-001-100-D00-0
 62
     7
370
    50
100
AcDbLine
 10
202.004469
 20
229.256572
 30
0.0
 11
204.004473
 21
231.256561
 31
0.0
  0
LINE
  5
A5
330
1F
100
AcDbEntity
  8
LC-001-100-D00-0
 62
     7
370
    50
100
AcDbLine
 10
204.004473
 20
231.256561
 30
0.0
 11
212.004475
 21
231.256561
 31
0.0
  0
ARC
  5
A6
330
1F
100
AcDbEntity
  8
LC-001-100-D00-0
 62
     7
370
    50
100
AcDbCircle
 10
212.004472
 20
229.256568
 30
0.0
 40
2.000000000000227
100
AcDbArc
 50
0.0
 51
90.0
  0
LINE
  5
A7
330
1F
100
AcDbEntity
  8
LC-001-100-D00-0
 62
     7
370
    50
100
AcDbLine
 10
214.004479
 20
227.756993
 30
0.0
 11
202.004469
 21
227.756993
 31
0.0
  0
LINE
  5
A8
330
1F
100
AcDbEntity
  8
LC-001-100-D00-0
 62
     7
370
    50
100
AcDbLine
 10
-143.995531
 20
231.256561
 30
0.0
 11
-135.99553
 21
231.256561
 31
0.0
  0
LINE
  5
A9
330
1F
100
AcDbEntity
  8
LC-001-100-D00-0
 62
     7
370
    50
100
AcDbLine
 10
-135.99553
 20
231.256561
 30
0.0
 11
-133.995526
 21
229.256572
 31
0.0
  0
LINE
  5
AA
330
1F
100
AcDbEntity
  8
LC-001-100-D00-0
 62
     7
370
    50
100
AcDbLine
 10
-133.995526
 20
227.756993
 30
0.0
 11
-133.995526
 21
229.256572
 31
0.0
  0
ARC
  5
AB
330
1F
100
AcDbEntity
  8
LC-001-100-D00-0
 62
     7
370
    50
100
AcDbCircle
 10
-143.995528
 20
229.256568
 30
0.0
 40
2.0
100
AcDbArc
 50
90.0
 51
180.0
  0
LINE
  5
AC
330
1F
100
AcDbEntity
  8
LC-001-100-D00-0
 62
     7
370
    50
100
AcDbLine
 10
-133.995526
 20
227.756993
 30
0.0
 11
-145.995535
 21
227.756993
 31
0.0
  0
LINE
  5
AD
330
1F
100
AcDbEntity
  8
LC-001-100-D00-0
 62
     7
370
    50
100
AcDbLine
 10
196.004472
 20
231.256561
 30
0.0
 11
204.004473
 21
231.256561
 31
0.0
  0
LINE
  5
AE
330
1F
100
AcDbEntity
  8
LC-001-100-D00-0
 62
     7
370
    50
100
AcDbLine
 10
202.004469
 20
229.256572
 30
0.0
 11
198.004476
 21
229.256572
 31
0.0
  0
LINE
  5
AF
330
1F
100
AcDbEntity
  8
LC-001-100-D00-0
 62
     7
370
    50
100
AcDbLine
 10
-135.99553
 20
231.256561
 30
0.0
 11
-127.995529
 21
231.256561
 31
0.0
  0
LINE
  5
B0
330
1F
100
AcDbEntity
  8
LC-001-100-D00-0
 62
     7
370
    50
100
AcDbLine
 10
-129.995533
 20
229.256572
 30
0.0
 11
-133.995526
 21
229.256572
 31
0.0
  0
LINE
  5
B1
330
1F
100
AcDbEntity
  8
LC-001-100-D00-0
 62
     7
370
    50
100
AcDbLine
 10
198.004476
 20
227.756993
 30
0.0
 11
202.004469
 21
227.756993
 31
0.0
  0
LINE
  5
B2
330
1F
100
AcDbEntity
  8
LC-001-100-D00-0
 62
     7
370
    50
100
AcDbLine
 10
-133.995526
 20
227.756993
 30
0.0
 11
-129.995533
 21
227.756993
 31
0.0
  0
INSERT
  5
C4
330
1F
100
AcDbEntity
  8
LC-001-100-D00-0
 62
     7
370
    50
100
AcDbBlockReference
  2
POLY1
 10
0.0
 20
0.0
 30
0.0
  0
LINE
  5
C5
330
1F
100
AcDbEntity
  8
LC-001-100-D00-0
 62
     7
370
    50
100
AcDbLine
 10
-36.008083
 20
222.556562
 30
0.0
 11
-36.008083
 21
202.256562
 31
0.0
  0
LINE
  5
C6
330
1F
100
AcDbEntity
  8
LC-001-100-D00-0
 62
     7
370
    50
100
AcDbLine
 10
-36.995531
 20
202.256562
 30
0.0
 11
-36.008083
 21
202.256562
 31
0.0
  0
LINE
  5
C7
330
1F
100
AcDbEntity
  8
LC-001-100-D00-0
 62
     7
370
    50
100
AcDbLine
 10
-36.995531
 20
223.556565
 30
0.0
 11
-36.995531
 21
202.256562
 31
0.0
  0
LINE
  5
C8
330
1F
100
AcDbEntity
  8
LC-001-100-D00-0
 62
     7
370
    50
100
AcDbLine
 10
104.017049
 20
202.256562
 30
0.0
 11
104.017049
 21
222.556562
 31
0.0
  0
INSERT
  5
DA
330
1F
100
AcDbEntity
  8
LC-001-100-D00-0
 62
     7
370
    50
100
AcDbBlockReference
  2
POLY2
 10
0.0
 20
0.0
 30
0.0
  0
LINE
  5
DB
330
1F
100
AcDbEntity
  8
LC-001-100-D00-0
 62
     7
370
    50
100
AcDbLine
 10
105.004474
 20
202.256562
 30
0.0
 11
105.004474
 21
223.556565
 31
0.0
  0
LINE
  5
DC
330
1F
100
AcDbEntity
  8
LC-001-100-D00-0
 62
     7
370
    50
100
AcDbLine
 10
104.017049
 20
202.256562
 30
0.0
 11
105.004474
 21
202.256562
 31
0.0
  0
LINE
  5
DD
330
1F
100
AcDbEntity
  8
LC-001-100-D00-0
 62
     7
370
    50
100
AcDbLine
 10
82.453053
 20
291.456567
 30
0.0
 11
82.453053
 21
291.841329
 31
0.0
  0
LINE
  5
DE
330
1F
100
AcDbEntity
  8
LC-001-100-D00-0
 62
     7
370
    50
100
AcDbLine
 10
-14.44411
 20
291.456567
 30
0.0
 11
82.453053
 21
291.456567
 31
0.0
  0
LINE
  5
DF
330
1F
100
AcDbEntity
  8
LC-001-100-D00-0
 62
     7
370
    50
100
AcDbLine
 10
-14.44411
 20
291.841329
 30
0.0
 11
-14.44411
 21
291.456567
 31
0.0
  0
LINE
  5
E0
330
1F
100
AcDbEntity
  8
LC-001-100-D00-0
 62
     7
370
    50
100
AcDbLine
 10
-22.19553
 20
270.544486
 30
0.0
 11
-14.44411
 21
291.841329
 31
0.0
  0
LINE
  5
E1
330
1F
100
AcDbEntity
  8
LC-001-100-D00-0
 62
     7
370
    50
100
AcDbLine
 10
-22.19553
 20
265.85664
 30
0.0
 11
-22.19553
 21
270.544486
 31
0.0
  0
LINE
  5
E2
330
1F
100
AcDbEntity
  8
LC-001-100-D00-0
 62
     7
370
    50
100
AcDbLine
 10
-23.901765
 20
265.85664
 30
0.0
 11
-22.19553
 21
265.85664
 31
0.0
  0
LINE
  5
E3
330
1F
100
AcDbEntity
  8
LC-001-100-D00-0
 62
     7
370
    50
100
AcDbLine
 10
-36.495157
 20
231.256561
 30
0.0
 11
-23.901765
 21
265.85664
 31
0.0
  0
LINE
  5
E4
330
1F
100
AcDbEntity
  8
LC-001-100-D00-0
 62
     7
370
    50
100
AcDbLine
 10
-36.49553
 20
231.256561
 30
0.0
 11
-36.495157
 21
231.256561
 31
0.0
  0
LINE
  5
E5
330
1F
100
AcDbEntity
  8
LC-001-100-D00-0
 62
     7
370
    50
100
AcDbLine
 10
-36.49553
 20
231.256561
 30
0.0
 11
-36.49553
 21
223.556565
 31
0.0
  0
LINE
  5
E6
330
1F
100
AcDbEntity
  8
LC-001-100-D00-0
 62
     7
370
    50
100
AcDbLine
 10
-36.49553
 20
223.556565
 30
0.0
 11
-36.995531
 21
223.556565
 31
0.0
  0
ARC
  5
E7
330
1F
100
AcDbEntity
  8
LC-001-100-D00-0
 62
     7
370
    50
100
AcDbCircle
 10
-40.395528
 20
203.256568
 30
0.0
 40
1.000000000000114
100
AcDbArc
 50
180.0
 51
270.0
  0
ARC
  5
E8
330
1F
100
AcDbEntity
  8
LC-001-100-D00-0
 62
     7
370
    50
100
AcDbCircle
 10
-40.395528
 20
203.256568
 30
0.0
 40
1.0
100
AcDbArc
 50
90.0
 51
180.0
  0
LINE
  5
E9
330
1F
100
AcDbEntity
  8
LC-001-100-D00-0
 62
     7
370
    50
100
AcDbLine
 10
-39.895528
 20
204.256566
 30
0.0
 11
-40.395529
 21
204.256566
 31
0.0
  0
LINE
  5
EA
330
1F
100
AcDbEntity
  8
LC-001-100-D00-0
 62
     7
370
    50
100
AcDbLine
 10
-39.895528
 20
231.256561
 30
0.0
 11
-39.895528
 21
204.256566
 31
0.0
  0
LINE
  5
EB
330
1F
100
AcDbEntity
  8
LC-001-100-D00-0
 62
     7
370
    50
100
AcDbLine
 10
-48.38843
 20
231.256561
 30
0.0
 11
-39.895528
 21
231.256561
 31
0.0
  0
LINE
  5
EC
330
1F
100
AcDbEntity
  8
LC-001-100-D00-0
 62
     7
370
    50
100
AcDbLine
 10
-48.38843
 20
231.256561
 30
0.0
 11
-51.580996
 21
233.080895
 31
0.0
  0
LINE
  5
ED
330
1F
100
AcDbEntity
  8
LC-001-100-D00-0
 62
     7
370
    50
100
AcDbLine
 10
-51.580996
 20
233.080895
 30
0.0
 11
-28.539502
 21
296.386869
 31
0.0
  0
ARC
  5
EE
330
1F
100
AcDbEntity
  8
LC-001-100-D00-0
 62
     7
370
    50
100
AcDbCircle
 10
-14.44411
 20
291.256574
 30
0.0
 40
15.0
100
AcDbArc
 50
90.0
 51
160.0
  0
LINE
  5
EF
330
1F
100
AcDbEntity
  8
LC-001-100-D00-0
 62
     7
370
    50
100
AcDbLine
 10
45.806736
 20
306.256579
 30
0.0
 11
-14.44411
 21
306.256579
 31
0.0
  0
LINE
  5
F0
330
1F
100
AcDbEntity
  8
LC-001-100-D00-0
 62
     7
370
    50
100
AcDbLine
 10
45.806736
 20
306.35658
 30
0.0
 11
45.806736
 21
306.256579
 31
0.0
  0
LINE
  5
F1
330
1F
100
AcDbEntity
  8
LC-001-100-D00-0
 62
     7
370
    50
100
AcDbLine
 10
45.806736
 20
306.35658
 30
0.0
 11
46.63279
 21
306.35658
 31
0.0
  0
LINE
  5
F2
330
1F
100
AcDbEntity
  8
LC-001-100-D00-0
 62
     7
370
    50
100
AcDbLine
 10
46.63279
 20
306.35658
 30
0.0
 11
46.63279
 21
306.256579
 31
0.0
  0
LINE
  5
F3
330
1F
100
AcDbEntity
  8
LC-001-100-D00-0
 62
     7
370
    50
100
AcDbLine
 10
47.210412
 20
306.256579
 30
0.0
 11
46.63279
 21
306.256579
 31
0.0
  0
LINE
  5
F4
330
1F
100
AcDbEntity
  8
LC-001-100-D00-0
 62
     7
370
    50
100
AcDbLine
 10
47.210412
 20
306.256579
 30
0.0
 11
47.210412
 21
306.35658
 31
0.0
  0
LINE
  5
F5
330
1F
100
AcDbEntity
  8
LC-001-100-D00-0
 62
     7
370
    50
100
AcDbLine
 10
47.210412
 20
306.35658
 30
0.0
 11
47.949514
 21
306.35658
 31
0.0
  0
LINE
  5
F6
330
1F
100
AcDbEntity
  8
LC-001-100-D00-0
 62
     7
370
    50
100
AcDbLine
 10
47.949514
 20
306.256579
 30
0.0
 11
47.949514
 21
306.35658
 31
0.0
  0
LINE
  5
F7
330
1F
100
AcDbEntity
  8
LC-001-100-D00-0
 62
     7
370
    50
100
AcDbLine
 10
48.328378
 20
306.256579
 30
0.0
 11
47.949514
 21
306.256579
 31
0.0
  0
LINE
  5
F8
330
1F
100
AcDbEntity
  8
LC-001-100-D00-0
 62
     7
370
    50
100
AcDbLine
 10
48.328378
 20
306.35658
 30
0.0
 11
48.328378
 21
306.256579
 31
0.0
  0
LINE
  5
F9
330
1F
100
AcDbEntity
  8
LC-001-100-D00-0
 62
     7
370
    50
100
AcDbLine
 10
48.328378
 20
306.35658
 30
0.0
 11
50.676111
 21
306.35658
 31
0.0
  0
LINE
  5
FA
330
1F
100
AcDbEntity
  8
LC-001-100-D00-0
 62
     7
370
    50
100
AcDbLine
 10
50.676111
 20
306.256579
 30
0.0
 11
50.676111
 21
306.35658
 31
0.0
  0
LINE
  5
FB
330
1F
100
AcDbEntity
  8
LC-001-100-D00-0
 62
     7
370
    50
100
AcDbLine
 10
51.110878
 20
306.256579
 30
0.0
 11
50.676111
 21
306.256579
 31
0.0
  0
LINE
  5
FC
330
1F
100
AcDbEntity
  8
LC-001-100-D00-0
 62
     7
370
    50
100
AcDbLine
 10
51.110878
 20
306.35658
 30
0.0
 11
51.110878
 21
306.256579
 31
0.0
  0
LINE
  5
FD
330
1F
100
AcDbEntity
  8
LC-001-100-D00-0
 62
     7
370
    50
100
AcDbLine
 10
51.893455
 20
306.35658
 30
0.0
 11
51.110878
 21
306.35658
 31
0.0
  0
LINE
  5
FE
330
1F
100
AcDbEntity
  8
LC-001-100-D00-0
 62
     7
370
    50
100
AcDbLine
 10
51.893455
 20
306.256579
 30
0.0
 11
51.893455
 21
306.35658
 31
0.0
  0
LINE
  5
FF
330
1F
100
AcDbEntity
  8
LC-001-100-D00-0
 62
     7
370
    50
100
AcDbLine
 10
52.980368
 20
306.256579
 30
0.0
 11
51.893455
 21
306.256579
 31
0.0
  0
LINE
  5
100
330
1F
100
AcDbEntity
  8
LC-001-100-D00-0
 62
     7
370
    50
100
AcDbLine
 10
52.980368
 20
306.35658
 30
0.0
 11
52.980368
 21
306.256579
 31
0.0
  0
LINE
  5
101
330
1F
100
AcDbEntity
  8
LC-001-100-D00-0
 62
     7
370
    50
100
AcDbLine
 10
53.762948
 20
306.35658
 30
0.0
 11
52.980368
 21
306.35658
 31
0.0
  0
LINE
  5
102
330
1F
100
AcDbEntity
  8
LC-001-100-D00-0
 62
     7
370
    50
100
AcDbLine
 10
53.762948
 20
306.256579
 30
0.0
 11
53.762948
 21
306.35658
 31
0.0
  0
LINE
  5
103
330
1F
100
AcDbEntity
  8
LC-001-100-D00-0
 62
     7
370
    50
100
AcDbLine
 10
54.849863
 20
306.256579
 30
0.0
 11
53.762948
 21
306.256579
 31
0.0
  0
LINE
  5
104
330
1F
100
AcDbEntity
  8
LC-001-100-D00-0
 62
     7
370
    50
100
AcDbLine
 10
54.849863
 20
306.35658
 30
0.0
 11
54.849863
 21
306.256579
 31
0.0
  0
LINE
  5
105
330
1F
100
AcDbEntity
  8
LC-001-100-D00-0
 62
     7
370
    50
100
AcDbLine
 10
54.849863
 20
306.35658
 30
0.0
 11
55.63244
 21
306.35658
 31
0.0
  0
LINE
  5
106
330
1F
100
AcDbEntity
  8
LC-001-100-D00-0
 62
     7
370
    50
100
AcDbLine
 10
55.63244
 20
306.256579
 30
0.0
 11
55.63244
 21
306.35658
 31
0.0
  0
LINE
  5
107
330
1F
100
AcDbEntity
  8
LC-001-100-D00-0
 62
     7
370
    50
100
AcDbLine
 10
56.197635
 20
306.256579
 30
0.0
 11
55.63244
 21
306.256579
 31
0.0
  0
LINE
  5
108
330
1F
100
AcDbEntity
  8
LC-001-100-D00-0
 62
     7
370
    50
100
AcDbLine
 10
56.197635
 20
306.35658
 30
0.0
 11
56.197635
 21
306.256579
 31
0.0
  0
LINE
  5
109
330
1F
100
AcDbEntity
  8
LC-001-100-D00-0
 62
     7
370
    50
100
AcDbLine
 10
56.197635
 20
306.35658
 30
0.0
 11
57.02369
 21
306.35658
 31
0.0
  0
LINE
  5
10A
330
1F
100
AcDbEntity
  8
LC-001-100-D00-0
 62
     7
370
    50
100
AcDbLine
 10
57.02369
 20
306.256579
 30
0.0
 11
57.02369
 21
306.35658
 31
0.0
  0
LINE
  5
10B
330
1F
100
AcDbEntity
  8
LC-001-100-D00-0
 62
     7
370
    50
100
AcDbLine
 10
57.588886
 20
306.256579
 30
0.0
 11
57.02369
 21
306.256579
 31
0.0
  0
LINE
  5
10C
330
1F
100
AcDbEntity
  8
LC-001-100-D00-0
 62
     7
370
    50
100
AcDbLine
 10
57.588886
 20
306.35658
 30
0.0
 11
57.588886
 21
306.256579
 31
0.0
  0
LINE
  5
10D
330
1F
100
AcDbEntity
  8
LC-001-100-D00-0
 62
     7
370
    50
100
AcDbLine
 10
57.588886
 20
306.35658
 30
0.0
 11
58.371463
 21
306.35658
 31
0.0
  0
LINE
  5
10E
330
1F
100
AcDbEntity
  8
LC-001-100-D00-0
 62
     7
370
    50
100
AcDbLine
 10
58.371463
 20
306.256579
 30
0.0
 11
58.371463
 21
306.35658
 31
0.0
  0
LINE
  5
10F
330
1F
100
AcDbEntity
  8
LC-001-100-D00-0
 62
     7
370
    50
100
AcDbLine
 10
58.719277
 20
306.256579
 30
0.0
 11
58.371463
 21
306.256579
 31
0.0
  0
LINE
  5
110
330
1F
100
AcDbEntity
  8
LC-001-100-D00-0
 62
     7
370
    50
100
AcDbLine
 10
58.719277
 20
306.35658
 30
0.0
 11
58.719277
 21
306.256579
 31
0.0
  0
LINE
  5
111
330
1F
100
AcDbEntity
  8
LC-001-100-D00-0
 62
     7
370
    50
100
AcDbLine
 10
60.632247
 20
306.35658
 30
0.0
 11
58.719277
 21
306.35658
 31
0.0
  0
LINE
  5
112
330
1F
100
AcDbEntity
  8
LC-001-100-D00-0
 62
     7
370
    50
100
AcDbLine
 10
60.632247
 20
306.256579
 30
0.0
 11
60.632247
 21
306.35658
 31
0.0
  0
LINE
  5
113
330
1F
100
AcDbEntity
  8
LC-001-100-D00-0
 62
     7
370
    50
100
AcDbLine
 10
61.110487
 20
306.256579
 30
0.0
 11
60.632247
 21
306.256579
 31
0.0
  0
LINE
  5
114
330
1F
100
AcDbEntity
  8
LC-001-100-D00-0
 62
     7
370
    50
100
AcDbLine
 10
61.110487
 20
306.35658
 30
0.0
 11
61.110487
 21
306.256579
 31
0.0
  0
LINE
  5
115
330
1F
100
AcDbEntity
  8
LC-001-100-D00-0
 62
     7
370
    50
100
AcDbLine
 10
61.110487
 20
306.35658
 30
0.0
 11
63.433553
 21
306.35658
 31
0.0
  0
LINE
  5
116
330
1F
100
AcDbEntity
  8
LC-001-100-D00-0
 62
     7
370
    50
100
AcDbLine
 10
63.433553
 20
306.256579
 30
0.0
 11
63.433553
 21
306.35658
 31
0.0
  0
LINE
  5
117
330
1F
100
AcDbEntity
  8
LC-001-100-D00-0
 62
     7
370
    50
100
AcDbLine
 10
82.453053
 20
306.256579
 30
0.0
 11
63.433553
 21
306.256579
 31
0.0
  0
ARC
  5
118
330
1F
100
AcDbEntity
  8
LC-001-100-D00-0
 62
     7
370
    50
100
AcDbCircle
 10
82.453054
 20
291.256574
 30
0.0
 40
15.00000000000018
100
AcDbArc
 50
20.0
 51
90.0
  0
LINE
  5
119
330
1F
100
AcDbEntity
  8
LC-001-100-D00-0
 62
     7
370
    50
100
AcDbLine
 10
96.548445
 20
296.386869
 30
0.0
 11
119.589939
 21
233.080895
 31
0.0
  0
LINE
  5
11A
330
1F
100
AcDbEntity
  8
LC-001-100-D00-0
 62
     7
370
    50
100
AcDbLine
 10
119.589939
 20
233.080895
 30
0.0
 11
116.397373
 21
231.256561
 31
0.0
  0
LINE
  5
11B
330
1F
100
AcDbEntity
  8
LC-001-100-D00-0
 62
     7
370
    50
100
AcDbLine
 10
107.904471
 20
231.256561
 30
0.0
 11
116.397373
 21
231.256561
 31
0.0
  0
LINE
  5
11C
330
1F
100
AcDbEntity
  8
LC-001-100-D00-0
 62
     7
370
    50
100
AcDbLine
 10
107.904471
 20
204.256566
 30
0.0
 11
107.904471
 21
231.256561
 31
0.0
  0
LINE
  5
11D
330
1F
100
AcDbEntity
  8
LC-001-100-D00-0
 62
     7
370
    50
100
AcDbLine
 10
108.404472
 20
204.256566
 30
0.0
 11
107.904471
 21
204.256566
 31
0.0
  0
ARC
  5
11E
330
1F
100
AcDbEntity
  8
LC-001-100-D00-0
 62
     7
370
    50
100
AcDbCircle
 10
108.404472
 20
203.256568
 30
0.0
 40
1.000000000000114
100
AcDbArc
 50
0.0
 51
90.0
  0
ARC
  5
11F
330
1F
100
AcDbEntity
  8
LC-001-100-D00-0
 62
     7
370
    50
100
AcDbCircle
 10
108.404472
 20
203.256568
 30
0.0
 40
1.000000000000114
100
AcDbArc
 50
270.0
 51
0.0
  0
LINE
  5
120
330
1F
100
AcDbEntity
  8
LC-001-100-D00-0
 62
     7
370
    50
100
AcDbLine
 10
105.004474
 20
223.556565
 30
0.0
 11
104.504473
 21
223.556565
 31
0.0
  0
LINE
  5
121
330
1F
100
AcDbEntity
  8
LC-001-100-D00-0
 62
     7
370
    50
100
AcDbLine
 10
104.504473
 20
223.556565
 30
0.0
 11
104.504473
 21
231.256561
 31
0.0
  0
LINE
  5
122
330
1F
100
AcDbEntity
  8
LC-001-100-D00-0
 62
     7
370
    50
100
AcDbLine
 10
104.5041
 20
231.256561
 30
0.0
 11
104.504473
 21
231.256561
 31
0.0
  0
LINE
  5
123
330
1F
100
AcDbEntity
  8
LC-001-100-D00-0
 62
     7
370
    15
100
AcDbLine
 10
91.910708
 20
265.85664
 30
0.0
 11
104.5041
 21
231.256561
 31
0.0
  0
LINE
  5
124
330
1F
100
AcDbEntity
  8
LC-001-100-D00-0
 62
     7
370
    50
100
AcDbLine
 10
90.204473
 20
265.85664
 30
0.0
 11
91.910708
 21
265.85664
 31
0.0
  0
LINE
  5
125
330
1F
100
AcDbEntity
  8
LC-001-100-D00-0
 62
     7
370
    50
100
AcDbLine
 10
90.204473
 20
270.544486
 30
0.0
 11
90.204473
 21
265.85664
 31
0.0
  0
LINE
  5
126
330
1F
100
AcDbEntity
  8
LC-001-100-D00-0
 62
     7
370
    50
100
AcDbLine
 10
82.453053
 20
291.841329
 30
0.0
 11
90.204473
 21
270.544486
 31
0.0
  0
LINE
  5
127
330
1F
100
AcDbEntity
  8
LC-001-100-D00-0
 62
     7
370
    50
100
AcDbLine
 10
-36.995531
 20
202.256562
 30
0.0
 11
-40.395529
 21
202.256562
 31
0.0
  0
LINE
  5
128
330
1F
100
AcDbEntity
  8
LC-001-100-D00-0
 62
     7
370
    50
100
AcDbLine
 10
108.404472
 20
202.256562
 30
0.0
 11
105.004474
 21
202.256562
 31
0.0
  0
LINE
  5
129
330
1F
100
AcDbEntity
  8
LC-001-100-D00-0
 62
     7
370
    50
100
AcDbLine
 10
-36.495157
 20
231.256561
 30
0.0
 11
-34.152195
 21
231.256561
 31
0.0
  0
LINE
  5
12A
330
1F
100
AcDbEntity
  8
LC-001-100-D00-0
 62
     7
370
    50
100
AcDbLine
 10
-34.033679
 20
231.256561
 30
0.0
 11
-27.164475
 21
231.256561
 31
0.0
  0
LINE
  5
12B
330
1F
100
AcDbEntity
  8
LC-001-100-D00-0
 62
     7
370
    50
100
AcDbLine
 10
-26.935522
 20
231.256561
 30
0.0
 11
-16.008188
 21
231.256561
 31
0.0
  0
LINE
  5
12C
330
1F
100
AcDbEntity
  8
LC-001-100-D00-0
 62
     7
370
    50
100
AcDbLine
 10
-15.6844
 20
231.256561
 30
0.0
 11
-1.443621
 21
231.256561
 31
0.0
  0
LINE
  5
12D
330
1F
100
AcDbEntity
  8
LC-001-100-D00-0
 62
     7
370
    50
100
AcDbLine
 10
-1.047064
 20
231.256561
 30
0.0
 11
15.536673
 21
231.256561
 31
0.0
  0
LINE
  5
12E
330
1F
100
AcDbEntity
  8
LC-001-100-D00-0
 62
     7
370
    50
100
AcDbLine
 10
15.978977
 20
231.256561
 30
0.0
 11
33.775518
 21
231.256561
 31
0.0
  0
LINE
  5
12F
330
1F
100
AcDbEntity
  8
LC-001-100-D00-0
 62
     7
370
    50
100
AcDbLine
 10
34.233425
 20
231.256561
 30
0.0
 11
52.029967
 21
231.256561
 31
0.0
  0
LINE
  5
130
330
1F
100
AcDbEntity
  8
LC-001-100-D00-0
 62
     7
370
    50
100
AcDbLine
 10
52.47227
 20
231.256561
 30
0.0
 11
69.056007
 21
231.256561
 31
0.0
  0
LINE
  5
131
330
1F
100
AcDbEntity
  8
LC-001-100-D00-0
 62
     7
370
    50
100
AcDbLine
 10
69.452565
 20
231.256561
 30
0.0
 11
83.693344
 21
231.256561
 31
0.0
  0
LINE
  5
132
330
1F
100
AcDbEntity
  8
LC-001-100-D00-0
 62
     7
370
    50
100
AcDbLine
 10
84.017131
 20
231.256561
 30
0.0
 11
94.944465
 21
231.256561
 31
0.0
  0
LINE
  5
133
330
1F
100
AcDbEntity
  8
LC-001-100-D00-0
 62
     7
370
    50
100
AcDbLine
 10
95.173418
 20
231.256561
 30
0.0
 11
102.042622
 21
231.256561
 31
0.0
  0
LINE
  5
134
330
1F
100
AcDbEntity
  8
LC-001-100-D00-0
 62
     7
370
    50
100
AcDbLine
 10
102.161139
 20
231.256561
 30
0.0
 11
104.5041
 21
231.256561
 31
0.0
  0
LINE
  5
135
330
1F
100
AcDbEntity
  8
LC-001-100-D00-0
 62
     7
370
    50
100
AcDbLine
 10
-36.49553
 20
223.556565
 30
0.0
 11
104.504473
 21
223.556565
 31
0.0
  0
LINE
  5
136
330
1F
100
AcDbEntity
  8
LC-001-100-D00-0
 62
     7
370
    50
100
AcDbLine
 10
63.433553
 20
306.35658
 30
0.0
 11
63.458222
 21
306.35658
 31
0.0
  0
LINE
  5
137
330
1F
100
AcDbEntity
  8
LC-001-100-D00-0
 62
     7
370
    50
100
AcDbLine
 10
63.458222
 20
306.35658
 30
0.0
 11
63.458222
 21
306.256579
 31
0.0
  0
LINE
  5
138
330
1F
100
AcDbEntity
  8
LC-001-100-D00-0
 62
     7
370
    50
100
AcDbLine
 10
-20.566837
 20
271.163346
 30
0.0
 11
-21.970284
 21
271.163346
 31
0.0
  0
LINE
  5
139
330
1F
100
AcDbEntity
  8
LC-001-100-D00-0
 62
     7
370
    50
100
AcDbLine
 10
-20.566837
 20
271.163346
 30
0.0
 11
-20.566837
 21
270.576806
 31
0.0
  0
ELLIPSE
  5
13A
330
1F
100
AcDbEntity
  8
LC-001-100-D00-0
 62
     7
370
    50
100
AcDbEllipse
 10
34.004472
 20
424.952744
 30
0.0
 11
-54.69271162375998
 21
-154.3402810314055
 31
0.0
210
0.0
220
0.0
230
1.0
 40
0.083767
 41
3.150803750597149
 42
3.191731874072997
  0
LINE
  5
13B
330
1F
100
AcDbEntity
  8
LC-001-100-D00-0
 62
     7
370
    50
100
AcDbLine
 10
-15.230965
 20
271.163346
 30
0.0
 11
-19.765348
 21
271.163346
 31
0.0
  0
LINE
  5
13C
330
1F
100
AcDbEntity
  8
LC-001-100-D00-0
 62
     7
370
    50
100
AcDbLine
 10
-15.230965
 20
271.163346
 30
0.0
 11
-15.230965
 21
270.576806
 31
0.0
  0
ELLIPSE
  5
13D
330
1F
100
AcDbEntity
  8
LC-001-100-D00-0
 62
     7
370
    50
100
AcDbEllipse
 10
34.004472
 20
424.952744
 30
0.0
 11
-50.10599910010568
 21
-154.186567081296
 31
0.0
210
0.0
220
0.0
230
1.0
 40
0.165076
 41
3.174721918189732
 42
3.215650041665567
  0
LINE
  5
13E
330
1F
100
AcDbEntity
  8
LC-001-100-D00-0
 62
     7
370
    50
100
AcDbLine
 10
-6.539781
 20
271.163346
 30
0.0
 11
-13.896086
 21
271.163346
 31
0.0
  0
LINE
  5
13F
330
1F
100
AcDbEntity
  8
LC-001-100-D00-0
 62
     7
370
    50
100
AcDbLine
 10
-6.539781
 20
271.163346
 30
0.0
 11
-6.539781
 21
270.576806
 31
0.0
  0
ELLIPSE
  5
140
330
1F
100
AcDbEntity
  8
LC-001-100-D00-0
 62
     7
370
    50
100
AcDbEllipse
 10
34.004472
 20
424.952744
 30
0.0
 11
-42.26835833949313
 21
-154.0735723013307
 31
0.0
210
0.0
220
0.0
230
1.0
 40
0.240393
 41
3.186982284715608
 42
3.227910408191448
  0
LINE
  5
141
330
1F
100
AcDbEntity
  8
LC-001-100-D00-0
 62
     7
370
    50
100
AcDbLine
 10
4.914427
 20
271.163346
 30
0.0
 11
-4.762482
 21
271.163346
 31
0.0
  0
LINE
  5
142
330
1F
100
AcDbEntity
  8
LC-001-100-D00-0
 62
     7
370
    50
100
AcDbLine
 10
4.914427
 20
271.163346
 30
0.0
 11
4.914427
 21
270.576806
 31
0.0
  0
ELLIPSE
  5
143
330
1F
100
AcDbEntity
  8
LC-001-100-D00-0
 62
     7
370
    50
100
AcDbEllipse
 10
34.004472
 20
424.952744
 30
0.0
 11
-31.0206984564833
 21
-154.1198904247362
 31
0.0
210
0.0
220
0.0
230
1.0
 40
0.30407
 41
3.182254375888677
 42
3.223182499364516
  0
LINE
  5
144
330
1F
100
AcDbEntity
  8
LC-001-100-D00-0
 62
     7
370
    50
100
AcDbLine
 10
18.351072
 20
271.163346
 30
0.0
 11
6.906285
 21
271.163346
 31
0.0
  0
LINE
  5
145
330
1F
100
AcDbEntity
  8
LC-001-100-D00-0
 62
     7
370
    50
100
AcDbLine
 10
18.351072
 20
271.163346
 30
0.0
 11
18.351072
 21
270.576806
 31
0.0
  0
ELLIPSE
  5
146
330
1F
100
AcDbEntity
  8
LC-001-100-D00-0
 62
     7
370
    50
100
AcDbEllipse
 10
34.004472
 20
424.952744
 30
0.0
 11
-16.5620746345934
 21
-154.3006263193175
 31
0.0
210
0.0
220
0.0
230
1.0
 40
0.348049
 41
3.158469548149911
 42
3.199397671625747
  0
LINE
  5
147
330
1F
100
AcDbEntity
  8
LC-001-100-D00-0
 62
     7
370
    50
100
AcDbLine
 10
32.854472
 20
271.163346
 30
0.0
 11
20.572702
 21
271.163346
 31
0.0
  0
ELLIPSE
  5
148
330
1F
100
AcDbEntity
  8
LC-001-100-D00-0
 62
     7
370
    50
100
AcDbEllipse
 10
34.004472
 20
424.952744
 30
0.0
 11
0.0
 21
-154.408263162109
 31
0.0
210
0.0
220
0.0
230
1.0
 40
0.36397
 41
3.121128591851875
 42
3.162056715327754
  0
LINE
  5
149
330
1F
100
AcDbEntity
  8
LC-001-100-D00-0
 62
     7
370
    50
100
AcDbLine
 10
47.436241
 20
271.163346
 30
0.0
 11
35.154472
 21
271.163346
 31
0.0
  0
ELLIPSE
  5
14A
330
1F
100
AcDbEntity
  8
LC-001-100-D00-0
 62
     7
370
    50
100
AcDbEllipse
 10
34.004472
 20
424.952744
 30
0.0
 11
16.56207463459331
 21
-154.3006263193104
 31
0.0
210
0.0
220
0.0
230
1.0
 40
0.348049
 41
3.083787635553863
 42
3.124715759029701
  0
LINE
  5
14B
330
1F
100
AcDbEntity
  8
LC-001-100-D00-0
 62
     7
370
    50
100
AcDbLine
 10
49.657871
 20
271.163346
 30
0.0
 11
49.657871
 21
270.576806
 31
0.0
  0
LINE
  5
14C
330
1F
100
AcDbEntity
  8
LC-001-100-D00-0
 62
     7
370
    50
100
AcDbLine
 10
61.102658
 20
271.163346
 30
0.0
 11
49.657871
 21
271.163346
 31
0.0
  0
ELLIPSE
  5
14D
330
1F
100
AcDbEntity
  8
LC-001-100-D00-0
 62
     7
370
    50
100
AcDbEllipse
 10
34.004472
 20
424.952744
 30
0.0
 11
31.02069845648386
 21
-154.1198904247364
 31
0.0
210
0.0
220
0.0
230
1.0
 40
0.30407
 41
3.060002807815115
 42
3.100930931290953
  0
LINE
  5
14E
330
1F
100
AcDbEntity
  8
LC-001-100-D00-0
 62
     7
370
    50
100
AcDbLine
 10
63.094517
 20
271.163346
 30
0.0
 11
63.094517
 21
270.576806
 31
0.0
  0
LINE
  5
14F
330
1F
100
AcDbEntity
  8
LC-001-100-D00-0
 62
     7
370
    50
100
AcDbLine
 10
72.771426
 20
271.163346
 30
0.0
 11
63.094517
 21
271.163346
 31
0.0
  0
ELLIPSE
  5
150
330
1F
100
AcDbEntity
  8
LC-001-100-D00-0
 62
     7
370
    50
100
AcDbEllipse
 10
34.004472
 20
424.952744
 30
0.0
 11
42.26835833949692
 21
-154.073572301343
 31
0.0
210
0.0
220
0.0
230
1.0
 40
0.240393
 41
3.05527489898817
 42
3.096203022464012
  0
LINE
  5
151
330
1F
100
AcDbEntity
  8
LC-001-100-D00-0
 62
     7
370
    50
100
AcDbLine
 10
74.548725
 20
271.163346
 30
0.0
 11
74.548725
 21
270.576806
 31
0.0
  0
LINE
  5
152
330
1F
100
AcDbEntity
  8
LC-001-100-D00-0
 62
     7
370
    50
100
AcDbLine
 10
81.905029
 20
271.163346
 30
0.0
 11
74.548725
 21
271.163346
 31
0.0
  0
ELLIPSE
  5
153
330
1F
100
AcDbEntity
  8
LC-001-100-D00-0
 62
     7
370
    50
100
AcDbEllipse
 10
34.004472
 20
424.952744
 30
0.0
 11
50.10599910013458
 21
-154.1865670813837
 31
0.0
210
0.0
220
0.0
230
1.0
 40
0.165076
 41
3.067535265514096
 42
3.108463388989935
  0
LINE
  5
154
330
1F
100
AcDbEntity
  8
LC-001-100-D00-0
 62
     7
370
    50
100
AcDbLine
 10
83.239909
 20
271.163346
 30
0.0
 11
83.239909
 21
270.576806
 31
0.0
  0
LINE
  5
155
330
1F
100
AcDbEntity
  8
LC-001-100-D00-0
 62
     7
370
    50
100
AcDbLine
 10
87.774291
 20
271.163346
 30
0.0
 11
83.239909
 21
271.163346
 31
0.0
  0
ELLIPSE
  5
156
330
1F
100
AcDbEntity
  8
LC-001-100-D00-0
 62
     7
370
    50
100
AcDbEllipse
 10
34.004472
 20
424.952744
 30
0.0
 11
54.69271162330694
 21
-154.340281030126
 31
0.0
210
0.0
220
0.0
230
1.0
 40
0.083767
 41
3.091453433106866
 42
3.132381556582731
  0
LINE
  5
157
330
1F
100
AcDbEntity
  8
LC-001-100-D00-0
 62
     7
370
    50
100
AcDbLine
 10
88.57578
 20
271.163346
 30
0.0
 11
88.57578
 21
270.576806
 31
0.0
  0
LINE
  5
158
330
1F
100
AcDbEntity
  8
LC-001-100-D00-0
 62
     7
370
    50
100
AcDbLine
 10
89.979227
 20
271.163346
 30
0.0
 11
88.57578
 21
271.163346
 31
0.0
  0
LINE
  5
159
330
1F
100
AcDbEntity
  8
LC-001-100-D00-0
 62
     7
370
    50
100
AcDbLine
 10
90.204473
 20
265.85664
 30
0.0
 11
-22.19553
 21
265.85664
 31
0.0
  0
LINE
  5
15A
330
1F
100
AcDbEntity
  8
LC-001-100-D00-0
 62
     7
370
    50
100
AcDbLine
 10
47.210412
 20
306.35658
 30
0.0
 11
47.079984
 21
306.35658
 31
0.0
  0
LINE
  5
15B
330
1F
100
AcDbEntity
  8
LC-001-100-D00-0
 62
     7
370
    50
100
AcDbLine
 10
57.02369
 20
306.35658
 30
0.0
 11
57.110644
 21
306.35658
 31
0.0
  0
LINE
  5
15C
330
1F
100
AcDbEntity
  8
LC-001-100-D00-0
 62
     7
370
    50
100
AcDbLine
 10
56.110681
 20
306.35658
 30
0.0
 11
56.197635
 21
306.35658
 31
0.0
  0
LINE
  5
15D
330
1F
100
AcDbEntity
  8
LC-001-100-D00-0
 62
     7
370
    50
100
AcDbLine
 10
55.63244
 20
306.35658
 30
0.0
 11
55.719394
 21
306.35658
 31
0.0
  0
LINE
  5
15E
330
1F
100
AcDbEntity
  8
LC-001-100-D00-0
 62
     7
370
    50
100
AcDbLine
 10
57.501932
 20
306.35658
 30
0.0
 11
57.588886
 21
306.35658
 31
0.0
  0
LINE
  5
15F
330
1F
100
AcDbEntity
  8
LC-001-100-D00-0
 62
     7
370
    50
100
AcDbLine
 10
47.079984
 20
306.35658
 30
0.0
 11
46.63279
 21
306.35658
 31
0.0
  0
LINE
  5
160
330
1F
100
AcDbEntity
  8
LC-001-100-D00-0
 62
     7
370
    50
100
AcDbLine
 10
55.719394
 20
306.35658
 30
0.0
 11
56.110681
 21
306.35658
 31
0.0
  0
LINE
  5
161
330
1F
100
AcDbEntity
  8
LC-001-100-D00-0
 62
     7
370
    50
100
AcDbLine
 10
57.110644
 20
306.35658
 30
0.0
 11
57.501932
 21
306.35658
 31
0.0
  0
LINE
  5
162
330
1F
100
AcDbEntity
  8
LC-001-100-D00-0
 62
     7
370
    50
100
AcDbLine
 10
74.548725
 20
270.576806
 30
0.0
 11
69.17499
 21
291.456567
 31
0.0
  0
LINE
  5
163
330
1F
100
AcDbEntity
  8
LC-001-100-D00-0
 62
     7
370
    50
100
AcDbLine
 10
93.078222
 20
231.256561
 30
0.0
 11
94.198562
 21
232.16194
 31
0.0
  0
LINE
  5
164
330
1F
100
AcDbEntity
  8
LC-001-100-D00-0
 62
     7
370
    50
100
AcDbLine
 10
84.668409
 20
231.256561
 30
0.0
 11
75.763538
 21
265.85664
 31
0.0
  0
LINE
  5
165
330
1F
100
AcDbEntity
  8
LC-001-100-D00-0
 62
     7
370
    50
100
AcDbLine
 10
-25.069278
 20
231.256561
 30
0.0
 11
-26.189618
 21
232.16194
 31
0.0
  0
LINE
  5
166
330
1F
100
AcDbEntity
  8
LC-001-100-D00-0
 62
     7
370
    50
100
AcDbLine
 10
-6.539781
 20
270.576806
 30
0.0
 11
-1.166046
 21
291.456567
 31
0.0
  0
LINE
  5
167
330
1F
100
AcDbEntity
  8
LC-001-100-D00-0
 62
     7
370
    50
100
AcDbLine
 10
-16.659465
 20
231.256561
 30
0.0
 11
-7.754595
 21
265.85664
 31
0.0
  0
LINE
  5
168
330
1F
100
AcDbEntity
  8
LC-001-100-D00-0
 62
     7
370
    50
100
AcDbLine
 10
-39.895528
 20
214.556561
 30
0.0
 11
-42.013608
 21
214.556561
 31
0.0
  0
LINE
  5
169
330
1F
100
AcDbEntity
  8
LC-001-100-D00-0
 62
     7
370
    50
100
AcDbLine
 10
-42.013608
 20
214.556561
 30
0.0
 11
-42.013608
 21
231.256561
 31
0.0
  0
LINE
  5
16A
330
1F
100
AcDbEntity
  8
LC-001-100-D00-0
 62
     7
370
    50
100
AcDbLine
 10
-20.566837
 20
270.576806
 30
0.0
 11
-13.226174
 21
291.456567
 31
0.0
  0
LINE
  5
16B
330
1F
100
AcDbEntity
  8
LC-001-100-D00-0
 62
     7
370
    50
100
AcDbLine
 10
-34.390584
 20
231.256561
 30
0.0
 11
-22.226301
 21
265.85664
 31
0.0
  0
LINE
  5
16C
330
1F
100
AcDbEntity
  8
LC-001-100-D00-0
 62
     7
370
    50
100
AcDbLine
 10
88.57578
 20
270.576806
 30
0.0
 11
81.235118
 21
291.456567
 31
0.0
  0
LINE
  5
16D
330
1F
100
AcDbEntity
  8
LC-001-100-D00-0
 62
     7
370
    50
100
AcDbLine
 10
110.022552
 20
214.556561
 30
0.0
 11
110.022552
 21
231.256561
 31
0.0
  0
LINE
  5
16E
330
1F
100
AcDbEntity
  8
LC-001-100-D00-0
 62
     7
370
    50
100
AcDbLine
 10
110.022552
 20
214.556561
 30
0.0
 11
107.904471
 21
214.556561
 31
0.0
  0
LINE
  5
16F
330
1F
100
AcDbEntity
  8
LC-001-100-D00-0
 62
     7
370
    50
100
AcDbLine
 10
102.399527
 20
231.256561
 30
0.0
 11
90.235244
 21
265.85664
 31
0.0
  0
LINE
  5
170
330
1F
100
AcDbEntity
  8
LC-001-100-D00-0
 62
     7
370
    50
100
AcDbLine
 10
87.980493
 20
270.576806
 30
0.0
 11
80.639835
 21
291.456567
 31
0.0
  0
LINE
  5
171
330
1F
100
AcDbEntity
  8
LC-001-100-D00-0
 62
     7
370
    50
100
AcDbLine
 10
-19.97155
 20
270.576806
 30
0.0
 11
-12.630892
 21
291.456567
 31
0.0
  0
INSERT
  5
183
330
1F
100
AcDbEntity
  8
LC-001-100-D00-0
 62
     7
370
    50
100
AcDbBlockReference
  2
POLY3
 10
0.0
 20
0.0
 30
0.0
  0
INSERT
  5
195
330
1F
100
AcDbEntity
  8
LC-001-100-D00-0
 62
     7
370
    50
100
AcDbBlockReference
  2
POLY4
 10
0.0
 20
0.0
 30
0.0
  0
LINE
  5
196
330
1F
100
AcDbEntity
  8
LC-001-100-D00-0
 62
     7
370
    50
100
AcDbLine
 10
20.20449
 20
222.556562
 30
0.0
 11
20.20449
 21
214.556561
 31
0.0
  0
LINE
  5
197
330
1F
100
AcDbEntity
  8
LC-001-100-D00-0
 62
     7
370
    50
100
AcDbLine
 10
-35.64147
 20
214.556561
 30
0.0
 11
20.20449
 21
214.556561
 31
0.0
  0
LINE
  5
198
330
1F
100
AcDbEntity
  8
LC-001-100-D00-0
 62
     7
370
    50
100
AcDbLine
 10
-35.64147
 20
214.556561
 30
0.0
 11
-35.64147
 21
222.556562
 31
0.0
  0
INSERT
  5
1AA
330
1F
100
AcDbEntity
  8
LC-001-100-D00-0
 62
     7
370
    50
100
AcDbBlockReference
  2
POLY5
 10
0.0
 20
0.0
 30
0.0
  0
INSERT
  5
1BC
330
1F
100
AcDbEntity
  8
LC-001-100-D00-0
 62
     7
370
    50
100
AcDbBlockReference
  2
POLY6
 10
0.0
 20
0.0
 30
0.0
  0
LINE
  5
1BD
330
1F
100
AcDbEntity
  8
LC-001-100-D00-0
 62
     7
370
    50
100
AcDbLine
 10
103.650435
 20
222.556562
 30
0.0
 11
103.650435
 21
214.556561
 31
0.0
  0
LINE
  5
1BE
330
1F
100
AcDbEntity
  8
LC-001-100-D00-0
 62
     7
370
    50
100
AcDbLine
 10
47.804568
 20
214.556561
 30
0.0
 11
103.650435
 21
214.556561
 31
0.0
  0
LINE
  5
1BF
330
1F
100
AcDbEntity
  8
LC-001-100-D00-0
 62
     7
370
    50
100
AcDbLine
 10
47.804568
 20
214.556561
 30
0.0
 11
47.804568
 21
222.556562
 31
0.0
  0
LINE
  5
1C0
330
1F
100
AcDbEntity
  8
LC-001-100-D00-0
 62
     7
370
    50
100
AcDbLine
 10
103.650435
 20
214.556561
 30
0.0
 11
104.017049
 21
214.556561
 31
0.0
  0
LINE
  5
1C1
330
1F
100
AcDbEntity
  8
LC-001-100-D00-0
 62
     7
370
    50
100
AcDbLine
 10
-36.008083
 20
214.556561
 30
0.0
 11
-35.64147
 21
214.556561
 31
0.0
  0
LINE
  5
1C2
330
1F
100
AcDbEntity
  8
LC-001-100-D00-0
 62
     7
370
    50
100
AcDbLine
 10
102.042622
 20
231.256561
 30
0.0
 11
102.161139
 21
231.256561
 31
0.0
  0
LINE
  5
1C3
330
1F
100
AcDbEntity
  8
LC-001-100-D00-0
 62
     7
370
    50
100
AcDbLine
 10
101.804241
 20
231.256561
 30
0.0
 11
89.639957
 21
265.85664
 31
0.0
  0
LINE
  5
1C4
330
1F
100
AcDbEntity
  8
LC-001-100-D00-0
 62
     7
370
    50
100
AcDbLine
 10
-34.152195
 20
231.256561
 30
0.0
 11
-34.033679
 21
231.256561
 31
0.0
  0
LINE
  5
1C5
330
1F
100
AcDbEntity
  8
LC-001-100-D00-0
 62
     7
370
    50
100
AcDbLine
 10
-33.795298
 20
231.256561
 30
0.0
 11
-21.631014
 21
265.85664
 31
0.0
  0
LINE
  5
1C6
330
1F
100
AcDbEntity
  8
LC-001-100-D00-0
 62
     7
370
    50
100
AcDbLine
 10
83.239909
 20
270.576806
 30
0.0
 11
76.658453
 21
291.456567
 31
0.0
  0
LINE
  5
1C7
330
1F
100
AcDbEntity
  8
LC-001-100-D00-0
 62
     7
370
    50
100
AcDbLine
 10
95.633942
 20
231.256561
 30
0.0
 11
84.727745
 21
265.85664
 31
0.0
  0
LINE
  5
1C8
330
1F
100
AcDbEntity
  8
LC-001-100-D00-0
 62
     7
370
    50
100
AcDbLine
 10
-15.230965
 20
270.576806
 30
0.0
 11
-8.64951
 21
291.456567
 31
0.0
  0
LINE
  5
1C9
330
1F
100
AcDbEntity
  8
LC-001-100-D00-0
 62
     7
370
    50
100
AcDbLine
 10
-27.624999
 20
231.256561
 30
0.0
 11
-16.718802
 21
265.85664
 31
0.0
  0
LINE
  5
1CA
330
1F
100
AcDbEntity
  8
LC-001-100-D00-0
 62
     7
370
    50
100
AcDbLine
 10
82.089908
 20
270.576806
 30
0.0
 11
75.508452
 21
291.456567
 31
0.0
  0
LINE
  5
1CB
330
1F
100
AcDbEntity
  8
LC-001-100-D00-0
 62
     7
370
    50
100
AcDbLine
 10
-14.080965
 20
270.576806
 30
0.0
 11
-7.499509
 21
291.456567
 31
0.0
  0
LINE
  5
1CC
330
1F
100
AcDbEntity
  8
LC-001-100-D00-0
 62
     7
370
    50
100
AcDbLine
 10
94.944465
 20
231.256561
 30
0.0
 11
95.173418
 21
231.256561
 31
0.0
  0
LINE
  5
1CD
330
1F
100
AcDbEntity
  8
LC-001-100-D00-0
 62
     7
370
    50
100
AcDbLine
 10
94.483941
 20
231.256561
 30
0.0
 11
83.577744
 21
265.85664
 31
0.0
  0
LINE
  5
1CE
330
1F
100
AcDbEntity
  8
LC-001-100-D00-0
 62
     7
370
    50
100
AcDbLine
 10
-27.164475
 20
231.256561
 30
0.0
 11
-26.935522
 21
231.256561
 31
0.0
  0
LINE
  5
1CF
330
1F
100
AcDbEntity
  8
LC-001-100-D00-0
 62
     7
370
    50
100
AcDbLine
 10
-26.474998
 20
231.256561
 30
0.0
 11
-15.568801
 21
265.85664
 31
0.0
  0
LINE
  5
1D0
330
1F
100
AcDbEntity
  8
LC-001-100-D00-0
 62
     7
370
    50
100
AcDbLine
 10
72.922378
 20
270.576806
 30
0.0
 11
67.548643
 21
291.456567
 31
0.0
  0
LINE
  5
1D1
330
1F
100
AcDbEntity
  8
LC-001-100-D00-0
 62
     7
370
    50
100
AcDbLine
 10
-4.913435
 20
270.576806
 30
0.0
 11
0.4603
 21
291.456567
 31
0.0
  0
LINE
  5
1D2
330
1F
100
AcDbEntity
  8
LC-001-100-D00-0
 62
     7
370
    50
100
AcDbLine
 10
63.094517
 20
270.576806
 30
0.0
 11
59.294711
 21
291.456567
 31
0.0
  0
LINE
  5
1D3
330
1F
100
AcDbEntity
  8
LC-001-100-D00-0
 62
     7
370
    50
100
AcDbLine
 10
77.793132
 20
233.080895
 30
0.0
 11
71.828436
 21
265.85664
 31
0.0
  0
LINE
  5
1D4
330
1F
100
AcDbEntity
  8
LC-001-100-D00-0
 62
     7
370
    50
100
AcDbLine
 10
70.862695
 20
271.163346
 30
0.0
 11
67.169629
 21
291.456567
 31
0.0
  0
LINE
  5
1D5
330
1F
100
AcDbEntity
  8
LC-001-100-D00-0
 62
     7
370
    50
100
AcDbLine
 10
76.196849
 20
231.256561
 30
0.0
 11
77.793132
 21
233.080895
 31
0.0
  0
LINE
  5
1D6
330
1F
100
AcDbEntity
  8
LC-001-100-D00-0
 62
     7
370
    50
100
AcDbLine
 10
70.250216
 20
231.256561
 30
0.0
 11
63.953518
 21
265.85664
 31
0.0
  0
LINE
  5
1D7
330
1F
100
AcDbEntity
  8
LC-001-100-D00-0
 62
     7
370
    50
100
AcDbLine
 10
-8.187905
 20
231.256561
 30
0.0
 11
-9.784189
 21
233.080895
 31
0.0
  0
LINE
  5
1D8
330
1F
100
AcDbEntity
  8
LC-001-100-D00-0
 62
     7
370
    50
100
AcDbLine
 10
-9.784189
 20
233.080895
 30
0.0
 11
-3.819492
 21
265.85664
 31
0.0
  0
LINE
  5
1D9
330
1F
100
AcDbEntity
  8
LC-001-100-D00-0
 62
     7
370
    50
100
AcDbLine
 10
-2.853752
 20
271.163346
 30
0.0
 11
0.839315
 21
291.456567
 31
0.0
  0
LINE
  5
1DA
330
1F
100
AcDbEntity
  8
LC-001-100-D00-0
 62
     7
370
    50
100
AcDbLine
 10
4.914427
 20
270.576806
 30
0.0
 11
8.714232
 21
291.456567
 31
0.0
  0
LINE
  5
1DB
330
1F
100
AcDbEntity
  8
LC-001-100-D00-0
 62
     7
370
    50
100
AcDbLine
 10
-2.241273
 20
231.256561
 30
0.0
 11
4.055425
 21
265.85664
 31
0.0
  0
LINE
  5
1DC
330
1F
100
AcDbEntity
  8
LC-001-100-D00-0
 62
     7
370
    50
100
AcDbLine
 10
61.102658
 20
270.576806
 30
0.0
 11
57.302854
 21
291.456567
 31
0.0
  0
LINE
  5
1DD
330
1F
100
AcDbEntity
  8
LC-001-100-D00-0
 62
     7
370
    50
100
AcDbLine
 10
6.906285
 20
270.576806
 30
0.0
 11
10.706089
 21
291.456567
 31
0.0
  0
LINE
  5
1DE
330
1F
100
AcDbEntity
  8
LC-001-100-D00-0
 62
     7
370
    50
100
AcDbLine
 10
83.693344
 20
231.256561
 30
0.0
 11
84.017131
 21
231.256561
 31
0.0
  0
LINE
  5
1DF
330
1F
100
AcDbEntity
  8
LC-001-100-D00-0
 62
     7
370
    50
100
AcDbLine
 10
83.042062
 20
231.256561
 30
0.0
 11
74.137192
 21
265.85664
 31
0.0
  0
LINE
  5
1E0
330
1F
100
AcDbEntity
  8
LC-001-100-D00-0
 62
     7
370
    50
100
AcDbLine
 10
-16.008188
 20
231.256561
 30
0.0
 11
-15.6844
 21
231.256561
 31
0.0
  0
LINE
  5
1E1
330
1F
100
AcDbEntity
  8
LC-001-100-D00-0
 62
     7
370
    50
100
AcDbLine
 10
-15.033119
 20
231.256561
 30
0.0
 11
-6.128248
 21
265.85664
 31
0.0
  0
LINE
  5
1E2
330
1F
100
AcDbEntity
  8
LC-001-100-D00-0
 62
     7
370
    50
100
AcDbLine
 10
49.657871
 20
270.576806
 30
0.0
 11
47.690947
 21
291.456567
 31
0.0
  0
LINE
  5
1E3
330
1F
100
AcDbEntity
  8
LC-001-100-D00-0
 62
     7
370
    50
100
AcDbLine
 10
57.266434
 20
233.080895
 30
0.0
 11
54.17888
 21
265.85664
 31
0.0
  0
LINE
  5
1E4
330
1F
100
AcDbEntity
  8
LC-001-100-D00-0
 62
     7
370
    50
100
AcDbLine
 10
53.678976
 20
271.163346
 30
0.0
 11
51.767304
 21
291.456567
 31
0.0
  0
LINE
  5
1E5
330
1F
100
AcDbEntity
  8
LC-001-100-D00-0
 62
     7
370
    50
100
AcDbLine
 10
56.440137
 20
231.256561
 30
0.0
 11
57.266434
 21
233.080895
 31
0.0
  0
LINE
  5
1E6
330
1F
100
AcDbEntity
  8
LC-001-100-D00-0
 62
     7
370
    50
100
AcDbLine
 10
53.361933
 20
231.256561
 30
0.0
 11
50.102524
 21
265.85664
 31
0.0
  0
LINE
  5
1E7
330
1F
100
AcDbEntity
  8
LC-001-100-D00-0
 62
     7
370
    50
100
AcDbLine
 10
11.568807
 20
231.256561
 30
0.0
 11
10.742509
 21
233.080895
 31
0.0
  0
LINE
  5
1E8
330
1F
100
AcDbEntity
  8
LC-001-100-D00-0
 62
     7
370
    50
100
AcDbLine
 10
10.742509
 20
233.080895
 30
0.0
 11
13.830063
 21
265.85664
 31
0.0
  0
LINE
  5
1E9
330
1F
100
AcDbEntity
  8
LC-001-100-D00-0
 62
     7
370
    50
100
AcDbLine
 10
14.329967
 20
271.163346
 30
0.0
 11
16.241639
 21
291.456567
 31
0.0
  0
LINE
  5
1EA
330
1F
100
AcDbEntity
  8
LC-001-100-D00-0
 62
     7
370
    50
100
AcDbLine
 10
18.351072
 20
270.576806
 30
0.0
 11
20.317996
 21
291.456567
 31
0.0
  0
LINE
  5
1EB
330
1F
100
AcDbEntity
  8
LC-001-100-D00-0
 62
     7
370
    50
100
AcDbLine
 10
14.64701
 20
231.256561
 30
0.0
 11
17.906419
 21
265.85664
 31
0.0
  0
LINE
  5
1EC
330
1F
100
AcDbEntity
  8
LC-001-100-D00-0
 62
     7
370
    50
100
AcDbLine
 10
47.436241
 20
270.576806
 30
0.0
 11
45.469318
 21
291.456567
 31
0.0
  0
LINE
  5
1ED
330
1F
100
AcDbEntity
  8
LC-001-100-D00-0
 62
     7
370
    50
100
AcDbLine
 10
20.572702
 20
270.576806
 30
0.0
 11
22.539625
 21
291.456567
 31
0.0
  0
LINE
  5
1EE
330
1F
100
AcDbEntity
  8
LC-001-100-D00-0
 62
     7
370
    50
100
AcDbLine
 10
32.854472
 20
270.576806
 30
0.0
 11
32.854472
 21
291.456567
 31
0.0
  0
LINE
  5
1EF
330
1F
100
AcDbEntity
  8
LC-001-100-D00-0
 62
     7
370
    50
100
AcDbLine
 10
35.154472
 20
270.576806
 30
0.0
 11
35.154472
 21
291.456567
 31
0.0
  0
LINE
  5
1F0
330
1F
100
AcDbEntity
  8
LC-001-100-D00-0
 62
     7
370
    50
100
AcDbLine
 10
69.056007
 20
231.256561
 30
0.0
 11
69.452565
 21
231.256561
 31
0.0
  0
LINE
  5
1F1
330
1F
100
AcDbEntity
  8
LC-001-100-D00-0
 62
     7
370
    50
100
AcDbLine
 10
68.258356
 20
231.256561
 30
0.0
 11
61.961661
 21
265.85664
 31
0.0
  0
LINE
  5
1F2
330
1F
100
AcDbEntity
  8
LC-001-100-D00-0
 62
     7
370
    50
100
AcDbLine
 10
-1.443621
 20
231.256561
 30
0.0
 11
-1.047064
 21
231.256561
 31
0.0
  0
LINE
  5
1F3
330
1F
100
AcDbEntity
  8
LC-001-100-D00-0
 62
     7
370
    50
100
AcDbLine
 10
-0.249412
 20
231.256561
 30
0.0
 11
6.047282
 21
265.85664
 31
0.0
  0
LINE
  5
1F4
330
1F
100
AcDbEntity
  8
LC-001-100-D00-0
 62
     7
370
    50
100
AcDbLine
 10
52.029967
 20
231.256561
 30
0.0
 11
52.47227
 21
231.256561
 31
0.0
  0
LINE
  5
1F5
330
1F
100
AcDbEntity
  8
LC-001-100-D00-0
 62
     7
370
    50
100
AcDbLine
 10
51.140304
 20
231.256561
 30
0.0
 11
47.880894
 21
265.85664
 31
0.0
  0
LINE
  5
1F6
330
1F
100
AcDbEntity
  8
LC-001-100-D00-0
 62
     7
370
    50
100
AcDbLine
 10
15.536673
 20
231.256561
 30
0.0
 11
15.978977
 21
231.256561
 31
0.0
  0
LINE
  5
1F7
330
1F
100
AcDbEntity
  8
LC-001-100-D00-0
 62
     7
370
    50
100
AcDbLine
 10
16.868639
 20
231.256561
 30
0.0
 11
20.128049
 21
265.85664
 31
0.0
  0
LINE
  5
1F8
330
1F
100
AcDbEntity
  8
LC-001-100-D00-0
 62
     7
370
    50
100
AcDbLine
 10
33.775518
 20
231.256561
 30
0.0
 11
34.233425
 21
231.256561
 31
0.0
  0
LINE
  5
1F9
330
1F
100
AcDbEntity
  8
LC-001-100-D00-0
 62
     7
370
    50
100
AcDbLine
 10
32.854472
 20
231.256561
 30
0.0
 11
32.854472
 21
265.85664
 31
0.0
  0
LINE
  5
1FA
330
1F
100
AcDbEntity
  8
LC-001-100-D00-0
 62
     7
370
    50
100
AcDbLine
 10
35.154472
 20
231.256561
 30
0.0
 11
35.154472
 21
265.85664
 31
0.0
  0
INSERT
  5
20C
330
1F
100
AcDbEntity
  8
LC-001-100-D00-0
 62
     7
370
    50
100
AcDbBlockReference
  2
POLY7
 10
0.0
 20
0.0
 30
0.0
  0
LINE
  5
20D
330
1F
100
AcDbEntity
  8
LC-001-100-D00-0
 62
     7
370
    50
100
AcDbLine
 10
45.804569
 20
222.556562
 30
0.0
 11
45.804569
 21
202.256562
 31
0.0
  0
LINE
  5
20E
330
1F
100
AcDbEntity
  8
LC-001-100-D00-0
 62
     7
370
    50
100
AcDbLine
 10
22.204489
 20
202.256562
 30
0.0
 11
45.804569
 21
202.256562
 31
0.0
  0
LINE
  5
20F
330
1F
100
AcDbEntity
  8
LC-001-100-D00-0
 62
     7
370
    50
100
AcDbLine
 10
22.204489
 20
202.256562
 30
0.0
 11
22.204489
 21
222.556562
 31
0.0
  0
INSERT
  5
221
330
1F
100
AcDbEntity
  8
LC-001-100-D00-0
 62
     7
370
    50
100
AcDbBlockReference
  2
POLY8
 10
0.0
 20
0.0
 30
0.0
  0
ARC
  5
222
330
1F
100
AcDbEntity
  8
LC-001-100-D00-0
 62
     7
370
    50
100
AcDbCircle
 10
-37.995528
 20
143.25665
 30
0.0
 40
8.0
100
AcDbArc
 50
180.0
 51
270.0
  0
LINE
  5
223
330
1F
100
AcDbEntity
  8
LC-001-100-D00-0
 62
     7
370
    50
100
AcDbLine
 10
-45.995527
 20
143.256651
 30
0.0
 11
-45.995527
 21
145.256647
 31
0.0
  0
LINE
  5
224
330
1F
100
AcDbEntity
  8
LC-001-100-D00-0
 62
     7
370
    50
100
AcDbLine
 10
-45.995527
 20
145.256647
 30
0.0
 11
-43.245525
 21
145.256647
 31
0.0
  0
LINE
  5
225
330
1F
100
AcDbEntity
  8
LC-001-100-D00-0
 62
     7
370
    50
100
AcDbLine
 10
-43.245525
 20
145.256647
 30
0.0
 11
-43.245525
 21
154.256651
 31
0.0
  0
LINE
  5
226
330
1F
100
AcDbEntity
  8
LC-001-100-D00-0
 62
     7
370
    50
100
AcDbLine
 10
-43.245525
 20
154.256651
 30
0.0
 11
-41.295529
 21
154.256651
 31
0.0
  0
LINE
  5
227
330
1F
100
AcDbEntity
  8
LC-001-100-D00-0
 62
     7
370
    50
100
AcDbLine
 10
-41.295529
 20
154.256651
 30
0.0
 11
-41.295529
 21
152.756648
 31
0.0
  0
LINE
  5
228
330
1F
100
AcDbEntity
  8
LC-001-100-D00-0
 62
     7
370
    50
100
AcDbLine
 10
-41.295529
 20
152.756648
 30
0.0
 11
-40.995531
 21
152.756648
 31
0.0
  0
LINE
  5
229
330
1F
100
AcDbEntity
  8
LC-001-100-D00-0
 62
     7
370
    50
100
AcDbLine
 10
-40.995531
 20
152.756648
 30
0.0
 11
-40.995531
 21
140.256652
 31
0.0
  0
ARC
  5
22A
330
1F
100
AcDbEntity
  8
LC-001-100-D00-0
 62
     7
370
    50
100
AcDbCircle
 10
-38.495528
 20
140.25665
 30
0.0
 40
2.5
100
AcDbArc
 50
180.0
 51
270.0
  0
LINE
  5
22B
330
1F
100
AcDbEntity
  8
LC-001-100-D00-0
 62
     7
370
    50
100
AcDbLine
 10
-38.495526
 20
137.756647
 30
0.0
 11
-28.745525
 21
137.756647
 31
0.0
  0
LINE
  5
22C
330
1F
100
AcDbEntity
  8
LC-001-100-D00-0
 62
     7
370
    50
100
AcDbLine
 10
-28.745525
 20
137.756647
 30
0.0
 11
-28.745525
 21
133.256653
 31
0.0
  0
LINE
  5
22D
330
1F
100
AcDbEntity
  8
LC-001-100-D00-0
 62
     7
370
    15
100
AcDbLine
 10
-28.745525
 20
133.256653
 30
0.0
 11
-36.745526
 21
133.256653
 31
0.0
  0
LINE
  5
22E
330
1F
100
AcDbEntity
  8
LC-001-100-D00-0
 62
     7
370
    50
100
AcDbLine
 10
-36.745526
 20
135.256649
 30
0.0
 11
-36.745526
 21
133.256653
 31
0.0
  0
LINE
  5
22F
330
1F
100
AcDbEntity
  8
LC-001-100-D00-0
 62
     7
370
    50
100
AcDbLine
 10
-36.745526
 20
135.256649
 30
0.0
 11
-37.995525
 21
135.256649
 31
0.0
  0
LINE
  5
230
330
1F
100
AcDbEntity
  8
LC-001-100-D00-0
 62
     7
370
    50
100
AcDbLine
 10
104.75447
 20
133.256653
 30
0.0
 11
104.75447
 21
135.256649
 31
0.0
  0
LINE
  5
231
330
1F
100
AcDbEntity
  8
LC-001-100-D00-0
 62
     7
370
    50
100
AcDbLine
 10
96.754468
 20
133.256653
 30
0.0
 11
96.754468
 21
137.756647
 31
0.0
  0
LINE
  5
232
330
1F
100
AcDbEntity
  8
LC-001-100-D00-0
 62
     7
370
    50
100
AcDbLine
 10
96.746504
 20
133.256653
 30
0.0
 11
96.746504
 21
135.256649
 31
0.0
  0
LINE
  5
233
330
1F
100
AcDbEntity
  8
LC-001-100-D00-0
 62
     7
370
    50
100
AcDbLine
 10
96.504472
 20
135.256649
 30
0.0
 11
96.746504
 21
135.256649
 31
0.0
  0
LINE
  5
234
330
1F
100
AcDbEntity
  8
LC-001-100-D00-0
 62
     7
370
    50
100
AcDbLine
 10
-28.73756
 20
135.256649
 30
0.0
 11
-28.495528
 21
135.256649
 31
0.0
  0
LINE
  5
235
330
1F
100
AcDbEntity
  8
LC-001-100-D00-0
 62
     7
370
    50
100
AcDbLine
 10
-28.73756
 20
133.256653
 30
0.0
 11
-28.73756
 21
135.256649
 31
0.0
  0
LINE
  5
236
330
1F
100
AcDbEntity
  8
LC-001-100-D00-0
 62
     7
370
    50
100
AcDbLine
 10
-28.745525
 20
137.756647
 30
0.0
 11
-28.495528
 21
137.756647
 31
0.0
  0
LINE
  5
237
330
1F
100
AcDbEntity
  8
LC-001-100-D00-0
 62
     7
370
    50
100
AcDbLine
 10
96.504472
 20
137.756647
 30
0.0
 11
96.754468
 21
137.756647
 31
0.0
  0
LINE
  5
238
330
1F
100
AcDbEntity
  8
LC-001-100-D00-0
 62
     7
370
    50
100
AcDbLine
 10
-28.73756
 20
133.256653
 30
0.0
 11
-28.745525
 21
133.256653
 31
0.0
  0
LINE
  5
239
330
1F
100
AcDbEntity
  8
LC-001-100-D00-0
 62
     7
370
    50
100
AcDbLine
 10
96.754468
 20
133.256653
 30
0.0
 11
96.746504
 21
133.256653
 31
0.0
  0
LINE
  5
23A
330
1F
100
AcDbEntity
  8
LC-001-100-D00-0
 62
     7
370
    50
100
AcDbLine
 10
96.754468
 20
137.756647
 30
0.0
 11
106.50447
 21
137.756647
 31
0.0
  0
ARC
  5
23B
330
1F
100
AcDbEntity
  8
LC-001-100-D00-0
 62
     7
370
    50
100
AcDbCircle
 10
106.504472
 20
140.25665
 30
0.0
 40
2.5
100
AcDbArc
 50
270.0
 51
0.0
  0
LINE
  5
23C
330
1F
100
AcDbEntity
  8
LC-001-100-D00-0
 62
     7
370
    50
100
AcDbLine
 10
109.004475
 20
140.256652
 30
0.0
 11
109.004475
 21
152.756648
 31
0.0
  0
LINE
  5
23D
330
1F
100
AcDbEntity
  8
LC-001-100-D00-0
 62
     7
370
    50
100
AcDbLine
 10
109.004475
 20
152.756648
 30
0.0
 11
109.304472
 21
152.756648
 31
0.0
  0
LINE
  5
23E
330
1F
100
AcDbEntity
  8
LC-001-100-D00-0
 62
     7
370
    50
100
AcDbLine
 10
109.304472
 20
152.756648
 30
0.0
 11
109.304472
 21
154.256651
 31
0.0
  0
LINE
  5
23F
330
1F
100
AcDbEntity
  8
LC-001-100-D00-0
 62
     7
370
    50
100
AcDbLine
 10
109.304472
 20
154.256651
 30
0.0
 11
111.254468
 21
154.256651
 31
0.0
  0
LINE
  5
240
330
1F
100
AcDbEntity
  8
LC-001-100-D00-0
 62
     7
370
    50
100
AcDbLine
 10
111.254468
 20
154.256651
 30
0.0
 11
111.254468
 21
145.256647
 31
0.0
  0
LINE
  5
241
330
1F
100
AcDbEntity
  8
LC-001-100-D00-0
 62
     7
370
    50
100
AcDbLine
 10
111.254468
 20
145.256647
 30
0.0
 11
114.00447
 21
145.256647
 31
0.0
  0
LINE
  5
242
330
1F
100
AcDbEntity
  8
LC-001-100-D00-0
 62
     7
370
    50
100
AcDbLine
 10
114.00447
 20
145.256647
 30
0.0
 11
114.00447
 21
143.256651
 31
0.0
  0
ARC
  5
243
330
1F
100
AcDbEntity
  8
LC-001-100-D00-0
 62
     7
370
    50
100
AcDbCircle
 10
106.004472
 20
143.25665
 30
0.0
 40
8.0
100
AcDbArc
 50
270.0
 51
0.0
  0
LINE
  5
244
330
1F
100
AcDbEntity
  8
LC-001-100-D00-0
 62
     7
370
    50
100
AcDbLine
 10
106.004469
 20
135.256649
 30
0.0
 11
104.75447
 21
135.256649
 31
0.0
  0
LINE
  5
245
330
1F
100
AcDbEntity
  8
LC-001-100-D00-0
 62
     7
370
    50
100
AcDbLine
 10
104.75447
 20
133.256653
 30
0.0
 11
96.754468
 21
133.256653
 31
0.0
  0
LINE
  5
246
330
1F
100
AcDbEntity
  8
LC-001-100-D00-0
 62
     7
370
    50
100
AcDbLine
 10
-40.995531
 20
152.756648
 30
0.0
 11
-32.99553
 21
152.756648
 31
0.0
  0
LINE
  5
247
330
1F
100
AcDbEntity
  8
LC-001-100-D00-0
 62
     7
370
    50
100
AcDbLine
 10
101.004473
 20
152.756648
 30
0.0
 11
109.004475
 21
152.756648
 31
0.0
  0
LINE
  5
248
330
1F
100
AcDbEntity
  8
LC-001-100-D00-0
 62
     7
370
    50
100
AcDbLine
 10
-41.295529
 20
154.256651
 30
0.0
 11
-32.99553
 21
154.256651
 31
0.0
  0
LINE
  5
249
330
1F
100
AcDbEntity
  8
LC-001-100-D00-0
 62
     7
370
    50
100
AcDbLine
 10
101.004473
 20
154.256651
 30
0.0
 11
109.304472
 21
154.256651
 31
0.0
  0
INSERT
  5
24F
330
1F
100
AcDbEntity
  8
LC-001-100-D00-0
 62
     1
370
    25
100
AcDbBlockReference
  2
KLON1
 10
0.0
 20
0.0
 30
0.0
  0
INSERT
  5
255
330
1F
100
AcDbEntity
  8
LC-001-100-D00-0
 62
     1
370
    25
100
AcDbBlockReference
  2
KLON2
 10
0.0
 20
0.0
 30
0.0
  0
INSERT
  5
268
330
1F
100
AcDbEntity
  8
LC-001-100-D00-0
 62
     1
370
    25
100
AcDbBlockReference
  2
KLON3
 10
0.0
 20
0.0
 30
0.0
  0
INSERT
  5
27A
330
1F
100
AcDbEntity
  8
LC-001-100-D00-0
 62
     1
370
    25
100
AcDbBlockReference
  2
KLON4
 10
0.0
 20
0.0
 30
0.0
  0
LINE
  5
27B
330
1F
100
AcDbEntity
  8
LC-001-100-D00-0
 62
     1
370
    25
100
AcDbLine
 10
-145.007126
 20
227.756989
 30
0.0
 11
-141.507547
 21
231.256568
 31
0.0
  0
INSERT
  5
28D
330
1F
100
AcDbEntity
  8
LC-001-100-D00-0
 62
     1
370
    25
100
AcDbBlockReference
  2
KLON5
 10
0.0
 20
0.0
 30
0.0
  0
LINE
  5
28E
330
1F
100
AcDbEntity
  8
LC-001-100-D00-0
 62
     7
370
    50
100
AcDbLine
 10
-41.602135
 20
196.458139
 30
0.0
 11
-37.102135
 21
200.958139
 31
0.0
  0
LINE
  5
290
330
1F
100
AcDbEntity
  8
LC-001-100-D00-0
  6
DASHDOT
 62
     7
370
    25
100
AcDbLine
 10
34.004472
 20
70.002993
 30
0.0
 11
34.004472
 21
306.256579
 31
0.0
  0
DIMENSION
  5
294
330
1F
100
AcDbEntity
  8
LC-002-003-----0
 62
     7
370
    25
100
AcDbDimension
  2
*D14
 10
-116.107105
 20
135.25665
 30
0.0
 11
-146.907105
 21
179.642993
 31
0.0
 70
   160
 71
     5
 42
95.999918
 53
90.0
  3
LC-DIM-L-0140-02-02
100
AcDbAlignedDimension
 13
-141.507547
 23
231.256568
 33
0.0
 14
-37.995528
 24
135.25665
 34
0.0
 50
90.0
100
AcDbRotatedDimension
  0
DIMENSION
  5
2A2
330
1F
100
AcDbEntity
  8
LC-002-003-----0
 62
     7
370
    25
100
AcDbDimension
  2
*D15
 10
-176.763037
 20
71.256648
 30
0.0
 11
-207.563037
 21
151.130993
 31
0.0
 70
   160
 71
     5
 42
159.99992
 53
90.0
  3
LC-DIM-L-0140-02-02
100
AcDbAlignedDimension
 13
-143.995528
 23
231.256568
 33
0.0
 14
-24.995529
 24
71.256648
 34
0.0
 50
90.0
100
AcDbRotatedDimension
  0
DIMENSION
  5
2AF
330
1F
100
AcDbEntity
  8
LC-002-003-----0
 62
     7
370
    25
100
AcDbDimension
  2
*D16
 10
96.504472
 20
25.202993
 30
0.0
 11
32.455974
 21
56.002993
 31
0.0
 70
   160
  1
DN125
 71
     5
 42
125.0
  3
LC-DIM-L-0140-02-02
100
AcDbAlignedDimension
 13
-28.495528
 23
76.256648
 33
0.0
 14
96.504472
 24
76.256648
 34
0.0
100
AcDbRotatedDimension
  0
DIMENSION
  5
2BC
330
1F
100
AcDbEntity
  8
LC-002-003-----0
 62
     7
370
    25
100
AcDbDimension
  2
*D17
 10
214.004479
 20
332.300993
 30
0.0
 11
31.576903
 21
363.100993
 31
0.0
 70
   160
  1
%%c<>
 71
     5
 42
360.000014
  3
LC-DIM-L-0140-02-02
100
AcDbAlignedDimension
 13
-145.995535
 23
227.756993
 33
0.0
 14
214.004479
 24
227.756993
 34
0.0
100
AcDbRotatedDimension
  0
DIMENSION
  5
2C9
330
1F
100
AcDbEntity
  8
LC-002-003-----0
 62
     7
370
    25
100
AcDbDimension
  2
*D18
 10
114.104472
 20
-39.543007
 30
0.0
 11
24.544331
 21
-8.743007
 31
0.0
 70
   160
  1
%%c160
 71
     5
 42
160.2
  3
LC-DIM-L-0140-02-02
100
AcDbAlignedDimension
 13
-46.095528
 23
145.256647
 33
0.0
 14
114.104472
 24
145.256647
 34
0.0
100
AcDbRotatedDimension
  0
ENDSEC
  0
SECTION
  2
OBJECTS
  0
DICTIONARY
  5
C
330
0
100
AcDbDictionary
281
     1
  3
ACAD_GROUP
350
D
  3
ACAD_LAYOUT
350
1A
  3
ACAD_MLINESTYLE
350
17
  3
ACAD_PLOTSETTINGS
350
19
  3
ACAD_PLOTSTYLENAME
350
E
  0
DICTIONARY
  5
D
102
{ACAD_REACTORS
330
C
102
}
330
C
100
AcDbDictionary
281
     1
  0
DICTIONARY
  5
1A
102
{ACAD_REACTORS
330
C
102
}
330
C
100
AcDbDictionary
281
     1
  3
Layout1
350
1E
  3
Layout2
350
26
  3
Model
350
22
  0
DICTIONARY
  5
17
102
{ACAD_REACTORS
330
C
102
}
330
C
100
AcDbDictionary
281
     1
  3
Standard
350
18
  0
DICTIONARY
  5
19
102
{ACAD_REACTORS
330
C
102
}
330
C
100
AcDbDictionary
281
     1
  0
ACDBDICTIONARYWDFLT
  5
E
102
{ACAD_REACTORS
330
C
102
}
330
C
100
AcDbDictionary
281
     1
  3
Normal
350
F
100
AcDbDictionaryWithDefault
340
F
  0
LAYOUT
  5
1E
102
{ACAD_REACTORS
330
1A
102
}
330
1A
100
AcDbPlotSettings
  1

  2

  4

  6

 40
0.0
 41
0.0
 42
0.0
 43
0.0
 44
0.0
 45
0.0
 46
0.0
 47
0.0
 48
0.0
 49
0.0
140
0.0
141
0.0
142
1.0
143
1.0
 70
   688
 72
     0
 73
     0
 74
     5
  7

 75
    16
147
1.0
148
0.0
149
0.0
100
AcDbLayout
  1
Layout1
 70
     1
 71
     1
 10
-288.208949
 20
-149.433007
 11
551.791051
 21
444.566993
 12
0.0
 22
0.0
 32
0.0
 14
-288.208949
 24
-149.433007
 34
0.0
 15
551.791051
 25
444.566993
 35
0.0
146
0.0
 13
0.0
 23
0.0
 33
0.0
 16
1.0
 26
0.0
 36
0.0
 17
0.0
 27
1.0
 37
0.0
 76
     0
330
1B
  0
LAYOUT
  5
26
102
{ACAD_REACTORS
330
1A
102
}
330
1A
100
AcDbPlotSettings
  1

  2

  4

  6

 40
0.0
 41
0.0
 42
0.0
 43
0.0
 44
0.0
 45
0.0
 46
0.0
 47
0.0
 48
0.0
 49
0.0
140
0.0
141
0.0
142
1.0
143
1.0
 70
   688
 72
     0
 73
     0
 74
     5
  7

 75
    16
147
1.0
148
0.0
149
0.0
100
AcDbLayout
  1
Layout2
 70
     1
 71
     2
 10
0.0
 20
0.0
 11
0.0
 21
0.0
 12
0.0
 22
0.0
 32
0.0
 14
0.0
 24
0.0
 34
0.0
 15
0.0
 25
0.0
 35
0.0
146
0.0
 13
0.0
 23
0.0
 33
0.0
 16
1.0
 26
0.0
 36
0.0
 17
0.0
 27
1.0
 37
0.0
 76
     0
330
23
  0
LAYOUT
  5
22
102
{ACAD_REACTORS
330
1A
102
}
330
1A
100
AcDbPlotSettings
  1

  2

  4

  6

 40
0.0
 41
0.0
 42
0.0
 43
0.0
 44
0.0
 45
0.0
 46
0.0
 47
0.0
 48
0.0
 49
0.0
140
0.0
141
0.0
142
1.0
143
1.0
 70
  1776
 72
     0
 73
     0
 74
     0
  7

 75
     0
147
1.0
148
0.0
149
0.0
100
AcDbLayout
  1
Model
 70
     1
 71
     0
 10
-288.208949
 20
-149.433007
 11
551.791051
 21
444.566993
 12
0.0
 22
0.0
 32
0.0
 14
-288.208949
 24
-149.433007
 34
0.0
 15
551.791051
 25
444.566993
 35
0.0
146
0.0
 13
0.0
 23
0.0
 33
0.0
 16
1.0
 26
0.0
 36
0.0
 17
0.0
 27
1.0
 37
0.0
 76
     0
330
1F
  0
MLINESTYLE
  5
18
102
{ACAD_REACTORS
330
17
102
}
330
17
100
AcDbMlineStyle
  2
Standard
 70
     0
  3

 62
   256
 51
90.0
 52
90.0
 71
     2
 49
0.5
 62
   256
  6
BYLAYER
 49
-0.5
 62
   256
  6
BYLAYER
  0
ACDBPLACEHOLDER
  5
F
102
{ACAD_REACTORS
330
E
102
}
330
E
  0
ENDSEC
  0
EOF
