  0
SECTION
  2
HEADER
  9
$ACADVER
  1
AC1009
  9
$INSBASE
 10
695.688518
 20
-177.22016
 30
0.0
  9
$EXTMIN
 10
695.688518
 20
-177.22016
 30
0.0
  9
$EXTMAX
 10
1535.688518
 20
416.77984
 30
0.0
  9
$LIMMIN
 10
695.688518
 20
-177.22016
  9
$LIMMAX
 10
1535.688518
 20
416.77984
  9
$ORTHOMODE
 70
     0
  9
$REGENMODE
 70
     1
  9
$FILLMODE
 70
     1
  9
$QTEXTMODE
 70
     0
  9
$MIRRTEXT
 70
     1
  9
$DRAGMODE
 70
     2
  9
$LTSCALE
 40
2.0
  9
$OSMODE
 70
     0
  9
$ATTMODE
 70
     1
  9
$TEXTSIZE
 40
0.2
  9
$TRACEWID
 40
0.05
  9
$TEXTSTYLE
  7
STANDARD
  9
$CLAYER
  8
0
  9
$CELTYPE
  6
BYLAYER
  9
$CECOLOR
 62
     7
  9
$DIMSCALE
 40
2.0
  9
$DIMASZ
 40
3.5
  9
$DIMEXO
 40
0.0625
  9
$DIMDLI
 40
0.38
  9
$DIMRND
 40
0.0
  9
$DIMDLE
 40
0.0
  9
$DIMEXE
 40
0.18
  9
$DIMTP
 40
0.0
  9
$DIMTM
 40
0.0
  9
$DIMTXT
 40
3.5
  9
$DIMCEN
 40
0.09
  9
$DIMTSZ
 40
0.0
  9
$DIMTOL
 70
     0
  9
$DIMLIM
 70
     0
  9
$DIMTIH
 70
     1
  9
$DIMTOH
 70
     1
  9
$DIMSE1
 70
     0
  9
$DIMSE2
 70
     0
  9
$DIMTAD
 70
     1
  9
$DIMZIN
 70
     0
  9
$DIMBLK
  1

  9
$DIMASO
 70
     1
  9
$DIMSHO
 70
     1
  9
$DIMPOST
  1

  9
$DIMAPOST
  1

  9
$DIMALT
 70
     0
  9
$DIMALTD
 70
     2
  9
$DIMALTF
 40
25.4
  9
$DIMLFAC
 40
1.0
  9
$DIMTOFL
 70
     0
  9
$DIMTVP
 40
0.0
  9
$DIMTIX
 70
     0
  9
$DIMSOXD
 70
     0
  9
$DIMSAH
 70
     0
  9
$DIMBLK1
  1

  9
$DIMBLK2
  1

  9
$DIMSTYLE
  2
STANDARD
  9
$DIMCLRD
 70
     0
  9
$DIMCLRE
 70
     0
  9
$DIMCLRT
 70
     0
  9
$DIMTFAC
 40
1.0
  9
$DIMGAP
 40
0.09
  9
$LUNITS
 70
     2
  9
$LUPREC
 70
     2
  9
$AXISMODE
 70
     0
  9
$AXISUNIT
 10
0.0
 20
0.0
  9
$SKETCHINC
 40
0.1
  9
$FILLETRAD
 40
0.0
  9
$AUNITS
 70
     0
  9
$AUPREC
 70
     0
  9
$MENU
  1
acad
  9
$ELEVATION
 40
0.0
  9
$PELEVATION
 40
0.0
  9
$THICKNESS
 40
0.0
  9
$LIMCHECK
 70
     0
  9
$BLIPMODE
 70
     1
  9
$CHAMFERA
 40
0.0
  9
$CHAMFERB
 40
0.0
  9
$SKPOLY
 70
     0
  9
$TDCREATE
 40
0.000000000
  9
$TDUPDATE
 40
0.000000000
  9
$TDINDWG
 40
0.0000000000
  9
$TDUSRTIMER
 40
0.0000000000
  9
$USRTIMER
 70
     1
  9
$ANGBASE
 50
0.0
  9
$ANGDIR
 70
     0
  9
$PDMODE
 70
     0
  9
$PDSIZE
 40
0.0
  9
$PLINEWID
 40
0.0
  9
$COORDS
 70
     0
  9
$SPLFRAME
 70
     0
  9
$SPLINETYPE
 70
     6
  9
$SPLINESEGS
 70
     8
  9
$ATTDIA
 70
     0
  9
$ATTREQ
 70
     1
  9
$HANDLING
 70
     1
  9
$HANDSEED
  5
7FA
  9
$SURFTAB1
 70
     6
  9
$SURFTAB2
 70
     6
  9
$SURFTYPE
 70
     6
  9
$SURFU
 70
     6
  9
$SURFV
 70
     6
  9
$UCSNAME
  2

  9
$UCSORG
 10
0.0
 20
0.0
 30
0.0
  9
$UCSXDIR
 10
1.0
 20
0.0
 30
0.0
  9
$UCSYDIR
 10
0.0
 20
1.0
 30
0.0
  9
$PUCSNAME
  2

  9
$PUCSORG
 10
0.0
 20
0.0
 30
0.0
  9
$PUCSXDIR
 10
1.0
 20
0.0
 30
0.0
  9
$PUCSYDIR
 10
0.0
 20
1.0
 30
0.0
  9
$USERI1
 70
     0
  9
$USERI2
 70
     0
  9
$USERI3
 70
     0
  9
$USERI4
 70
     0
  9
$USERI5
 70
     0
  9
$USERR1
 40
0.0
  9
$USERR2
 40
0.0
  9
$USERR3
 40
0.0
  9
$USERR4
 40
0.0
  9
$USERR5
 40
0.0
  9
$WORLDVIEW
 70
     1
  9
$SHADEDGE
 70
     3
  9
$SHADEDIF
 70
    70
  9
$TILEMODE
 70
     1
  9
$MAXACTVP
 70
    16
  9
$PINSBASE
 10
0.0
 20
0.0
 30
0.0
  9
$PLIMCHECK
 70
     0
  9
$PEXTMIN
 10
1.000000E+20
 20
1.000000E+20
 30
1.000000E+20
  9
$PEXTMAX
 10
-1.000000E+20
 20
-1.000000E+20
 30
-1.000000E+20
  9
$PLIMMIN
 10
695.688518
 20
-177.22016
  9
$PLIMMAX
 10
1535.688518
 20
416.77984
  9
$UNITMODE
 70
     0
  9
$VISRETAIN
 70
     0
  9
$PLINEGEN
 70
     1
  9
$PSLTSCALE
 70
     0
  9
$TREEDEPTH
 70
  3020
  9
$DWGCODEPAGE
  3
dos850
  0
ENDSEC
  0
SECTION
  2
TABLES
  0
TABLE
  2
VPORT
 70
     1
  0
VPORT
  2
*ACTIVE
 70
     0
 10
0.0
 20
0.0
 11
1.0
 21
1.0
 12
420.0
 22
297.0
 13
0.0
 23
0.0
 14
1.0
 24
1.0
 15
0.0
 25
0.0
 16
0.0
 26
0.0
 36
1.0
 17
695.688518
 27
-177.22016
 37
0.0
 40
594.0
 41
1.604229
 42
50.0
 43
0.0
 44
0.0
 50
0.0
 51
0.0
 71
     0
 72
   100
 73
     1
 74
     1
 75
     0
 76
     0
 77
     0
 78
     0
  0
ENDTAB
  0
TABLE
  2
LTYPE
 70
     4
  0
LTYPE
  2
CONTINUOUS
 70
    64
  3
Solid line
 72
    65
 73
     0
 40
0.0
  0
LTYPE
  2
DASHED
 70
    64
  3
__ __ __ __ __
 72
    65
 73
     2
 40
6.25
 49
5.0
 49
-1.25
  0
LTYPE
  2
DASHDOT
 70
    64
  3
__ . __ . __ . __ . __
 72
    65
 73
     4
 40
7.5
 49
5.0
 49
-1.25
 49
0.0
 49
-1.25
  0
LTYPE
  2
CENTER
 70
    64
  3
__ . __ . __ . __ . __
 72
    65
 73
     4
 40
7.5
 49
5.0
 49
-1.25
 49
0.0
 49
-1.25
  0
ENDTAB
  0
TABLE
  2
LAYER
 70
    14
  0
LAYER
  2
0
 70
     0
 62
     7
  6
CONTINUOUS
  0
LAYER
  2
LC-INFO-1-2-MM-A3-0
 70
     1
 62
    -1
  6
CONTINUOUS
  0
LAYER
  2
LC-003-003-MTH-0
 70
     0
 62
     2
  6
CONTINUOUS
  0
LAYER
  2
LC-004-003-MTG-0
 70
     0
 62
     2
  6
CONTINUOUS
  0
LAYER
  2
LC-002-003-----0
 70
     0
 62
     2
  6
CONTINUOUS
  0
LAYER
  2
LC-007-005-----0
 70
     0
 62
     2
  6
CONTINUOUS
  0
LAYER
  2
LC-005-002-----0
 70
     0
 62
     1
  6
CONTINUOUS
  0
LAYER
  2
LC-006-006-MLN-0
 70
     0
 62
     2
  6
CENTER
  0
LAYER
  2
LC-008-001-----0
 70
     0
 62
     1
  6
CONTINUOUS
  0
LAYER
  2
LC-009-100-D01-0
 70
     0
 62
     1
  6
CONTINUOUS
  0
LAYER
  2
LC-011-001-RND-0
 70
     0
 62
     1
  6
CONTINUOUS
  0
LAYER
  2
LC-012-100-D03-0
 70
     0
 62
     1
  6
CONTINUOUS
  0
LAYER
  2
LC-013-002-RND-0
 70
     0
 62
     1
  6
CONTINUOUS
  0
LAYER
  2
LC-000
 70
     0
 62
     7
  6
CONTINUOUS
  0
ENDTAB
  0
TABLE
  2
STYLE
 70
     4
  0
STYLE
  2
STANDARD
 70
     0
 40
0.0
 41
1.0
 50
0.0
 71
     0
 42
0.0
  3
txt
  4

  0
STYLE
  2
LC-TXTSTYLE-150-400-0-0-A1
 70
    64
 40
0.0
 41
1.0
 50
15.0
 71
     0
 42
3.5
  3
Arial
  4

  0
STYLE
  2
LC-STANDARD
 70
    64
 40
0.0
 41
1.0
 50
0.0
 71
     0
 42
3.5
  3
MONOTXT
  4

  0
STYLE
  2
LC-TXTSTYLE-0-400-0-0-DIN3
 70
    64
 40
0.0
 41
1.0
 50
0.0
 71
     0
 42
3.5
  3
MONOTXT
  4

  0
ENDTAB
  0
TABLE
  2
VIEW
 70
     0
  0
ENDTAB
  0
TABLE
  2
UCS
 70
     0
  0
ENDTAB
  0
TABLE
  2
APPID
 70
     1
  0
APPID
  2
ACAD
 70
     0
  0
ENDTAB
  0
TABLE
  2
DIMSTYLE
 70
     4
  0
DIMSTYLE
  2
STANDARD
 70
     0
  3

  4

  5

  6

  7

 40
1.0
 41
0.18
 42
0.0625
 43
0.38
 44
0.18
 45
0.0
 46
0.0
 47
0.0
 48
0.0
 71
     0
 72
     0
 73
     1
 74
     1
 75
     0
 76
     0
 77
     0
 78
     0
140
0.18
141
0.09
142
0.0
143
25.4
144
1.0
145
0.0
146
1.0
147
0.09
170
     0
171
     2
172
     0
173
     0
174
     0
175
     0
176
     0
177
     0
178
     0
  0
DIMSTYLE
  2
LC-STANDARD
 70
     0
  3

  4

  5

  6

  7

 40
1.0
 41
3.5
 42
0.0
 43
7.5
 44
1.8
 45
0.0
 46
0.0
 47
0.0
 48
0.0
 71
     0
 72
     0
 73
     0
 74
     0
 75
     0
 76
     0
 77
     1
 78
     8
140
3.5
141
0.0
142
0.0
143
25.4
144
1.0
145
0.0
146
0.71
147
1.5
170
     0
171
     2
172
     1
173
     0
174
     0
175
     0
176
     0
177
     0
178
     3
  0
DIMSTYLE
  2
LC-DIM-L-0140-03-02
 70
     0
  3

  4

  5

  6

  7

 40
2.0
 41
3.5
 42
0.0
 43
7.5
 44
1.8
 45
0.0
 46
0.0
 47
0.0
 48
0.0
 71
     0
 72
     0
 73
     0
 74
     0
 75
     0
 76
     0
 77
     1
 78
     8
140
14.0
141
0.0
142
0.0
143
25.4
144
1.0
145
0.0
146
0.71
147
1.5
170
     0
171
     2
172
     0
173
     0
174
     0
175
     0
176
     2
177
     2
178
     8
  0
DIMSTYLE
  2
LC-DIM-L-0140-02-02
 70
     0
  3

  4

  5

  6

  7

 40
2.0
 41
3.5
 42
0.0
 43
7.5
 44
1.8
 45
0.0
 46
0.0
 47
0.0
 48
0.0
 71
     0
 72
     0
 73
     0
 74
     0
 75
     0
 76
     0
 77
     1
 78
     8
140
14.0
141
0.0
142
0.0
143
25.4
144
1.0
145
0.0
146
0.71
147
1.5
170
     0
171
     2
172
     0
173
     0
174
     0
175
     0
176
     2
177
     2
178
     8
  0
ENDTAB
  0
ENDSEC
  0
SECTION
  2
BLOCKS
  0
BLOCK
  8
0
  5
25
  2
*D0
 70
    65
 10
0.0
 20
0.0
 30
0.0
  3
*D0
  0
LINE
  8
LC-003-003-MTH-0
  6
CONTINUOUS
  5
27
 10
919.76971
 20
110.913667
 30
0.0
 11
919.76971
 21
-16.8
 31
0.0
  0
LINE
  8
LC-003-003-MTH-0
  6
CONTINUOUS
  5
28
 10
1223.26971
 20
150.190382
 30
0.0
 11
1223.26971
 21
-16.8
 31
0.0
  0
LINE
  8
LC-004-003-MTG-0
  6
CONTINUOUS
  5
2A
 10
919.76971
 20
0.0
 30
0.0
 11
1223.26971
 21
0.0
 31
0.0
  0
LINE
  8
LC-002-003-----0
  6
CONTINUOUS
  5
2C
 10
947.530166
 20
3.654733
 30
0.0
 11
919.76971
 21
0.0
 31
0.0
  0
LINE
  8
LC-002-003-----0
  6
CONTINUOUS
  5
2D
 10
919.76971
 20
0.0
 30
0.0
 11
947.530166
 21
-3.654733
 31
0.0
  0
LINE
  8
LC-002-003-----0
  6
CONTINUOUS
  5
2E
 10
947.530166
 20
-3.654733
 30
0.0
 11
947.530166
 21
3.654733
 31
0.0
  0
LINE
  8
LC-002-003-----0
  6
CONTINUOUS
  5
2F
 10
947.592447
 20
2.704503
 30
0.0
 11
927.04971
 21
0.0
 31
0.0
  0
LINE
  8
LC-002-003-----0
  6
CONTINUOUS
  5
30
 10
927.04971
 20
0.0
 30
0.0
 11
947.592447
 21
-2.704503
 31
0.0
  0
LINE
  8
LC-002-003-----0
  6
CONTINUOUS
  5
31
 10
947.654728
 20
1.754272
 30
0.0
 11
934.32971
 21
0.0
 31
0.0
  0
LINE
  8
LC-002-003-----0
  6
CONTINUOUS
  5
32
 10
934.32971
 20
0.0
 30
0.0
 11
947.654728
 21
-1.754272
 31
0.0
  0
LINE
  8
LC-002-003-----0
  6
CONTINUOUS
  5
33
 10
947.71701
 20
0.804041
 30
0.0
 11
941.60971
 21
0.0
 31
0.0
  0
LINE
  8
LC-002-003-----0
  6
CONTINUOUS
  5
34
 10
941.60971
 20
0.0
 30
0.0
 11
947.71701
 21
-0.804041
 31
0.0
  0
LINE
  8
LC-002-003-----0
  6
CONTINUOUS
  5
35
 10
1195.509253
 20
-3.654733
 30
0.0
 11
1223.26971
 21
0.0
 31
0.0
  0
LINE
  8
LC-002-003-----0
  6
CONTINUOUS
  5
36
 10
1223.26971
 20
0.0
 30
0.0
 11
1195.509253
 21
3.654733
 31
0.0
  0
LINE
  8
LC-002-003-----0
  6
CONTINUOUS
  5
37
 10
1195.509253
 20
3.654733
 30
0.0
 11
1195.509253
 21
-3.654733
 31
0.0
  0
LINE
  8
LC-002-003-----0
  6
CONTINUOUS
  5
38
 10
1195.446972
 20
-2.704503
 30
0.0
 11
1215.98971
 21
0.0
 31
0.0
  0
LINE
  8
LC-002-003-----0
  6
CONTINUOUS
  5
39
 10
1215.98971
 20
0.0
 30
0.0
 11
1195.446972
 21
2.704503
 31
0.0
  0
LINE
  8
LC-002-003-----0
  6
CONTINUOUS
  5
3A
 10
1195.384691
 20
-1.754272
 30
0.0
 11
1208.70971
 21
0.0
 31
0.0
  0
LINE
  8
LC-002-003-----0
  6
CONTINUOUS
  5
3B
 10
1208.70971
 20
0.0
 30
0.0
 11
1195.384691
 21
1.754272
 31
0.0
  0
LINE
  8
LC-002-003-----0
  6
CONTINUOUS
  5
3C
 10
1195.322409
 20
-0.804041
 30
0.0
 11
1201.42971
 21
0.0
 31
0.0
  0
LINE
  8
LC-002-003-----0
  6
CONTINUOUS
  5
3D
 10
1201.42971
 20
0.0
 30
0.0
 11
1195.322409
 21
0.804041
 31
0.0
  0
TEXT
  8
LC-002-003-----0
  6
CONTINUOUS
 62
     8
  5
3E
 10
1049.464569
 20
7.827554
 30
0.0
 40
28.0
  1
302
 41
0.9
 51
15.0
  7
LC-TXTSTYLE-150-400-0-0-A0
 72
     1
 11
1075.867869
 21
7.827554
 31
0.0
  0
ENDBLK
  8
0
  5
3F
  0
BLOCK
  8
0
  5
41
  2
*X1
 70
    65
 10
985.691329
 20
39.064404
 30
0.0
  3
*X1
  0
LINE
  8
LC-007-005-----0
  6
CONTINUOUS
  5
43
 10
1215.360735
 20
41.563478
 30
0.0
 11
1218.040329
 21
44.243072
 31
0.0
  0
LINE
  8
LC-007-005-----0
  6
CONTINUOUS
  5
44
 10
1201.218687
 20
41.563565
 30
0.0
 11
1203.89828
 21
44.243159
 31
0.0
  0
LINE
  8
LC-007-005-----0
  6
CONTINUOUS
  5
45
 10
1187.076638
 20
41.563653
 30
0.0
 11
1189.75623
 21
44.243245
 31
0.0
  0
LINE
  8
LC-007-005-----0
  6
CONTINUOUS
  5
46
 10
1172.93459
 20
41.56374
 30
0.0
 11
1175.614181
 21
44.243331
 31
0.0
  0
LINE
  8
LC-007-005-----0
  6
CONTINUOUS
  5
47
 10
1158.792542
 20
41.563827
 30
0.0
 11
1161.472131
 21
44.243417
 31
0.0
  0
LINE
  8
LC-007-005-----0
  6
CONTINUOUS
  5
48
 10
1143.1505
 20
40.063922
 30
0.0
 11
1147.151228
 21
44.064649
 31
0.0
  0
LINE
  8
LC-007-005-----0
  6
CONTINUOUS
  5
49
 10
1129.008444
 20
40.064001
 30
0.0
 11
1133.009092
 21
44.064649
 31
0.0
  0
ENDBLK
  8
0
  5
4A
  0
BLOCK
  8
0
  5
4C
  2
*D2
 70
    65
 10
0.0
 20
0.0
 30
0.0
  3
*D2
  0
LINE
  8
LC-003-003-MTH-0
  6
CONTINUOUS
  5
4D
 10
938.769321
 20
55.713664
 30
0.0
 11
884.8
 21
55.713664
 31
0.0
  0
LINE
  8
LC-003-003-MTH-0
  6
CONTINUOUS
  5
4E
 10
938.769316
 20
166.113672
 30
0.0
 11
884.8
 21
166.113672
 31
0.0
  0
LINE
  8
LC-004-003-MTG-0
  6
CONTINUOUS
  5
4F
 10
901.6
 20
55.713664
 30
0.0
 11
901.6
 21
166.113672
 31
0.0
  0
LINE
  8
LC-002-003-----0
  6
CONTINUOUS
  5
50
 10
897.945267
 20
83.47412
 30
0.0
 11
901.6
 21
55.713664
 31
0.0
  0
LINE
  8
LC-002-003-----0
  6
CONTINUOUS
  5
51
 10
901.6
 20
55.713664
 30
0.0
 11
905.254733
 21
83.47412
 31
0.0
  0
LINE
  8
LC-002-003-----0
  6
CONTINUOUS
  5
52
 10
905.254733
 20
83.47412
 30
0.0
 11
897.945267
 21
83.47412
 31
0.0
  0
LINE
  8
LC-002-003-----0
  6
CONTINUOUS
  5
53
 10
898.895497
 20
83.536402
 30
0.0
 11
901.6
 21
62.993664
 31
0.0
  0
LINE
  8
LC-002-003-----0
  6
CONTINUOUS
  5
54
 10
901.6
 20
62.993664
 30
0.0
 11
904.304503
 21
83.536402
 31
0.0
  0
LINE
  8
LC-002-003-----0
  6
CONTINUOUS
  5
55
 10
899.845728
 20
83.598683
 30
0.0
 11
901.6
 21
70.273664
 31
0.0
  0
LINE
  8
LC-002-003-----0
  6
CONTINUOUS
  5
56
 10
901.6
 20
70.273664
 30
0.0
 11
903.354272
 21
83.598683
 31
0.0
  0
LINE
  8
LC-002-003-----0
  6
CONTINUOUS
  5
57
 10
900.795959
 20
83.660965
 30
0.0
 11
901.6
 21
77.553664
 31
0.0
  0
LINE
  8
LC-002-003-----0
  6
CONTINUOUS
  5
58
 10
901.6
 20
77.553664
 30
0.0
 11
902.404041
 21
83.660965
 31
0.0
  0
LINE
  8
LC-002-003-----0
  6
CONTINUOUS
  5
59
 10
905.254733
 20
138.353216
 30
0.0
 11
901.6
 21
166.113672
 31
0.0
  0
LINE
  8
LC-002-003-----0
  6
CONTINUOUS
  5
5A
 10
901.6
 20
166.113672
 30
0.0
 11
897.945267
 21
138.353216
 31
0.0
  0
LINE
  8
LC-002-003-----0
  6
CONTINUOUS
  5
5B
 10
897.945267
 20
138.353216
 30
0.0
 11
905.254733
 21
138.353216
 31
0.0
  0
LINE
  8
LC-002-003-----0
  6
CONTINUOUS
  5
5C
 10
904.304503
 20
138.290935
 30
0.0
 11
901.6
 21
158.833672
 31
0.0
  0
LINE
  8
LC-002-003-----0
  6
CONTINUOUS
  5
5D
 10
901.6
 20
158.833672
 30
0.0
 11
898.895497
 21
138.290935
 31
0.0
  0
LINE
  8
LC-002-003-----0
  6
CONTINUOUS
  5
5E
 10
903.354272
 20
138.228653
 30
0.0
 11
901.6
 21
151.553672
 31
0.0
  0
LINE
  8
LC-002-003-----0
  6
CONTINUOUS
  5
5F
 10
901.6
 20
151.553672
 30
0.0
 11
899.845728
 21
138.228653
 31
0.0
  0
LINE
  8
LC-002-003-----0
  6
CONTINUOUS
  5
60
 10
902.404041
 20
138.166372
 30
0.0
 11
901.6
 21
144.273672
 31
0.0
  0
LINE
  8
LC-002-003-----0
  6
CONTINUOUS
  5
61
 10
901.6
 20
144.273672
 30
0.0
 11
900.795959
 21
138.166372
 31
0.0
  0
TEXT
  8
LC-002-003-----0
  6
CONTINUOUS
 62
     8
  5
62
 10
893.772446
 20
71.523028
 30
0.0
 40
28.0
  1
DN100
 50
90.0
 41
0.8
 51
15.0
  7
LC-TXTSTYLE-150-400-0-0-A0
 72
     1
 11
893.772446
 21
115.261828
 31
0.0
  0
ENDBLK
  8
0
  5
63
  0
BLOCK
  8
0
  5
65
  2
*X3
 70
    65
 10
919.76971
 20
35.064404
 30
0.0
  3
*X3
  0
LINE
  8
LC-007-005-----0
  6
CONTINUOUS
  5
66
 10
1222.013082
 20
42.558971
 30
0.0
 11
1223.26971
 21
43.815599
 31
0.0
  0
LINE
  8
LC-007-005-----0
  6
CONTINUOUS
  5
67
 10
1218.189145
 20
41.563461
 30
0.0
 11
1220.868739
 21
44.243055
 31
0.0
  0
LINE
  8
LC-007-005-----0
  6
CONTINUOUS
  5
68
 10
1215.360735
 20
41.563478
 30
0.0
 11
1218.040329
 21
44.243072
 31
0.0
  0
LINE
  8
LC-007-005-----0
  6
CONTINUOUS
  5
69
 10
1212.532325
 20
41.563496
 30
0.0
 11
1215.211919
 21
44.24309
 31
0.0
  0
LINE
  8
LC-007-005-----0
  6
CONTINUOUS
  5
6A
 10
1209.703916
 20
41.563513
 30
0.0
 11
1212.383509
 21
44.243107
 31
0.0
  0
LINE
  8
LC-007-005-----0
  6
CONTINUOUS
  5
6B
 10
1206.875506
 20
41.563531
 30
0.0
 11
1209.5551
 21
44.243124
 31
0.0
  0
LINE
  8
LC-007-005-----0
  6
CONTINUOUS
  5
6C
 10
1204.047096
 20
41.563548
 30
0.0
 11
1206.72669
 21
44.243141
 31
0.0
  0
LINE
  8
LC-007-005-----0
  6
CONTINUOUS
  5
6D
 10
1201.218687
 20
41.563565
 30
0.0
 11
1203.89828
 21
44.243159
 31
0.0
  0
LINE
  8
LC-007-005-----0
  6
CONTINUOUS
  5
6E
 10
1198.390277
 20
41.563583
 30
0.0
 11
1201.06987
 21
44.243176
 31
0.0
  0
LINE
  8
LC-007-005-----0
  6
CONTINUOUS
  5
6F
 10
1195.561867
 20
41.5636
 30
0.0
 11
1198.24146
 21
44.243193
 31
0.0
  0
LINE
  8
LC-007-005-----0
  6
CONTINUOUS
  5
70
 10
1192.733458
 20
41.563618
 30
0.0
 11
1195.41305
 21
44.24321
 31
0.0
  0
LINE
  8
LC-007-005-----0
  6
CONTINUOUS
  5
71
 10
1189.905048
 20
41.563635
 30
0.0
 11
1192.58464
 21
44.243227
 31
0.0
  0
LINE
  8
LC-007-005-----0
  6
CONTINUOUS
  5
72
 10
1187.076638
 20
41.563653
 30
0.0
 11
1189.75623
 21
44.243245
 31
0.0
  0
LINE
  8
LC-007-005-----0
  6
CONTINUOUS
  5
73
 10
1184.248229
 20
41.56367
 30
0.0
 11
1186.92782
 21
44.243262
 31
0.0
  0
LINE
  8
LC-007-005-----0
  6
CONTINUOUS
  5
74
 10
1181.419819
 20
41.563688
 30
0.0
 11
1184.09941
 21
44.243279
 31
0.0
  0
LINE
  8
LC-007-005-----0
  6
CONTINUOUS
  5
75
 10
1178.591409
 20
41.563705
 30
0.0
 11
1181.271
 21
44.243296
 31
0.0
  0
LINE
  8
LC-007-005-----0
  6
CONTINUOUS
  5
76
 10
1175.763
 20
41.563723
 30
0.0
 11
1178.44259
 21
44.243313
 31
0.0
  0
LINE
  8
LC-007-005-----0
  6
CONTINUOUS
  5
77
 10
1172.93459
 20
41.56374
 30
0.0
 11
1175.614181
 21
44.243331
 31
0.0
  0
LINE
  8
LC-007-005-----0
  6
CONTINUOUS
  5
78
 10
1170.10618
 20
41.563758
 30
0.0
 11
1172.785771
 21
44.243348
 31
0.0
  0
LINE
  8
LC-007-005-----0
  6
CONTINUOUS
  5
79
 10
1167.277771
 20
41.563775
 30
0.0
 11
1169.957361
 21
44.243365
 31
0.0
  0
LINE
  8
LC-007-005-----0
  6
CONTINUOUS
  5
7A
 10
1164.449361
 20
41.563793
 30
0.0
 11
1167.128951
 21
44.243382
 31
0.0
  0
LINE
  8
LC-007-005-----0
  6
CONTINUOUS
  5
7B
 10
1161.620951
 20
41.56381
 30
0.0
 11
1164.300541
 21
44.2434
 31
0.0
  0
LINE
  8
LC-007-005-----0
  6
CONTINUOUS
  5
7C
 10
1158.792542
 20
41.563827
 30
0.0
 11
1161.472131
 21
44.243417
 31
0.0
  0
LINE
  8
LC-007-005-----0
  6
CONTINUOUS
  5
7D
 10
1154.464146
 20
40.063859
 30
0.0
 11
1158.643721
 21
44.243434
 31
0.0
  0
LINE
  8
LC-007-005-----0
  6
CONTINUOUS
  5
7E
 10
1151.635735
 20
40.063875
 30
0.0
 11
1155.815311
 21
44.243451
 31
0.0
  0
LINE
  8
LC-007-005-----0
  6
CONTINUOUS
  5
7F
 10
1148.807323
 20
40.06389
 30
0.0
 11
1152.986901
 21
44.243468
 31
0.0
  0
LINE
  8
LC-007-005-----0
  6
CONTINUOUS
  5
80
 10
1145.978912
 20
40.063906
 30
0.0
 11
1149.979655
 21
44.064649
 31
0.0
  0
LINE
  8
LC-007-005-----0
  6
CONTINUOUS
  5
81
 10
1143.1505
 20
40.063922
 30
0.0
 11
1147.151228
 21
44.064649
 31
0.0
  0
LINE
  8
LC-007-005-----0
  6
CONTINUOUS
  5
82
 10
1140.322089
 20
40.063938
 30
0.0
 11
1144.322801
 21
44.064649
 31
0.0
  0
LINE
  8
LC-007-005-----0
  6
CONTINUOUS
  5
83
 10
1137.493678
 20
40.063953
 30
0.0
 11
1141.494373
 21
44.064649
 31
0.0
  0
LINE
  8
LC-007-005-----0
  6
CONTINUOUS
  5
84
 10
1134.665266
 20
40.063969
 30
0.0
 11
1138.665946
 21
44.064649
 31
0.0
  0
LINE
  8
LC-007-005-----0
  6
CONTINUOUS
  5
85
 10
1131.836855
 20
40.063985
 30
0.0
 11
1135.837519
 21
44.064649
 31
0.0
  0
LINE
  8
LC-007-005-----0
  6
CONTINUOUS
  5
86
 10
1129.008444
 20
40.064001
 30
0.0
 11
1133.009092
 21
44.064649
 31
0.0
  0
LINE
  8
LC-007-005-----0
  6
CONTINUOUS
  5
87
 10
1126.180032
 20
40.064016
 30
0.0
 11
1130.180665
 21
44.064649
 31
0.0
  0
LINE
  8
LC-007-005-----0
  6
CONTINUOUS
  5
88
 10
1123.351621
 20
40.064032
 30
0.0
 11
1127.352238
 21
44.064649
 31
0.0
  0
LINE
  8
LC-007-005-----0
  6
CONTINUOUS
  5
89
 10
1120.52321
 20
40.064048
 30
0.0
 11
1124.523811
 21
44.064649
 31
0.0
  0
LINE
  8
LC-007-005-----0
  6
CONTINUOUS
  5
8A
 10
1117.694798
 20
40.064064
 30
0.0
 11
1121.695384
 21
44.064649
 31
0.0
  0
LINE
  8
LC-007-005-----0
  6
CONTINUOUS
  5
8B
 10
1114.866387
 20
40.064079
 30
0.0
 11
1118.866956
 21
44.064649
 31
0.0
  0
LINE
  8
LC-007-005-----0
  6
CONTINUOUS
  5
8C
 10
1112.037976
 20
40.064095
 30
0.0
 11
1116.038529
 21
44.064649
 31
0.0
  0
LINE
  8
LC-007-005-----0
  6
CONTINUOUS
  5
8D
 10
1109.209564
 20
40.064111
 30
0.0
 11
1113.210102
 21
44.064649
 31
0.0
  0
LINE
  8
LC-007-005-----0
  6
CONTINUOUS
  5
8E
 10
1106.381153
 20
40.064127
 30
0.0
 11
1110.381675
 21
44.064649
 31
0.0
  0
LINE
  8
LC-007-005-----0
  6
CONTINUOUS
  5
8F
 10
1103.552741
 20
40.064143
 30
0.0
 11
1107.553248
 21
44.064649
 31
0.0
  0
LINE
  8
LC-007-005-----0
  6
CONTINUOUS
  5
90
 10
1100.72433
 20
40.064158
 30
0.0
 11
1104.724821
 21
44.064649
 31
0.0
  0
LINE
  8
LC-007-005-----0
  6
CONTINUOUS
  5
91
 10
1097.895919
 20
40.064174
 30
0.0
 11
1101.896394
 21
44.064649
 31
0.0
  0
LINE
  8
LC-007-005-----0
  6
CONTINUOUS
  5
92
 10
1095.067507
 20
40.06419
 30
0.0
 11
1099.067967
 21
44.064649
 31
0.0
  0
LINE
  8
LC-007-005-----0
  6
CONTINUOUS
  5
93
 10
1092.239096
 20
40.064206
 30
0.0
 11
1096.239539
 21
44.064649
 31
0.0
  0
LINE
  8
LC-007-005-----0
  6
CONTINUOUS
  5
94
 10
1089.410685
 20
40.064221
 30
0.0
 11
1093.411112
 21
44.064649
 31
0.0
  0
LINE
  8
LC-007-005-----0
  6
CONTINUOUS
  5
95
 10
1086.582273
 20
40.064237
 30
0.0
 11
1090.582685
 21
44.064649
 31
0.0
  0
LINE
  8
LC-007-005-----0
  6
CONTINUOUS
  5
96
 10
1083.753862
 20
40.064253
 30
0.0
 11
1087.754258
 21
44.064649
 31
0.0
  0
LINE
  8
LC-007-005-----0
  6
CONTINUOUS
  5
97
 10
1080.925451
 20
40.064269
 30
0.0
 11
1084.925831
 21
44.064649
 31
0.0
  0
LINE
  8
LC-007-005-----0
  6
CONTINUOUS
  5
98
 10
1078.097039
 20
40.064284
 30
0.0
 11
1082.097404
 21
44.064649
 31
0.0
  0
LINE
  8
LC-007-005-----0
  6
CONTINUOUS
  5
99
 10
1075.268628
 20
40.0643
 30
0.0
 11
1079.268977
 21
44.064649
 31
0.0
  0
LINE
  8
LC-007-005-----0
  6
CONTINUOUS
  5
9A
 10
1072.440217
 20
40.064316
 30
0.0
 11
1076.44055
 21
44.064649
 31
0.0
  0
LINE
  8
LC-007-005-----0
  6
CONTINUOUS
  5
9B
 10
1069.611805
 20
40.064332
 30
0.0
 11
1073.612122
 21
44.064649
 31
0.0
  0
LINE
  8
LC-007-005-----0
  6
CONTINUOUS
  5
9C
 10
1066.783394
 20
40.064348
 30
0.0
 11
1070.783695
 21
44.064649
 31
0.0
  0
LINE
  8
LC-007-005-----0
  6
CONTINUOUS
  5
9D
 10
1063.954982
 20
40.064363
 30
0.0
 11
1067.955268
 21
44.064649
 31
0.0
  0
LINE
  8
LC-007-005-----0
  6
CONTINUOUS
  5
9E
 10
1061.126571
 20
40.064379
 30
0.0
 11
1065.126841
 21
44.064649
 31
0.0
  0
LINE
  8
LC-007-005-----0
  6
CONTINUOUS
  5
9F
 10
1058.29816
 20
40.064395
 30
0.0
 11
1062.298414
 21
44.064649
 31
0.0
  0
LINE
  8
LC-007-005-----0
  6
CONTINUOUS
  5
A0
 10
1055.469748
 20
40.064411
 30
0.0
 11
1059.469987
 21
44.064649
 31
0.0
  0
LINE
  8
LC-007-005-----0
  6
CONTINUOUS
  5
A1
 10
1052.641337
 20
40.064426
 30
0.0
 11
1056.64156
 21
44.064649
 31
0.0
  0
LINE
  8
LC-007-005-----0
  6
CONTINUOUS
  5
A2
 10
1049.812926
 20
40.064442
 30
0.0
 11
1053.813133
 21
44.064649
 31
0.0
  0
LINE
  8
LC-007-005-----0
  6
CONTINUOUS
  5
A3
 10
1046.984514
 20
40.064458
 30
0.0
 11
1050.984705
 21
44.064649
 31
0.0
  0
LINE
  8
LC-007-005-----0
  6
CONTINUOUS
  5
A4
 10
1044.156103
 20
40.064474
 30
0.0
 11
1048.156278
 21
44.064649
 31
0.0
  0
LINE
  8
LC-007-005-----0
  6
CONTINUOUS
  5
A5
 10
1041.327692
 20
40.064489
 30
0.0
 11
1045.327851
 21
44.064649
 31
0.0
  0
LINE
  8
LC-007-005-----0
  6
CONTINUOUS
  5
A6
 10
1038.49928
 20
40.064505
 30
0.0
 11
1042.499424
 21
44.064649
 31
0.0
  0
LINE
  8
LC-007-005-----0
  6
CONTINUOUS
  5
A7
 10
1035.670869
 20
40.064521
 30
0.0
 11
1039.670997
 21
44.064649
 31
0.0
  0
LINE
  8
LC-007-005-----0
  6
CONTINUOUS
  5
A8
 10
1032.842458
 20
40.064537
 30
0.0
 11
1036.84257
 21
44.064649
 31
0.0
  0
LINE
  8
LC-007-005-----0
  6
CONTINUOUS
  5
A9
 10
1030.014046
 20
40.064553
 30
0.0
 11
1034.014143
 21
44.064649
 31
0.0
  0
LINE
  8
LC-007-005-----0
  6
CONTINUOUS
  5
AA
 10
1027.185635
 20
40.064568
 30
0.0
 11
1031.185716
 21
44.064649
 31
0.0
  0
LINE
  8
LC-007-005-----0
  6
CONTINUOUS
  5
AB
 10
1024.357223
 20
40.064584
 30
0.0
 11
1028.357288
 21
44.064649
 31
0.0
  0
LINE
  8
LC-007-005-----0
  6
CONTINUOUS
  5
AC
 10
1021.528812
 20
40.0646
 30
0.0
 11
1025.528861
 21
44.064649
 31
0.0
  0
LINE
  8
LC-007-005-----0
  6
CONTINUOUS
  5
AD
 10
1018.700401
 20
40.064616
 30
0.0
 11
1022.700434
 21
44.064649
 31
0.0
  0
LINE
  8
LC-007-005-----0
  6
CONTINUOUS
  5
AE
 10
1011.055352
 20
35.247994
 30
0.0
 11
1012.025504
 21
36.218146
 31
0.0
  0
LINE
  8
LC-007-005-----0
  6
CONTINUOUS
  5
AF
 10
1015.871989
 20
40.064631
 30
0.0
 11
1019.872007
 21
44.064649
 31
0.0
  0
LINE
  8
LC-007-005-----0
  6
CONTINUOUS
  5
B0
 10
1008.043335
 20
35.064404
 30
0.0
 11
1012.209094
 21
39.230163
 31
0.0
  0
LINE
  8
LC-007-005-----0
  6
CONTINUOUS
  5
B1
 10
1013.043578
 20
40.064647
 30
0.0
 11
1017.04358
 21
44.064649
 31
0.0
  0
LINE
  8
LC-007-005-----0
  6
CONTINUOUS
  5
B2
 10
1005.214908
 20
35.064404
 30
0.0
 11
1014.215153
 21
44.064649
 31
0.0
  0
LINE
  8
LC-007-005-----0
  6
CONTINUOUS
  5
B3
 10
1002.386481
 20
35.064404
 30
0.0
 11
1006.386481
 21
39.064404
 31
0.0
  0
LINE
  8
LC-007-005-----0
  6
CONTINUOUS
  5
B4
 10
1008.209095
 20
40.887018
 30
0.0
 11
1011.386726
 21
44.064649
 31
0.0
  0
LINE
  8
LC-007-005-----0
  6
CONTINUOUS
  5
B5
 10
999.558054
 20
35.064404
 30
0.0
 11
1003.558054
 21
39.064404
 31
0.0
  0
LINE
  8
LC-007-005-----0
  6
CONTINUOUS
  5
B6
 10
996.729627
 20
35.064405
 30
0.0
 11
1000.729626
 21
39.064404
 31
0.0
  0
LINE
  8
LC-007-005-----0
  6
CONTINUOUS
  5
B7
 10
993.9012
 20
35.064405
 30
0.0
 11
997.901199
 21
39.064404
 31
0.0
  0
LINE
  8
LC-007-005-----0
  6
CONTINUOUS
  5
B8
 10
991.072773
 20
35.064405
 30
0.0
 11
995.072772
 21
39.064404
 31
0.0
  0
LINE
  8
LC-007-005-----0
  6
CONTINUOUS
  5
B9
 10
988.244346
 20
35.064405
 30
0.0
 11
992.244345
 21
39.064404
 31
0.0
  0
LINE
  8
LC-007-005-----0
  6
CONTINUOUS
  5
BA
 10
985.415919
 20
35.064405
 30
0.0
 11
989.415918
 21
39.064404
 31
0.0
  0
LINE
  8
LC-007-005-----0
  6
CONTINUOUS
  5
BB
 10
982.748253
 20
35.225167
 30
0.0
 11
986.592387
 21
39.069301
 31
0.0
  0
LINE
  8
LC-007-005-----0
  6
CONTINUOUS
  5
BC
 10
981.175837
 20
36.481178
 30
0.0
 11
985.675085
 21
40.980426
 31
0.0
  0
LINE
  8
LC-007-005-----0
  6
CONTINUOUS
  5
BD
 10
980.717394
 20
38.851162
 30
0.0
 11
985.626562
 21
43.76033
 31
0.0
  0
LINE
  8
LC-007-005-----0
  6
CONTINUOUS
  5
BE
 10
980.668871
 20
41.631065
 30
0.0
 11
985.578039
 21
46.540233
 31
0.0
  0
LINE
  8
LC-007-005-----0
  6
CONTINUOUS
  5
BF
 10
980.620347
 20
44.410969
 30
0.0
 11
985.529515
 21
49.320137
 31
0.0
  0
LINE
  8
LC-007-005-----0
  6
CONTINUOUS
  5
C0
 10
980.571824
 20
47.190873
 30
0.0
 11
985.480992
 21
52.100041
 31
0.0
  0
LINE
  8
LC-007-005-----0
  6
CONTINUOUS
  5
C1
 10
980.5233
 20
49.970776
 30
0.0
 11
985.432468
 21
54.879944
 31
0.0
  0
LINE
  8
LC-007-005-----0
  6
CONTINUOUS
  5
C2
 10
979.19132
 20
51.467223
 30
0.0
 11
985.383945
 21
57.659848
 31
0.0
  0
LINE
  8
LC-007-005-----0
  6
CONTINUOUS
  5
C3
 10
976.362893
 20
51.467223
 30
0.0
 11
983.708804
 21
58.813134
 31
0.0
  0
LINE
  8
LC-007-005-----0
  6
CONTINUOUS
  5
C4
 10
973.534466
 20
51.467223
 30
0.0
 11
978.777823
 21
56.71058
 31
0.0
  0
LINE
  8
LC-007-005-----0
  6
CONTINUOUS
  5
C5
 10
970.706038
 20
51.467223
 30
0.0
 11
974.952486
 21
55.71367
 31
0.0
  0
LINE
  8
LC-007-005-----0
  6
CONTINUOUS
  5
C6
 10
967.877611
 20
51.467223
 30
0.0
 11
972.124058
 21
55.71367
 31
0.0
  0
LINE
  8
LC-007-005-----0
  6
CONTINUOUS
  5
C7
 10
962.262302
 20
48.68034
 30
0.0
 11
964.532976
 21
50.951014
 31
0.0
  0
LINE
  8
LC-007-005-----0
  6
CONTINUOUS
  5
C8
 10
965.049184
 20
51.467223
 30
0.0
 11
969.295631
 21
55.71367
 31
0.0
  0
LINE
  8
LC-007-005-----0
  6
CONTINUOUS
  5
C9
 10
961.532976
 20
50.779441
 30
0.0
 11
966.467204
 21
55.71367
 31
0.0
  0
LINE
  8
LC-007-005-----0
  6
CONTINUOUS
  5
CA
 10
959.39233
 20
51.467223
 30
0.0
 11
963.638776
 21
55.713669
 31
0.0
  0
LINE
  8
LC-007-005-----0
  6
CONTINUOUS
  5
CB
 10
956.563902
 20
51.467223
 30
0.0
 11
960.810349
 21
55.713669
 31
0.0
  0
LINE
  8
LC-007-005-----0
  6
CONTINUOUS
  5
CC
 10
953.735475
 20
51.467222
 30
0.0
 11
957.981922
 21
55.713669
 31
0.0
  0
LINE
  8
LC-007-005-----0
  6
CONTINUOUS
  5
CD
 10
950.907048
 20
51.467222
 30
0.0
 11
955.153495
 21
55.713669
 31
0.0
  0
LINE
  8
LC-007-005-----0
  6
CONTINUOUS
  5
CE
 10
948.078621
 20
51.467222
 30
0.0
 11
952.325067
 21
55.713669
 31
0.0
  0
LINE
  8
LC-007-005-----0
  6
CONTINUOUS
  5
CF
 10
939.284213
 20
45.501241
 30
0.0
 11
941.1969
 21
47.413928
 31
0.0
  0
LINE
  8
LC-007-005-----0
  6
CONTINUOUS
  5
D0
 10
945.250194
 20
51.467222
 30
0.0
 11
949.49664
 21
55.713669
 31
0.0
  0
LINE
  8
LC-007-005-----0
  6
CONTINUOUS
  5
D1
 10
936.596635
 20
45.642091
 30
0.0
 11
946.668213
 21
55.713669
 31
0.0
  0
LINE
  8
LC-007-005-----0
  6
CONTINUOUS
  5
D2
 10
933.909058
 20
45.782941
 30
0.0
 11
943.839786
 21
55.713668
 31
0.0
  0
LINE
  8
LC-007-005-----0
  6
CONTINUOUS
  5
D3
 10
931.22148
 20
45.92379
 30
0.0
 11
935.09274
 21
49.79505
 31
0.0
  0
LINE
  8
LC-007-005-----0
  6
CONTINUOUS
  5
D4
 10
938.769316
 20
53.471625
 30
0.0
 11
941.011358
 21
55.713668
 31
0.0
  0
LINE
  8
LC-007-005-----0
  6
CONTINUOUS
  5
D5
 10
928.533903
 20
46.06464
 30
0.0
 11
932.405162
 21
49.935899
 31
0.0
  0
LINE
  8
LC-007-005-----0
  6
CONTINUOUS
  5
D6
 10
926.176401
 20
46.535566
 30
0.0
 11
929.717584
 21
50.076748
 31
0.0
  0
LINE
  8
LC-007-005-----0
  6
CONTINUOUS
  5
D7
 10
924.545196
 20
47.732787
 30
0.0
 11
928.144144
 21
51.331736
 31
0.0
  0
LINE
  8
LC-007-005-----0
  6
CONTINUOUS
  5
D8
 10
923.511118
 20
49.527137
 30
0.0
 11
926.729931
 21
52.745949
 31
0.0
  0
LINE
  8
LC-007-005-----0
  6
CONTINUOUS
  5
D9
 10
922.648242
 20
51.492688
 30
0.0
 11
925.315717
 21
54.160163
 31
0.0
  0
LINE
  8
LC-007-005-----0
  6
CONTINUOUS
  5
DA
 10
920.014233
 20
51.687106
 30
0.0
 11
922.876758
 21
54.549631
 31
0.0
  0
LINE
  8
LC-007-005-----0
  6
CONTINUOUS
  5
DB
 10
919.76971
 20
54.271009
 30
0.0
 11
920.189181
 21
54.690481
 31
0.0
  0
ENDBLK
  8
0
  5
DC
  0
BLOCK
  8
0
  5
DE
  2
*X4
 70
    65
 10
1153.465101
 20
148.843041
 30
0.0
  3
*X4
  0
LINE
  8
LC-007-005-----0
  6
CONTINUOUS
  5
DF
 10
1220.816921
 20
148.843041
 30
0.0
 11
1222.397871
 21
150.423991
 31
0.0
  0
LINE
  8
LC-007-005-----0
  6
CONTINUOUS
  5
E0
 10
1217.988494
 20
148.843041
 30
0.0
 11
1220.167161
 21
151.021708
 31
0.0
  0
LINE
  8
LC-007-005-----0
  6
CONTINUOUS
  5
E1
 10
1215.160067
 20
148.843041
 30
0.0
 11
1217.83925
 21
151.522224
 31
0.0
  0
LINE
  8
LC-007-005-----0
  6
CONTINUOUS
  5
E2
 10
1212.33164
 20
148.843041
 30
0.0
 11
1215.010823
 21
151.522224
 31
0.0
  0
LINE
  8
LC-007-005-----0
  6
CONTINUOUS
  5
E3
 10
1209.503212
 20
148.843041
 30
0.0
 11
1212.182396
 21
151.522224
 31
0.0
  0
LINE
  8
LC-007-005-----0
  6
CONTINUOUS
  5
E4
 10
1206.674785
 20
148.843041
 30
0.0
 11
1209.353969
 21
151.522224
 31
0.0
  0
LINE
  8
LC-007-005-----0
  6
CONTINUOUS
  5
E5
 10
1203.846358
 20
148.843041
 30
0.0
 11
1206.525542
 21
151.522224
 31
0.0
  0
LINE
  8
LC-007-005-----0
  6
CONTINUOUS
  5
E6
 10
1201.017931
 20
148.843041
 30
0.0
 11
1203.697114
 21
151.522224
 31
0.0
  0
LINE
  8
LC-007-005-----0
  6
CONTINUOUS
  5
E7
 10
1198.189504
 20
148.843041
 30
0.0
 11
1200.868687
 21
151.522224
 31
0.0
  0
LINE
  8
LC-007-005-----0
  6
CONTINUOUS
  5
E8
 10
1195.361077
 20
148.843041
 30
0.0
 11
1198.04026
 21
151.522224
 31
0.0
  0
LINE
  8
LC-007-005-----0
  6
CONTINUOUS
  5
E9
 10
1192.53265
 20
148.843041
 30
0.0
 11
1195.211833
 21
151.522224
 31
0.0
  0
LINE
  8
LC-007-005-----0
  6
CONTINUOUS
  5
EA
 10
1189.704223
 20
148.843041
 30
0.0
 11
1192.383406
 21
151.522224
 31
0.0
  0
LINE
  8
LC-007-005-----0
  6
CONTINUOUS
  5
EB
 10
1186.875795
 20
148.843041
 30
0.0
 11
1189.554979
 21
151.522224
 31
0.0
  0
LINE
  8
LC-007-005-----0
  6
CONTINUOUS
  5
EC
 10
1184.047368
 20
148.843041
 30
0.0
 11
1186.726552
 21
151.522224
 31
0.0
  0
LINE
  8
LC-007-005-----0
  6
CONTINUOUS
  5
ED
 10
1181.218941
 20
148.843041
 30
0.0
 11
1183.898125
 21
151.522224
 31
0.0
  0
LINE
  8
LC-007-005-----0
  6
CONTINUOUS
  5
EE
 10
1178.390514
 20
148.843041
 30
0.0
 11
1181.069697
 21
151.522224
 31
0.0
  0
LINE
  8
LC-007-005-----0
  6
CONTINUOUS
  5
EF
 10
1175.562087
 20
148.843041
 30
0.0
 11
1178.24127
 21
151.522224
 31
0.0
  0
LINE
  8
LC-007-005-----0
  6
CONTINUOUS
  5
F0
 10
1172.73366
 20
148.843041
 30
0.0
 11
1175.412843
 21
151.522224
 31
0.0
  0
LINE
  8
LC-007-005-----0
  6
CONTINUOUS
  5
F1
 10
1169.905233
 20
148.843041
 30
0.0
 11
1172.584416
 21
151.522224
 31
0.0
  0
LINE
  8
LC-007-005-----0
  6
CONTINUOUS
  5
F2
 10
1167.076806
 20
148.843041
 30
0.0
 11
1169.755989
 21
151.522224
 31
0.0
  0
LINE
  8
LC-007-005-----0
  6
CONTINUOUS
  5
F3
 10
1164.248378
 20
148.843041
 30
0.0
 11
1166.927562
 21
151.522224
 31
0.0
  0
LINE
  8
LC-007-005-----0
  6
CONTINUOUS
  5
F4
 10
1161.419951
 20
148.843041
 30
0.0
 11
1164.099135
 21
151.522224
 31
0.0
  0
LINE
  8
LC-007-005-----0
  6
CONTINUOUS
  5
F5
 10
1158.591524
 20
148.843041
 30
0.0
 11
1161.270708
 21
151.522224
 31
0.0
  0
LINE
  8
LC-007-005-----0
  6
CONTINUOUS
  5
F6
 10
1155.763097
 20
148.843041
 30
0.0
 11
1158.775506
 21
151.85545
 31
0.0
  0
LINE
  8
LC-007-005-----0
  6
CONTINUOUS
  5
F7
 10
1153.474513
 20
149.382883
 30
0.0
 11
1158.825582
 21
154.733953
 31
0.0
  0
LINE
  8
LC-007-005-----0
  6
CONTINUOUS
  5
F8
 10
1153.524701
 20
152.261499
 30
0.0
 11
1158.875658
 21
157.612456
 31
0.0
  0
LINE
  8
LC-007-005-----0
  6
CONTINUOUS
  5
F9
 10
1153.574889
 20
155.140114
 30
0.0
 11
1158.925734
 21
160.490959
 31
0.0
  0
LINE
  8
LC-007-005-----0
  6
CONTINUOUS
  5
FA
 10
1153.625077
 20
158.018729
 30
0.0
 11
1158.97581
 21
163.369462
 31
0.0
  0
LINE
  8
LC-007-005-----0
  6
CONTINUOUS
  5
FB
 10
1153.675265
 20
160.897345
 30
0.0
 11
1159.025886
 21
166.247965
 31
0.0
  0
LINE
  8
LC-007-005-----0
  6
CONTINUOUS
  5
FC
 10
1153.725453
 20
163.77596
 30
0.0
 11
1159.075962
 21
169.126468
 31
0.0
  0
LINE
  8
LC-007-005-----0
  6
CONTINUOUS
  5
FD
 10
1153.775642
 20
166.654575
 30
0.0
 11
1159.126038
 21
172.004972
 31
0.0
  0
LINE
  8
LC-007-005-----0
  6
CONTINUOUS
  5
FE
 10
1153.82583
 20
169.53319
 30
0.0
 11
1159.176114
 21
174.883475
 31
0.0
  0
LINE
  8
LC-007-005-----0
  6
CONTINUOUS
  5
FF
 10
1153.876018
 20
172.411806
 30
0.0
 11
1159.22619
 21
177.761978
 31
0.0
  0
LINE
  8
LC-007-005-----0
  6
CONTINUOUS
  5
100
 10
1153.926206
 20
175.290421
 30
0.0
 11
1159.276266
 21
180.640481
 31
0.0
  0
LINE
  8
LC-007-005-----0
  6
CONTINUOUS
  5
101
 10
1153.976394
 20
178.169036
 30
0.0
 11
1159.326342
 21
183.518984
 31
0.0
  0
LINE
  8
LC-007-005-----0
  6
CONTINUOUS
  5
102
 10
1154.026582
 20
181.047651
 30
0.0
 11
1159.376418
 21
186.397487
 31
0.0
  0
LINE
  8
LC-007-005-----0
  6
CONTINUOUS
  5
103
 10
1154.076771
 20
183.926267
 30
0.0
 11
1159.426494
 21
189.27599
 31
0.0
  0
LINE
  8
LC-007-005-----0
  6
CONTINUOUS
  5
104
 10
1154.126959
 20
186.804882
 30
0.0
 11
1159.47657
 21
192.154493
 31
0.0
  0
LINE
  8
LC-007-005-----0
  6
CONTINUOUS
  5
105
 10
1154.177147
 20
189.683497
 30
0.0
 11
1159.526646
 21
195.032996
 31
0.0
  0
LINE
  8
LC-007-005-----0
  6
CONTINUOUS
  5
106
 10
1154.227335
 20
192.562113
 30
0.0
 11
1159.576722
 21
197.911499
 31
0.0
  0
LINE
  8
LC-007-005-----0
  6
CONTINUOUS
  5
107
 10
1154.277523
 20
195.440728
 30
0.0
 11
1159.626797
 21
200.790002
 31
0.0
  0
LINE
  8
LC-007-005-----0
  6
CONTINUOUS
  5
108
 10
1154.327711
 20
198.319343
 30
0.0
 11
1159.676873
 21
203.668505
 31
0.0
  0
LINE
  8
LC-007-005-----0
  6
CONTINUOUS
  5
109
 10
1154.3779
 20
201.197958
 30
0.0
 11
1159.726949
 21
206.547008
 31
0.0
  0
LINE
  8
LC-007-005-----0
  6
CONTINUOUS
  5
10A
 10
1154.428088
 20
204.076574
 30
0.0
 11
1159.777025
 21
209.425511
 31
0.0
  0
LINE
  8
LC-007-005-----0
  6
CONTINUOUS
  5
10B
 10
1154.478276
 20
206.955189
 30
0.0
 11
1159.827101
 21
212.304014
 31
0.0
  0
LINE
  8
LC-007-005-----0
  6
CONTINUOUS
  5
10C
 10
1154.528464
 20
209.833804
 30
0.0
 11
1159.877177
 21
215.182518
 31
0.0
  0
LINE
  8
LC-007-005-----0
  6
CONTINUOUS
  5
10D
 10
1154.578652
 20
212.71242
 30
0.0
 11
1158.32068
 21
216.454447
 31
0.0
  0
LINE
  8
LC-007-005-----0
  6
CONTINUOUS
  5
10E
 10
1154.62884
 20
215.591035
 30
0.0
 11
1158.163505
 21
219.125699
 31
0.0
  0
LINE
  8
LC-007-005-----0
  6
CONTINUOUS
  5
10F
 10
1154.679028
 20
218.46965
 30
0.0
 11
1158.00633
 21
221.796952
 31
0.0
  0
LINE
  8
LC-007-005-----0
  6
CONTINUOUS
  5
110
 10
1154.729217
 20
221.348265
 30
0.0
 11
1157.442877
 21
224.061926
 31
0.0
  0
ENDBLK
  8
0
  5
111
  0
BLOCK
  8
0
  5
113
  2
*D5
 70
    65
 10
0.0
 20
0.0
 30
0.0
  3
*D5
  0
LINE
  8
LC-003-003-MTH-0
  6
CONTINUOUS
  5
114
 10
1218.26971
 20
41.543253
 30
0.0
 11
1310.4
 21
41.543253
 31
0.0
  0
LINE
  8
LC-003-003-MTH-0
  6
CONTINUOUS
  5
115
 10
1218.26971
 20
151.543253
 30
0.0
 11
1310.4
 21
151.543253
 31
0.0
  0
LINE
  8
LC-004-003-MTG-0
  6
CONTINUOUS
  5
116
 10
1293.6
 20
41.543253
 30
0.0
 11
1293.6
 21
151.543253
 31
0.0
  0
LINE
  8
LC-002-003-----0
  6
CONTINUOUS
  5
117
 10
1289.945267
 20
69.303709
 30
0.0
 11
1293.6
 21
41.543253
 31
0.0
  0
LINE
  8
LC-002-003-----0
  6
CONTINUOUS
  5
118
 10
1293.6
 20
41.543253
 30
0.0
 11
1297.254733
 21
69.303709
 31
0.0
  0
LINE
  8
LC-002-003-----0
  6
CONTINUOUS
  5
119
 10
1297.254733
 20
69.303709
 30
0.0
 11
1289.945267
 21
69.303709
 31
0.0
  0
LINE
  8
LC-002-003-----0
  6
CONTINUOUS
  5
11A
 10
1290.895497
 20
69.365991
 30
0.0
 11
1293.6
 21
48.823253
 31
0.0
  0
LINE
  8
LC-002-003-----0
  6
CONTINUOUS
  5
11B
 10
1293.6
 20
48.823253
 30
0.0
 11
1296.304503
 21
69.365991
 31
0.0
  0
LINE
  8
LC-002-003-----0
  6
CONTINUOUS
  5
11C
 10
1291.845728
 20
69.428272
 30
0.0
 11
1293.6
 21
56.103253
 31
0.0
  0
LINE
  8
LC-002-003-----0
  6
CONTINUOUS
  5
11D
 10
1293.6
 20
56.103253
 30
0.0
 11
1295.354272
 21
69.428272
 31
0.0
  0
LINE
  8
LC-002-003-----0
  6
CONTINUOUS
  5
11E
 10
1292.795959
 20
69.490553
 30
0.0
 11
1293.6
 21
63.383253
 31
0.0
  0
LINE
  8
LC-002-003-----0
  6
CONTINUOUS
  5
11F
 10
1293.6
 20
63.383253
 30
0.0
 11
1294.404041
 21
69.490553
 31
0.0
  0
LINE
  8
LC-002-003-----0
  6
CONTINUOUS
  5
120
 10
1297.254733
 20
123.782797
 30
0.0
 11
1293.6
 21
151.543253
 31
0.0
  0
LINE
  8
LC-002-003-----0
  6
CONTINUOUS
  5
121
 10
1293.6
 20
151.543253
 30
0.0
 11
1289.945267
 21
123.782797
 31
0.0
  0
LINE
  8
LC-002-003-----0
  6
CONTINUOUS
  5
122
 10
1289.945267
 20
123.782797
 30
0.0
 11
1297.254733
 21
123.782797
 31
0.0
  0
LINE
  8
LC-002-003-----0
  6
CONTINUOUS
  5
123
 10
1296.304503
 20
123.720516
 30
0.0
 11
1293.6
 21
144.263253
 31
0.0
  0
LINE
  8
LC-002-003-----0
  6
CONTINUOUS
  5
124
 10
1293.6
 20
144.263253
 30
0.0
 11
1290.895497
 21
123.720516
 31
0.0
  0
LINE
  8
LC-002-003-----0
  6
CONTINUOUS
  5
125
 10
1295.354272
 20
123.658234
 30
0.0
 11
1293.6
 21
136.983253
 31
0.0
  0
LINE
  8
LC-002-003-----0
  6
CONTINUOUS
  5
126
 10
1293.6
 20
136.983253
 30
0.0
 11
1291.845728
 21
123.658234
 31
0.0
  0
LINE
  8
LC-002-003-----0
  6
CONTINUOUS
  5
127
 10
1294.404041
 20
123.595953
 30
0.0
 11
1293.6
 21
129.703253
 31
0.0
  0
LINE
  8
LC-002-003-----0
  6
CONTINUOUS
  5
128
 10
1293.6
 20
129.703253
 30
0.0
 11
1292.795959
 21
123.595953
 31
0.0
  0
TEXT
  8
LC-002-003-----0
  6
CONTINUOUS
 62
     8
  5
129
 10
1285.772446
 20
57.152613
 30
0.0
 40
28.0
  1
DN100
 50
90.0
 41
0.8
 51
15.0
  7
LC-TXTSTYLE-150-400-0-0-A0
 72
     1
 11
1285.772446
 21
100.891413
 31
0.0
  0
ENDBLK
  8
0
  5
12A
  0
BLOCK
  8
0
  5
12C
  2
*X6
 70
    65
 10
919.76971
 20
163.056727
 30
0.0
  3
*X6
  0
LINE
  8
LC-007-005-----0
  6
CONTINUOUS
  5
12D
 10
983.301831
 20
163.057964
 30
0.0
 11
983.540056
 21
163.29619
 31
0.0
  0
LINE
  8
LC-007-005-----0
  6
CONTINUOUS
  5
12E
 10
981.030796
 20
163.615356
 30
0.0
 11
983.491533
 21
166.076094
 31
0.0
  0
LINE
  8
LC-007-005-----0
  6
CONTINUOUS
  5
12F
 10
979.502495
 20
164.915483
 30
0.0
 11
983.443009
 21
168.855997
 31
0.0
  0
LINE
  8
LC-007-005-----0
  6
CONTINUOUS
  5
130
 10
977.271784
 20
165.513199
 30
0.0
 11
983.394486
 21
171.635901
 31
0.0
  0
LINE
  8
LC-007-005-----0
  6
CONTINUOUS
  5
131
 10
975.041074
 20
166.110916
 30
0.0
 11
983.345962
 21
174.415805
 31
0.0
  0
LINE
  8
LC-007-005-----0
  6
CONTINUOUS
  5
132
 10
972.2154
 20
166.11367
 30
0.0
 11
976.461848
 21
170.360117
 31
0.0
  0
LINE
  8
LC-007-005-----0
  6
CONTINUOUS
  5
133
 10
978.388268
 20
172.286537
 30
0.0
 11
983.297439
 21
177.195708
 31
0.0
  0
LINE
  8
LC-007-005-----0
  6
CONTINUOUS
  5
134
 10
969.386973
 20
166.11367
 30
0.0
 11
973.633421
 21
170.360117
 31
0.0
  0
LINE
  8
LC-007-005-----0
  6
CONTINUOUS
  5
135
 10
978.339744
 20
175.066441
 30
0.0
 11
983.248916
 21
179.975612
 31
0.0
  0
LINE
  8
LC-007-005-----0
  6
CONTINUOUS
  5
136
 10
966.558546
 20
166.11367
 30
0.0
 11
970.804994
 21
170.360117
 31
0.0
  0
LINE
  8
LC-007-005-----0
  6
CONTINUOUS
  5
137
 10
978.291221
 20
177.846345
 30
0.0
 11
983.200392
 21
182.755516
 31
0.0
  0
LINE
  8
LC-007-005-----0
  6
CONTINUOUS
  5
138
 10
963.730119
 20
166.113669
 30
0.0
 11
967.976567
 21
170.360117
 31
0.0
  0
LINE
  8
LC-007-005-----0
  6
CONTINUOUS
  5
139
 10
978.242697
 20
180.626248
 30
0.0
 11
983.151869
 21
185.53542
 31
0.0
  0
LINE
  8
LC-007-005-----0
  6
CONTINUOUS
  5
13A
 10
960.901691
 20
166.113669
 30
0.0
 11
965.14814
 21
170.360117
 31
0.0
  0
LINE
  8
LC-007-005-----0
  6
CONTINUOUS
  5
13B
 10
978.194174
 20
183.406152
 30
0.0
 11
983.103345
 21
188.315323
 31
0.0
  0
LINE
  8
LC-007-005-----0
  6
CONTINUOUS
  5
13C
 10
958.073264
 20
166.113669
 30
0.0
 11
962.319712
 21
170.360118
 31
0.0
  0
LINE
  8
LC-007-005-----0
  6
CONTINUOUS
  5
13D
 10
978.145651
 20
186.186056
 30
0.0
 11
983.054822
 21
191.095227
 31
0.0
  0
LINE
  8
LC-007-005-----0
  6
CONTINUOUS
  5
13E
 10
955.244837
 20
166.113669
 30
0.0
 11
959.491285
 21
170.360118
 31
0.0
  0
LINE
  8
LC-007-005-----0
  6
CONTINUOUS
  5
13F
 10
978.097127
 20
188.965959
 30
0.0
 11
983.006299
 21
193.875131
 31
0.0
  0
LINE
  8
LC-007-005-----0
  6
CONTINUOUS
  5
140
 10
952.41641
 20
166.113669
 30
0.0
 11
956.662858
 21
170.360118
 31
0.0
  0
LINE
  8
LC-007-005-----0
  6
CONTINUOUS
  5
141
 10
978.048604
 20
191.745863
 30
0.0
 11
982.957775
 21
196.655035
 31
0.0
  0
LINE
  8
LC-007-005-----0
  6
CONTINUOUS
  5
142
 10
949.587982
 20
166.113669
 30
0.0
 11
953.834431
 21
170.360118
 31
0.0
  0
LINE
  8
LC-007-005-----0
  6
CONTINUOUS
  5
143
 10
978.00008
 20
194.525767
 30
0.0
 11
982.909252
 21
199.434938
 31
0.0
  0
LINE
  8
LC-007-005-----0
  6
CONTINUOUS
  5
144
 10
946.759555
 20
166.113669
 30
0.0
 11
951.006004
 21
170.360118
 31
0.0
  0
LINE
  8
LC-007-005-----0
  6
CONTINUOUS
  5
145
 10
977.951557
 20
197.30567
 30
0.0
 11
982.860728
 21
202.214842
 31
0.0
  0
LINE
  8
LC-007-005-----0
  6
CONTINUOUS
  5
146
 10
943.931128
 20
166.113668
 30
0.0
 11
948.177577
 21
170.360118
 31
0.0
  0
LINE
  8
LC-007-005-----0
  6
CONTINUOUS
  5
147
 10
977.903033
 20
200.085574
 30
0.0
 11
982.812205
 21
204.994746
 31
0.0
  0
LINE
  8
LC-007-005-----0
  6
CONTINUOUS
  5
148
 10
941.1027
 20
166.113668
 30
0.0
 11
945.34915
 21
170.360118
 31
0.0
  0
LINE
  8
LC-007-005-----0
  6
CONTINUOUS
  5
149
 10
977.85451
 20
202.865478
 30
0.0
 11
982.763682
 21
207.774649
 31
0.0
  0
LINE
  8
LC-007-005-----0
  6
CONTINUOUS
  5
14A
 10
938.769316
 20
166.60871
 30
0.0
 11
943.162462
 21
171.001857
 31
0.0
  0
LINE
  8
LC-007-005-----0
  6
CONTINUOUS
  5
14B
 10
977.805986
 20
205.645381
 30
0.0
 11
982.715158
 21
210.554553
 31
0.0
  0
LINE
  8
LC-007-005-----0
  6
CONTINUOUS
  5
14C
 10
938.769316
 20
169.437138
 30
0.0
 11
942.127186
 21
172.795008
 31
0.0
  0
LINE
  8
LC-007-005-----0
  6
CONTINUOUS
  5
14D
 10
977.757463
 20
208.425285
 30
0.0
 11
982.666635
 21
213.334457
 31
0.0
  0
LINE
  8
LC-007-005-----0
  6
CONTINUOUS
  5
14E
 10
938.108986
 20
171.605235
 30
0.0
 11
941.091909
 21
174.588159
 31
0.0
  0
LINE
  8
LC-007-005-----0
  6
CONTINUOUS
  5
14F
 10
977.708939
 20
211.205189
 30
0.0
 11
982.618111
 21
216.114361
 31
0.0
  0
LINE
  8
LC-007-005-----0
  6
CONTINUOUS
  5
150
 10
935.734126
 20
172.058802
 30
0.0
 11
940.033594
 21
176.358271
 31
0.0
  0
LINE
  8
LC-007-005-----0
  6
CONTINUOUS
  5
151
 10
977.660416
 20
213.985092
 30
0.0
 11
982.569588
 21
218.894264
 31
0.0
  0
LINE
  8
LC-007-005-----0
  6
CONTINUOUS
  5
152
 10
932.74927
 20
171.902373
 30
0.0
 11
937.048738
 21
176.201841
 31
0.0
  0
LINE
  8
LC-007-005-----0
  6
CONTINUOUS
  5
153
 10
978.882924
 20
218.036027
 30
0.0
 11
982.521065
 21
221.674168
 31
0.0
  0
LINE
  8
LC-007-005-----0
  6
CONTINUOUS
  5
154
 10
929.764414
 20
171.745945
 30
0.0
 11
934.063882
 21
176.045412
 31
0.0
  0
LINE
  8
LC-007-005-----0
  6
CONTINUOUS
  5
155
 10
978.882924
 20
220.864454
 30
0.0
 11
982.078598
 21
224.060129
 31
0.0
  0
LINE
  8
LC-007-005-----0
  6
CONTINUOUS
  5
156
 10
922.437637
 20
167.247594
 30
0.0
 11
931.079025
 21
175.888983
 31
0.0
  0
LINE
  8
LC-007-005-----0
  6
CONTINUOUS
  5
157
 10
978.882924
 20
223.692881
 30
0.0
 11
979.250171
 21
224.060129
 31
0.0
  0
LINE
  8
LC-007-005-----0
  6
CONTINUOUS
  5
158
 10
919.76971
 20
167.408094
 30
0.0
 11
922.691429
 21
170.329814
 31
0.0
  0
LINE
  8
LC-007-005-----0
  6
CONTINUOUS
  5
159
 10
923.271895
 20
170.91028
 30
0.0
 11
928.094169
 21
175.732554
 31
0.0
  0
ENDBLK
  8
0
  5
15A
  0
BLOCK
  8
0
  5
15C
  2
*X7
 70
    65
 10
929.869316
 20
49.385897
 30
0.0
  3
*X7
  0
LINE
  8
LC-007-005-----0
  6
CONTINUOUS
  5
15D
 10
935.081719
 20
49.784029
 30
0.0
 11
938.520207
 21
53.222517
 31
0.0
  0
LINE
  8
LC-007-005-----0
  6
CONTINUOUS
  5
15E
 10
932.054326
 20
49.585064
 30
0.0
 11
935.607116
 21
53.137853
 31
0.0
  0
LINE
  8
LC-007-005-----0
  6
CONTINUOUS
  5
15F
 10
930.450945
 20
50.810109
 30
0.0
 11
935.9884
 21
56.347564
 31
0.0
  0
LINE
  8
LC-007-005-----0
  6
CONTINUOUS
  5
160
 10
929.915835
 20
53.103426
 30
0.0
 11
931.369253
 21
54.556844
 31
0.0
  0
ENDBLK
  8
0
  5
161
  0
BLOCK
  8
0
  5
163
  2
*X8
 70
    65
 10
929.869316
 20
164.934342
 30
0.0
  3
*X8
  0
LINE
  8
LC-007-005-----0
  6
CONTINUOUS
  5
164
 10
934.682607
 20
165.350429
 30
0.0
 11
935.740413
 21
166.408235
 31
0.0
  0
LINE
  8
LC-007-005-----0
  6
CONTINUOUS
  5
165
 10
937.916835
 20
168.584657
 30
0.0
 11
938.769316
 21
169.437138
 31
0.0
  0
LINE
  8
LC-007-005-----0
  6
CONTINUOUS
  5
166
 10
932.889456
 20
166.385705
 30
0.0
 11
938.154723
 21
171.650972
 31
0.0
  0
LINE
  8
LC-007-005-----0
  6
CONTINUOUS
  5
167
 10
931.096305
 20
167.420981
 30
0.0
 11
935.676905
 21
172.001581
 31
0.0
  0
LINE
  8
LC-007-005-----0
  6
CONTINUOUS
  5
168
 10
929.871559
 20
169.024662
 30
0.0
 11
932.681238
 21
171.834342
 31
0.0
  0
ENDBLK
  8
0
  5
169
  0
BLOCK
  8
0
  5
16B
  2
*X9
 70
    65
 10
1012.125951
 20
315.44609
 30
0.0
  3
*X9
  0
LINE
  8
LC-007-005-----0
  6
CONTINUOUS
  5
16C
 10
1027.525951
 20
348.975249
 30
0.0
 11
1023.555111
 21
352.94609
 31
0.0
  0
LINE
  8
LC-007-005-----0
  6
CONTINUOUS
  5
16D
 10
1027.525951
 20
347.089631
 30
0.0
 11
1021.669493
 21
352.94609
 31
0.0
  0
LINE
  8
LC-007-005-----0
  6
CONTINUOUS
  5
16E
 10
1027.525951
 20
345.204013
 30
0.0
 11
1019.783875
 21
352.94609
 31
0.0
  0
LINE
  8
LC-007-005-----0
  6
CONTINUOUS
  5
16F
 10
1026.398257
 20
344.44609
 30
0.0
 11
1017.898257
 21
352.94609
 31
0.0
  0
LINE
  8
LC-007-005-----0
  6
CONTINUOUS
  5
170
 10
1025.625951
 20
343.332777
 30
0.0
 11
1016.012639
 21
352.94609
 31
0.0
  0
LINE
  8
LC-007-005-----0
  6
CONTINUOUS
  5
171
 10
1025.625951
 20
341.447159
 30
0.0
 11
1014.127021
 21
352.94609
 31
0.0
  0
LINE
  8
LC-007-005-----0
  6
CONTINUOUS
  5
172
 10
1025.625951
 20
339.561541
 30
0.0
 11
1012.770642
 21
352.41685
 31
0.0
  0
LINE
  8
LC-007-005-----0
  6
CONTINUOUS
  5
173
 10
1025.625951
 20
337.675923
 30
0.0
 11
1012.13786
 21
351.164014
 31
0.0
  0
LINE
  8
LC-007-005-----0
  6
CONTINUOUS
  5
174
 10
1025.625951
 20
335.790305
 30
0.0
 11
1012.125951
 21
349.290305
 31
0.0
  0
LINE
  8
LC-007-005-----0
  6
CONTINUOUS
  5
175
 10
1025.084548
 20
334.44609
 30
0.0
 11
1012.125951
 21
347.404687
 31
0.0
  0
LINE
  8
LC-007-005-----0
  6
CONTINUOUS
  5
176
 10
1023.353938
 20
334.291082
 30
0.0
 11
1012.125951
 21
345.519068
 31
0.0
  0
LINE
  8
LC-007-005-----0
  6
CONTINUOUS
  5
177
 10
1022.365045
 20
333.394356
 30
0.0
 11
1012.125951
 21
343.63345
 31
0.0
  0
LINE
  8
LC-007-005-----0
  6
CONTINUOUS
  5
178
 10
1022.125951
 20
331.747832
 30
0.0
 11
1012.125951
 21
341.747832
 31
0.0
  0
LINE
  8
LC-007-005-----0
  6
CONTINUOUS
  5
179
 10
1022.125951
 20
329.862214
 30
0.0
 11
1012.125951
 21
339.862214
 31
0.0
  0
LINE
  8
LC-007-005-----0
  6
CONTINUOUS
  5
17A
 10
1022.125951
 20
327.976596
 30
0.0
 11
1012.125951
 21
337.976596
 31
0.0
  0
LINE
  8
LC-007-005-----0
  6
CONTINUOUS
  5
17B
 10
1022.125951
 20
326.090978
 30
0.0
 11
1012.125951
 21
336.090978
 31
0.0
  0
LINE
  8
LC-007-005-----0
  6
CONTINUOUS
  5
17C
 10
1022.125951
 20
324.20536
 30
0.0
 11
1012.125951
 21
334.20536
 31
0.0
  0
LINE
  8
LC-007-005-----0
  6
CONTINUOUS
  5
17D
 10
1022.125951
 20
322.319742
 30
0.0
 11
1012.125951
 21
332.319742
 31
0.0
  0
LINE
  8
LC-007-005-----0
  6
CONTINUOUS
  5
17E
 10
1022.125951
 20
320.434124
 30
0.0
 11
1012.125951
 21
330.434124
 31
0.0
  0
LINE
  8
LC-007-005-----0
  6
CONTINUOUS
  5
17F
 10
1022.125951
 20
318.548506
 30
0.0
 11
1012.125951
 21
328.548506
 31
0.0
  0
LINE
  8
LC-007-005-----0
  6
CONTINUOUS
  5
180
 10
1022.011006
 20
316.777833
 30
0.0
 11
1012.125951
 21
326.662888
 31
0.0
  0
LINE
  8
LC-007-005-----0
  6
CONTINUOUS
  5
181
 10
1021.165648
 20
315.737573
 30
0.0
 11
1012.125951
 21
324.77727
 31
0.0
  0
LINE
  8
LC-007-005-----0
  6
CONTINUOUS
  5
182
 10
1019.571513
 20
315.44609
 30
0.0
 11
1012.125951
 21
322.891651
 31
0.0
  0
LINE
  8
LC-007-005-----0
  6
CONTINUOUS
  5
183
 10
1017.685895
 20
315.44609
 30
0.0
 11
1012.125951
 21
321.006033
 31
0.0
  0
LINE
  8
LC-007-005-----0
  6
CONTINUOUS
  5
184
 10
1015.800277
 20
315.44609
 30
0.0
 11
1012.125951
 21
319.120415
 31
0.0
  0
LINE
  8
LC-007-005-----0
  6
CONTINUOUS
  5
185
 10
1013.902091
 20
315.458657
 30
0.0
 11
1012.138519
 21
317.222229
 31
0.0
  0
ENDBLK
  8
0
  5
186
  0
BLOCK
  8
0
  5
188
  2
*X10
 70
    65
 10
1031.725951
 20
333.94609
 30
0.0
  3
*X10
  0
LINE
  8
LC-005-002-----0
  6
CONTINUOUS
 62
     2
  5
18A
 10
1037.125951
 20
350.688958
 30
0.0
 11
1034.86882
 21
352.94609
 31
0.0
  0
LINE
  8
LC-005-002-----0
  6
CONTINUOUS
 62
     2
  5
18B
 10
1037.125951
 20
348.80334
 30
0.0
 11
1034.154576
 21
351.774715
 31
0.0
  0
LINE
  8
LC-005-002-----0
  6
CONTINUOUS
 62
     2
  5
18C
 10
1037.125951
 20
346.917722
 30
0.0
 11
1033.211767
 21
350.831906
 31
0.0
  0
LINE
  8
LC-005-002-----0
  6
CONTINUOUS
 62
     2
  5
18D
 10
1043.574893
 20
338.583162
 30
0.0
 11
1040.263024
 21
341.895031
 31
0.0
  0
LINE
  8
LC-005-002-----0
  6
CONTINUOUS
 62
     2
  5
18E
 10
1037.125951
 20
345.032104
 30
0.0
 11
1032.268958
 21
349.889097
 31
0.0
  0
LINE
  8
LC-005-002-----0
  6
CONTINUOUS
 62
     2
  5
18F
 10
1043.4615
 20
336.810937
 30
0.0
 11
1042.117186
 21
338.15525
 31
0.0
  0
LINE
  8
LC-005-002-----0
  6
CONTINUOUS
 62
     2
  5
190
 10
1039.835112
 20
340.437325
 30
0.0
 11
1031.725951
 21
348.546485
 31
0.0
  0
LINE
  8
LC-005-002-----0
  6
CONTINUOUS
 62
     2
  5
191
 10
1042.832275
 20
335.554544
 30
0.0
 11
1041.753525
 21
336.633294
 31
0.0
  0
LINE
  8
LC-005-002-----0
  6
CONTINUOUS
 62
     2
  5
192
 10
1038.313156
 20
340.073663
 30
0.0
 11
1031.725951
 21
346.660867
 31
0.0
  0
LINE
  8
LC-005-002-----0
  6
CONTINUOUS
 62
     2
  5
193
 10
1041.867819
 20
334.633382
 30
0.0
 11
1040.847919
 21
335.653281
 31
0.0
  0
LINE
  8
LC-005-002-----0
  6
CONTINUOUS
 62
     2
  5
194
 10
1037.405798
 20
339.095402
 30
0.0
 11
1033.625951
 21
342.875249
 31
0.0
  0
LINE
  8
LC-005-002-----0
  6
CONTINUOUS
 62
     2
  5
195
 10
1032.055111
 20
344.44609
 30
0.0
 11
1031.725951
 21
344.775249
 31
0.0
  0
LINE
  8
LC-005-002-----0
  6
CONTINUOUS
 62
     2
  5
196
 10
1037.125951
 20
337.489631
 30
0.0
 11
1033.625951
 21
340.989631
 31
0.0
  0
LINE
  8
LC-005-002-----0
  6
CONTINUOUS
 62
     2
  5
197
 10
1036.995186
 20
335.734779
 30
0.0
 11
1033.625951
 21
339.104013
 31
0.0
  0
LINE
  8
LC-005-002-----0
  6
CONTINUOUS
 62
     2
  5
198
 10
1036.128711
 20
334.715635
 30
0.0
 11
1033.625951
 21
337.218395
 31
0.0
  0
LINE
  8
LC-005-002-----0
  6
CONTINUOUS
 62
     2
  5
199
 10
1034.512639
 20
334.44609
 30
0.0
 11
1033.625951
 21
335.332777
 31
0.0
  0
ENDBLK
  8
0
  5
19A
  0
BLOCK
  8
0
  5
19C
  2
*X11
 70
    65
 10
1025.625951
 20
324.82496
 30
0.0
  3
*X11
  0
LINE
  8
LC-007-005-----0
  6
CONTINUOUS
  5
19D
 10
1033.575091
 20
324.852066
 30
0.0
 11
1033.625951
 21
324.902926
 31
0.0
  0
LINE
  8
LC-007-005-----0
  6
CONTINUOUS
  5
19E
 10
1033.047922
 20
325.133018
 30
0.0
 11
1033.625951
 21
325.711048
 31
0.0
  0
LINE
  8
LC-007-005-----0
  6
CONTINUOUS
  5
19F
 10
1032.520752
 20
325.413971
 30
0.0
 11
1033.625951
 21
326.51917
 31
0.0
  0
LINE
  8
LC-007-005-----0
  6
CONTINUOUS
  5
1A0
 10
1031.993582
 20
325.694923
 30
0.0
 11
1033.625951
 21
327.327292
 31
0.0
  0
LINE
  8
LC-007-005-----0
  6
CONTINUOUS
  5
1A1
 10
1031.466412
 20
325.975875
 30
0.0
 11
1033.625951
 21
328.135414
 31
0.0
  0
LINE
  8
LC-007-005-----0
  6
CONTINUOUS
  5
1A2
 10
1030.939243
 20
326.256828
 30
0.0
 11
1033.625951
 21
328.943536
 31
0.0
  0
LINE
  8
LC-007-005-----0
  6
CONTINUOUS
  5
1A3
 10
1030.412073
 20
326.53778
 30
0.0
 11
1033.625951
 21
329.751658
 31
0.0
  0
LINE
  8
LC-007-005-----0
  6
CONTINUOUS
  5
1A4
 10
1029.884903
 20
326.818732
 30
0.0
 11
1033.625951
 21
330.55978
 31
0.0
  0
LINE
  8
LC-007-005-----0
  6
CONTINUOUS
  5
1A5
 10
1029.357734
 20
327.099685
 30
0.0
 11
1033.625951
 21
331.367902
 31
0.0
  0
LINE
  8
LC-007-005-----0
  6
CONTINUOUS
  5
1A6
 10
1028.830564
 20
327.380637
 30
0.0
 11
1030.58192
 21
329.131993
 31
0.0
  0
LINE
  8
LC-007-005-----0
  6
CONTINUOUS
  5
1A7
 10
1031.125951
 20
329.676024
 30
0.0
 11
1033.625951
 21
332.176024
 31
0.0
  0
LINE
  8
LC-007-005-----0
  6
CONTINUOUS
  5
1A8
 10
1025.625951
 20
324.984147
 30
0.0
 11
1029.369774
 21
328.727969
 31
0.0
  0
LINE
  8
LC-007-005-----0
  6
CONTINUOUS
  5
1A9
 10
1031.125951
 20
330.484147
 30
0.0
 11
1033.625951
 21
332.984147
 31
0.0
  0
LINE
  8
LC-007-005-----0
  6
CONTINUOUS
  5
1AA
 10
1025.625951
 20
325.792269
 30
0.0
 11
1028.857445
 21
329.023762
 31
0.0
  0
LINE
  8
LC-007-005-----0
  6
CONTINUOUS
  5
1AB
 10
1031.125951
 20
331.292269
 30
0.0
 11
1033.625951
 21
333.792269
 31
0.0
  0
LINE
  8
LC-007-005-----0
  6
CONTINUOUS
  5
1AC
 10
1025.625951
 20
326.600391
 30
0.0
 11
1028.345116
 21
329.319555
 31
0.0
  0
LINE
  8
LC-007-005-----0
  6
CONTINUOUS
  5
1AD
 10
1031.125951
 20
332.100391
 30
0.0
 11
1033.625951
 21
334.600391
 31
0.0
  0
LINE
  8
LC-007-005-----0
  6
CONTINUOUS
  5
1AE
 10
1025.625951
 20
327.408513
 30
0.0
 11
1028.125951
 21
329.908513
 31
0.0
  0
LINE
  8
LC-007-005-----0
  6
CONTINUOUS
  5
1AF
 10
1031.125951
 20
332.908513
 30
0.0
 11
1033.625951
 21
335.408513
 31
0.0
  0
LINE
  8
LC-007-005-----0
  6
CONTINUOUS
  5
1B0
 10
1025.625951
 20
328.216635
 30
0.0
 11
1028.125951
 21
330.716635
 31
0.0
  0
LINE
  8
LC-007-005-----0
  6
CONTINUOUS
  5
1B1
 10
1031.125951
 20
333.716635
 30
0.0
 11
1033.625951
 21
336.216635
 31
0.0
  0
LINE
  8
LC-007-005-----0
  6
CONTINUOUS
  5
1B2
 10
1025.625951
 20
329.024757
 30
0.0
 11
1028.125951
 21
331.524757
 31
0.0
  0
LINE
  8
LC-007-005-----0
  6
CONTINUOUS
  5
1B3
 10
1031.125951
 20
334.524757
 30
0.0
 11
1033.625951
 21
337.024757
 31
0.0
  0
LINE
  8
LC-007-005-----0
  6
CONTINUOUS
  5
1B4
 10
1025.625951
 20
329.832879
 30
0.0
 11
1028.125951
 21
332.332879
 31
0.0
  0
LINE
  8
LC-007-005-----0
  6
CONTINUOUS
  5
1B5
 10
1031.125951
 20
335.332879
 30
0.0
 11
1033.625951
 21
337.832879
 31
0.0
  0
LINE
  8
LC-007-005-----0
  6
CONTINUOUS
  5
1B6
 10
1025.625951
 20
330.641001
 30
0.0
 11
1028.125951
 21
333.141001
 31
0.0
  0
LINE
  8
LC-007-005-----0
  6
CONTINUOUS
  5
1B7
 10
1031.125951
 20
336.141001
 30
0.0
 11
1033.625951
 21
338.641001
 31
0.0
  0
LINE
  8
LC-007-005-----0
  6
CONTINUOUS
  5
1B8
 10
1025.625951
 20
331.449123
 30
0.0
 11
1028.125951
 21
333.949123
 31
0.0
  0
LINE
  8
LC-007-005-----0
  6
CONTINUOUS
  5
1B9
 10
1031.125951
 20
336.949123
 30
0.0
 11
1033.625951
 21
339.449123
 31
0.0
  0
LINE
  8
LC-007-005-----0
  6
CONTINUOUS
  5
1BA
 10
1025.625951
 20
332.257245
 30
0.0
 11
1028.125951
 21
334.757245
 31
0.0
  0
LINE
  8
LC-007-005-----0
  6
CONTINUOUS
  5
1BB
 10
1031.125951
 20
337.757245
 30
0.0
 11
1033.625951
 21
340.257245
 31
0.0
  0
LINE
  8
LC-007-005-----0
  6
CONTINUOUS
  5
1BC
 10
1025.625951
 20
333.065367
 30
0.0
 11
1028.125951
 21
335.565367
 31
0.0
  0
LINE
  8
LC-007-005-----0
  6
CONTINUOUS
  5
1BD
 10
1031.125951
 20
338.565367
 30
0.0
 11
1033.625951
 21
341.065367
 31
0.0
  0
LINE
  8
LC-007-005-----0
  6
CONTINUOUS
  5
1BE
 10
1025.625951
 20
333.873489
 30
0.0
 11
1028.125951
 21
336.373489
 31
0.0
  0
LINE
  8
LC-007-005-----0
  6
CONTINUOUS
  5
1BF
 10
1031.125951
 20
339.373489
 30
0.0
 11
1033.511902
 21
341.759439
 31
0.0
  0
LINE
  8
LC-007-005-----0
  6
CONTINUOUS
  5
1C0
 10
1025.625951
 20
334.681611
 30
0.0
 11
1028.125951
 21
337.181611
 31
0.0
  0
LINE
  8
LC-007-005-----0
  6
CONTINUOUS
  5
1C1
 10
1031.125951
 20
340.181611
 30
0.0
 11
1033.296257
 21
342.351917
 31
0.0
  0
LINE
  8
LC-007-005-----0
  6
CONTINUOUS
  5
1C2
 10
1025.625951
 20
335.489733
 30
0.0
 11
1028.125951
 21
337.989733
 31
0.0
  0
LINE
  8
LC-007-005-----0
  6
CONTINUOUS
  5
1C3
 10
1031.125951
 20
340.989733
 30
0.0
 11
1033.080613
 21
342.944395
 31
0.0
  0
LINE
  8
LC-007-005-----0
  6
CONTINUOUS
  5
1C4
 10
1025.625951
 20
336.297855
 30
0.0
 11
1028.125951
 21
338.797855
 31
0.0
  0
LINE
  8
LC-007-005-----0
  6
CONTINUOUS
  5
1C5
 10
1031.125951
 20
341.797855
 30
0.0
 11
1032.864969
 21
343.536872
 31
0.0
  0
LINE
  8
LC-007-005-----0
  6
CONTINUOUS
  5
1C6
 10
1025.625951
 20
337.105977
 30
0.0
 11
1028.125951
 21
339.605977
 31
0.0
  0
LINE
  8
LC-007-005-----0
  6
CONTINUOUS
  5
1C7
 10
1031.125951
 20
342.605977
 30
0.0
 11
1032.649324
 21
344.12935
 31
0.0
  0
LINE
  8
LC-007-005-----0
  6
CONTINUOUS
  5
1C8
 10
1025.625951
 20
337.914099
 30
0.0
 11
1028.125951
 21
340.414099
 31
0.0
  0
LINE
  8
LC-007-005-----0
  6
CONTINUOUS
  5
1C9
 10
1031.125951
 20
343.414099
 30
0.0
 11
1032.157942
 21
344.44609
 31
0.0
  0
LINE
  8
LC-007-005-----0
  6
CONTINUOUS
  5
1CA
 10
1025.625951
 20
338.722221
 30
0.0
 11
1028.125951
 21
341.222221
 31
0.0
  0
LINE
  8
LC-007-005-----0
  6
CONTINUOUS
  5
1CB
 10
1025.625951
 20
339.530343
 30
0.0
 11
1028.125951
 21
342.030343
 31
0.0
  0
LINE
  8
LC-007-005-----0
  6
CONTINUOUS
  5
1CC
 10
1025.625951
 20
340.338465
 30
0.0
 11
1028.125951
 21
342.838465
 31
0.0
  0
LINE
  8
LC-007-005-----0
  6
CONTINUOUS
  5
1CD
 10
1025.625951
 20
341.146587
 30
0.0
 11
1028.025703
 21
343.546338
 31
0.0
  0
LINE
  8
LC-007-005-----0
  6
CONTINUOUS
  5
1CE
 10
1025.917823
 20
342.246581
 30
0.0
 11
1027.621642
 21
343.950399
 31
0.0
  0
LINE
  8
LC-007-005-----0
  6
CONTINUOUS
  5
1CF
 10
1026.381565
 20
343.518445
 30
0.0
 11
1027.217581
 21
344.35446
 31
0.0
  0
ENDBLK
  8
0
  5
1D0
  0
BLOCK
  8
0
  5
1D2
  2
*X12
 70
    65
 10
973.606083
 20
206.560129
 30
0.0
  3
*X12
  0
LINE
  8
LC-007-005-----0
  6
CONTINUOUS
  5
1D3
 10
1023.676578
 20
226.060129
 30
0.0
 11
1025.106078
 21
227.489629
 31
0.0
  0
LINE
  8
LC-007-005-----0
  6
CONTINUOUS
  5
1D4
 10
1021.252212
 20
226.060129
 30
0.0
 11
1023.252212
 21
228.060129
 31
0.0
  0
LINE
  8
LC-007-005-----0
  6
CONTINUOUS
  5
1D5
 10
1018.827846
 20
226.060129
 30
0.0
 11
1021.856078
 21
229.088361
 31
0.0
  0
LINE
  8
LC-007-005-----0
  6
CONTINUOUS
  5
1D6
 10
1016.40348
 20
226.060129
 30
0.0
 11
1021.856078
 21
231.512727
 31
0.0
  0
LINE
  8
LC-007-005-----0
  6
CONTINUOUS
  5
1D7
 10
1013.979114
 20
226.060129
 30
0.0
 11
1021.856078
 21
233.937094
 31
0.0
  0
LINE
  8
LC-007-005-----0
  6
CONTINUOUS
  5
1D8
 10
1011.554748
 20
226.060129
 30
0.0
 11
1017.054748
 21
231.560129
 31
0.0
  0
LINE
  8
LC-007-005-----0
  6
CONTINUOUS
  5
1D9
 10
1018.606078
 20
233.11146
 30
0.0
 11
1021.830413
 21
236.335794
 31
0.0
  0
LINE
  8
LC-007-005-----0
  6
CONTINUOUS
  5
1DA
 10
1009.130382
 20
226.060129
 30
0.0
 11
1014.630382
 21
231.560129
 31
0.0
  0
LINE
  8
LC-007-005-----0
  6
CONTINUOUS
  5
1DB
 10
1018.606078
 20
235.535826
 30
0.0
 11
1020.61823
 21
237.547977
 31
0.0
  0
LINE
  8
LC-007-005-----0
  6
CONTINUOUS
  5
1DC
 10
1006.706015
 20
226.060129
 30
0.0
 11
1012.206015
 21
231.560129
 31
0.0
  0
LINE
  8
LC-007-005-----0
  6
CONTINUOUS
  5
1DD
 10
985.141162
 20
206.919642
 30
0.0
 11
987.113899
 21
208.892379
 31
0.0
  0
LINE
  8
LC-007-005-----0
  6
CONTINUOUS
  5
1DE
 10
1004.281649
 20
226.060129
 30
0.0
 11
1009.781649
 21
231.560129
 31
0.0
  0
LINE
  8
LC-007-005-----0
  6
CONTINUOUS
  5
1DF
 10
985.059358
 20
209.262204
 30
0.0
 11
987.201623
 21
211.404469
 31
0.0
  0
LINE
  8
LC-007-005-----0
  6
CONTINUOUS
  5
1E0
 10
1001.857283
 20
226.060129
 30
0.0
 11
1007.357283
 21
231.560129
 31
0.0
  0
LINE
  8
LC-007-005-----0
  6
CONTINUOUS
  5
1E1
 10
984.977554
 20
211.604766
 30
0.0
 11
987.289347
 21
213.916559
 31
0.0
  0
LINE
  8
LC-007-005-----0
  6
CONTINUOUS
  5
1E2
 10
999.432917
 20
226.060129
 30
0.0
 11
1004.932917
 21
231.560129
 31
0.0
  0
LINE
  8
LC-007-005-----0
  6
CONTINUOUS
  5
1E3
 10
984.89575
 20
213.947328
 30
0.0
 11
987.377071
 21
216.428649
 31
0.0
  0
LINE
  8
LC-007-005-----0
  6
CONTINUOUS
  5
1E4
 10
997.008551
 20
226.060129
 30
0.0
 11
1002.508551
 21
231.560129
 31
0.0
  0
LINE
  8
LC-007-005-----0
  6
CONTINUOUS
  5
1E5
 10
984.813946
 20
216.28989
 30
0.0
 11
987.464796
 21
218.94074
 31
0.0
  0
LINE
  8
LC-007-005-----0
  6
CONTINUOUS
  5
1E6
 10
994.584185
 20
226.060129
 30
0.0
 11
1000.084185
 21
231.560129
 31
0.0
  0
LINE
  8
LC-007-005-----0
  6
CONTINUOUS
  5
1E7
 10
984.732142
 20
218.632452
 30
0.0
 11
987.55252
 21
221.45283
 31
0.0
  0
LINE
  8
LC-007-005-----0
  6
CONTINUOUS
  5
1E8
 10
992.159819
 20
226.060129
 30
0.0
 11
997.659819
 21
231.560129
 31
0.0
  0
LINE
  8
LC-007-005-----0
  6
CONTINUOUS
  5
1E9
 10
984.650338
 20
220.975014
 30
0.0
 11
987.640244
 21
223.96492
 31
0.0
  0
LINE
  8
LC-007-005-----0
  6
CONTINUOUS
  5
1EA
 10
989.735453
 20
226.060129
 30
0.0
 11
995.235453
 21
231.560129
 31
0.0
  0
LINE
  8
LC-007-005-----0
  6
CONTINUOUS
  5
1EB
 10
984.568534
 20
223.317576
 30
0.0
 11
992.811087
 21
231.560129
 31
0.0
  0
LINE
  8
LC-007-005-----0
  6
CONTINUOUS
  5
1EC
 10
974.38672
 20
215.560129
 30
0.0
 11
976.686463
 21
217.859871
 31
0.0
  0
LINE
  8
LC-007-005-----0
  6
CONTINUOUS
  5
1ED
 10
984.48673
 20
225.660138
 30
0.0
 11
990.38672
 21
231.560129
 31
0.0
  0
LINE
  8
LC-007-005-----0
  6
CONTINUOUS
  5
1EE
 10
973.66556
 20
217.263334
 30
0.0
 11
976.774269
 21
220.372044
 31
0.0
  0
LINE
  8
LC-007-005-----0
  6
CONTINUOUS
  5
1EF
 10
982.462354
 20
226.060129
 30
0.0
 11
987.962354
 21
231.560129
 31
0.0
  0
LINE
  8
LC-007-005-----0
  6
CONTINUOUS
  5
1F0
 10
973.753284
 20
219.775425
 30
0.0
 11
976.862075
 21
222.884216
 31
0.0
  0
LINE
  8
LC-007-005-----0
  6
CONTINUOUS
  5
1F1
 10
979.973068
 20
225.995208
 30
0.0
 11
985.537988
 21
231.560129
 31
0.0
  0
LINE
  8
LC-007-005-----0
  6
CONTINUOUS
  5
1F2
 10
973.841008
 20
222.287515
 30
0.0
 11
976.949882
 21
225.396389
 31
0.0
  0
LINE
  8
LC-007-005-----0
  6
CONTINUOUS
  5
1F3
 10
977.613622
 20
226.060129
 30
0.0
 11
983.113622
 21
231.560129
 31
0.0
  0
LINE
  8
LC-007-005-----0
  6
CONTINUOUS
  5
1F4
 10
973.928732
 20
224.799605
 30
0.0
 11
980.689256
 21
231.560129
 31
0.0
  0
LINE
  8
LC-007-005-----0
  6
CONTINUOUS
  5
1F5
 10
974.016456
 20
227.311695
 30
0.0
 11
978.26489
 21
231.560129
 31
0.0
  0
ENDBLK
  8
0
  5
1F6
  0
BLOCK
  8
0
  5
1F8
  2
*X13
 70
    65
 10
1034.106078
 20
206.560129
 30
0.0
  3
*X13
  0
LINE
  8
LC-007-005-----0
  6
CONTINUOUS
  5
1F9
 10
1161.062911
 20
215.560129
 30
0.0
 11
1163.037684
 21
217.534902
 31
0.0
  0
LINE
  8
LC-007-005-----0
  6
CONTINUOUS
  5
1FA
 10
1149.678864
 20
206.600449
 30
0.0
 11
1151.628501
 21
208.550086
 31
0.0
  0
LINE
  8
LC-007-005-----0
  6
CONTINUOUS
  5
1FB
 10
1160.057066
 20
216.97865
 30
0.0
 11
1162.95588
 21
219.877465
 31
0.0
  0
LINE
  8
LC-007-005-----0
  6
CONTINUOUS
  5
1FC
 10
1149.59706
 20
208.943011
 30
0.0
 11
1151.716226
 21
211.062176
 31
0.0
  0
LINE
  8
LC-007-005-----0
  6
CONTINUOUS
  5
1FD
 10
1159.97519
 20
219.32114
 30
0.0
 11
1162.874076
 21
222.220027
 31
0.0
  0
LINE
  8
LC-007-005-----0
  6
CONTINUOUS
  5
1FE
 10
1149.515256
 20
211.285573
 30
0.0
 11
1151.80395
 21
213.574266
 31
0.0
  0
LINE
  8
LC-007-005-----0
  6
CONTINUOUS
  5
1FF
 10
1159.893314
 20
221.663631
 30
0.0
 11
1162.792272
 21
224.562589
 31
0.0
  0
LINE
  8
LC-007-005-----0
  6
CONTINUOUS
  5
200
 10
1149.433452
 20
213.628135
 30
0.0
 11
1151.891674
 21
216.086357
 31
0.0
  0
LINE
  8
LC-007-005-----0
  6
CONTINUOUS
  5
201
 10
1159.811439
 20
224.006121
 30
0.0
 11
1162.710468
 21
226.905151
 31
0.0
  0
LINE
  8
LC-007-005-----0
  6
CONTINUOUS
  5
202
 10
1149.351648
 20
215.970697
 30
0.0
 11
1151.979398
 21
218.598447
 31
0.0
  0
LINE
  8
LC-007-005-----0
  6
CONTINUOUS
  5
203
 10
1159.44108
 20
226.060129
 30
0.0
 11
1162.503013
 21
229.122062
 31
0.0
  0
LINE
  8
LC-007-005-----0
  6
CONTINUOUS
  5
204
 10
1149.269844
 20
218.313259
 30
0.0
 11
1152.067122
 21
221.110537
 31
0.0
  0
LINE
  8
LC-007-005-----0
  6
CONTINUOUS
  5
205
 10
1156.017221
 20
225.060636
 30
0.0
 11
1156.739153
 21
225.782568
 31
0.0
  0
LINE
  8
LC-007-005-----0
  6
CONTINUOUS
  5
206
 10
1157.016714
 20
226.060129
 30
0.0
 11
1161.566075
 21
230.60949
 31
0.0
  0
LINE
  8
LC-007-005-----0
  6
CONTINUOUS
  5
207
 10
1149.18804
 20
220.655821
 30
0.0
 11
1152.154846
 21
223.622627
 31
0.0
  0
LINE
  8
LC-007-005-----0
  6
CONTINUOUS
  5
208
 10
1154.592348
 20
226.060129
 30
0.0
 11
1159.993585
 21
231.461366
 31
0.0
  0
LINE
  8
LC-007-005-----0
  6
CONTINUOUS
  5
209
 10
1149.106236
 20
222.998383
 30
0.0
 11
1157.667982
 21
231.560129
 31
0.0
  0
LINE
  8
LC-007-005-----0
  6
CONTINUOUS
  5
20A
 10
1149.024432
 20
225.340945
 30
0.0
 11
1155.243616
 21
231.560129
 31
0.0
  0
LINE
  8
LC-007-005-----0
  6
CONTINUOUS
  5
20B
 10
1147.31925
 20
226.060129
 30
0.0
 11
1152.81925
 21
231.560129
 31
0.0
  0
LINE
  8
LC-007-005-----0
  6
CONTINUOUS
  5
20C
 10
1144.894884
 20
226.060129
 30
0.0
 11
1150.394884
 21
231.560129
 31
0.0
  0
LINE
  8
LC-007-005-----0
  6
CONTINUOUS
  5
20D
 10
1142.470517
 20
226.060129
 30
0.0
 11
1147.970517
 21
231.560129
 31
0.0
  0
LINE
  8
LC-007-005-----0
  6
CONTINUOUS
  5
20E
 10
1140.046151
 20
226.060129
 30
0.0
 11
1145.546151
 21
231.560129
 31
0.0
  0
LINE
  8
LC-007-005-----0
  6
CONTINUOUS
  5
20F
 10
1137.621785
 20
226.060129
 30
0.0
 11
1143.121785
 21
231.560129
 31
0.0
  0
LINE
  8
LC-007-005-----0
  6
CONTINUOUS
  5
210
 10
1135.197419
 20
226.060129
 30
0.0
 11
1140.697419
 21
231.560129
 31
0.0
  0
LINE
  8
LC-007-005-----0
  6
CONTINUOUS
  5
211
 10
1132.773053
 20
226.060129
 30
0.0
 11
1138.273053
 21
231.560129
 31
0.0
  0
LINE
  8
LC-007-005-----0
  6
CONTINUOUS
  5
212
 10
1130.348687
 20
226.060129
 30
0.0
 11
1135.848687
 21
231.560129
 31
0.0
  0
LINE
  8
LC-007-005-----0
  6
CONTINUOUS
  5
213
 10
1127.924321
 20
226.060129
 30
0.0
 11
1133.424321
 21
231.560129
 31
0.0
  0
LINE
  8
LC-007-005-----0
  6
CONTINUOUS
  5
214
 10
1125.499955
 20
226.060129
 30
0.0
 11
1130.999955
 21
231.560129
 31
0.0
  0
LINE
  8
LC-007-005-----0
  6
CONTINUOUS
  5
215
 10
1123.075589
 20
226.060129
 30
0.0
 11
1128.575589
 21
231.560129
 31
0.0
  0
LINE
  8
LC-007-005-----0
  6
CONTINUOUS
  5
216
 10
1120.651222
 20
226.060129
 30
0.0
 11
1126.151222
 21
231.560129
 31
0.0
  0
LINE
  8
LC-007-005-----0
  6
CONTINUOUS
  5
217
 10
1118.226856
 20
226.060129
 30
0.0
 11
1123.726856
 21
231.560129
 31
0.0
  0
LINE
  8
LC-007-005-----0
  6
CONTINUOUS
  5
218
 10
1115.80249
 20
226.060129
 30
0.0
 11
1121.30249
 21
231.560129
 31
0.0
  0
LINE
  8
LC-007-005-----0
  6
CONTINUOUS
  5
219
 10
1113.378124
 20
226.060129
 30
0.0
 11
1118.878124
 21
231.560129
 31
0.0
  0
LINE
  8
LC-007-005-----0
  6
CONTINUOUS
  5
21A
 10
1110.953758
 20
226.060129
 30
0.0
 11
1116.453758
 21
231.560129
 31
0.0
  0
LINE
  8
LC-007-005-----0
  6
CONTINUOUS
  5
21B
 10
1108.529392
 20
226.060129
 30
0.0
 11
1114.029392
 21
231.560129
 31
0.0
  0
LINE
  8
LC-007-005-----0
  6
CONTINUOUS
  5
21C
 10
1106.105026
 20
226.060129
 30
0.0
 11
1111.605026
 21
231.560129
 31
0.0
  0
LINE
  8
LC-007-005-----0
  6
CONTINUOUS
  5
21D
 10
1103.68066
 20
226.060129
 30
0.0
 11
1109.18066
 21
231.560129
 31
0.0
  0
LINE
  8
LC-007-005-----0
  6
CONTINUOUS
  5
21E
 10
1101.256294
 20
226.060129
 30
0.0
 11
1106.756294
 21
231.560129
 31
0.0
  0
LINE
  8
LC-007-005-----0
  6
CONTINUOUS
  5
21F
 10
1098.831928
 20
226.060129
 30
0.0
 11
1104.331928
 21
231.560129
 31
0.0
  0
LINE
  8
LC-007-005-----0
  6
CONTINUOUS
  5
220
 10
1096.407561
 20
226.060129
 30
0.0
 11
1101.907561
 21
231.560129
 31
0.0
  0
LINE
  8
LC-007-005-----0
  6
CONTINUOUS
  5
221
 10
1093.983195
 20
226.060129
 30
0.0
 11
1099.483195
 21
231.560129
 31
0.0
  0
LINE
  8
LC-007-005-----0
  6
CONTINUOUS
  5
222
 10
1091.558829
 20
226.060129
 30
0.0
 11
1097.058829
 21
231.560129
 31
0.0
  0
LINE
  8
LC-007-005-----0
  6
CONTINUOUS
  5
223
 10
1089.134463
 20
226.060129
 30
0.0
 11
1094.634463
 21
231.560129
 31
0.0
  0
LINE
  8
LC-007-005-----0
  6
CONTINUOUS
  5
224
 10
1086.710097
 20
226.060129
 30
0.0
 11
1092.210097
 21
231.560129
 31
0.0
  0
LINE
  8
LC-007-005-----0
  6
CONTINUOUS
  5
225
 10
1084.285731
 20
226.060129
 30
0.0
 11
1089.785731
 21
231.560129
 31
0.0
  0
LINE
  8
LC-007-005-----0
  6
CONTINUOUS
  5
226
 10
1081.861365
 20
226.060129
 30
0.0
 11
1087.361365
 21
231.560129
 31
0.0
  0
LINE
  8
LC-007-005-----0
  6
CONTINUOUS
  5
227
 10
1079.436999
 20
226.060129
 30
0.0
 11
1084.936999
 21
231.560129
 31
0.0
  0
LINE
  8
LC-007-005-----0
  6
CONTINUOUS
  5
228
 10
1077.012633
 20
226.060129
 30
0.0
 11
1082.512633
 21
231.560129
 31
0.0
  0
LINE
  8
LC-007-005-----0
  6
CONTINUOUS
  5
229
 10
1074.588266
 20
226.060129
 30
0.0
 11
1080.088266
 21
231.560129
 31
0.0
  0
LINE
  8
LC-007-005-----0
  6
CONTINUOUS
  5
22A
 10
1072.1639
 20
226.060129
 30
0.0
 11
1077.6639
 21
231.560129
 31
0.0
  0
LINE
  8
LC-007-005-----0
  6
CONTINUOUS
  5
22B
 10
1069.739534
 20
226.060129
 30
0.0
 11
1075.239534
 21
231.560129
 31
0.0
  0
LINE
  8
LC-007-005-----0
  6
CONTINUOUS
  5
22C
 10
1067.315168
 20
226.060129
 30
0.0
 11
1072.815168
 21
231.560129
 31
0.0
  0
LINE
  8
LC-007-005-----0
  6
CONTINUOUS
  5
22D
 10
1064.890802
 20
226.060129
 30
0.0
 11
1070.390802
 21
231.560129
 31
0.0
  0
LINE
  8
LC-007-005-----0
  6
CONTINUOUS
  5
22E
 10
1062.466436
 20
226.060129
 30
0.0
 11
1067.966436
 21
231.560129
 31
0.0
  0
LINE
  8
LC-007-005-----0
  6
CONTINUOUS
  5
22F
 10
1060.04207
 20
226.060129
 30
0.0
 11
1065.54207
 21
231.560129
 31
0.0
  0
LINE
  8
LC-007-005-----0
  6
CONTINUOUS
  5
230
 10
1057.617704
 20
226.060129
 30
0.0
 11
1063.117704
 21
231.560129
 31
0.0
  0
LINE
  8
LC-007-005-----0
  6
CONTINUOUS
  5
231
 10
1055.193338
 20
226.060129
 30
0.0
 11
1060.693338
 21
231.560129
 31
0.0
  0
LINE
  8
LC-007-005-----0
  6
CONTINUOUS
  5
232
 10
1052.768971
 20
226.060129
 30
0.0
 11
1058.268971
 21
231.560129
 31
0.0
  0
LINE
  8
LC-007-005-----0
  6
CONTINUOUS
  5
233
 10
1050.344605
 20
226.060129
 30
0.0
 11
1055.844605
 21
231.560129
 31
0.0
  0
LINE
  8
LC-007-005-----0
  6
CONTINUOUS
  5
234
 10
1047.920239
 20
226.060129
 30
0.0
 11
1053.420239
 21
231.560129
 31
0.0
  0
LINE
  8
LC-007-005-----0
  6
CONTINUOUS
  5
235
 10
1045.495873
 20
226.060129
 30
0.0
 11
1050.995873
 21
231.560129
 31
0.0
  0
LINE
  8
LC-007-005-----0
  6
CONTINUOUS
  5
236
 10
1043.071507
 20
226.060129
 30
0.0
 11
1048.571507
 21
231.560129
 31
0.0
  0
LINE
  8
LC-007-005-----0
  6
CONTINUOUS
  5
237
 10
1040.647141
 20
226.060129
 30
0.0
 11
1046.147141
 21
231.560129
 31
0.0
  0
LINE
  8
LC-007-005-----0
  6
CONTINUOUS
  5
238
 10
1038.222775
 20
226.060129
 30
0.0
 11
1043.722775
 21
231.560129
 31
0.0
  0
LINE
  8
LC-007-005-----0
  6
CONTINUOUS
  5
239
 10
1035.798409
 20
226.060129
 30
0.0
 11
1041.298409
 21
231.560129
 31
0.0
  0
LINE
  8
LC-007-005-----0
  6
CONTINUOUS
  5
23A
 10
1034.106078
 20
226.792165
 30
0.0
 11
1035.374043
 21
228.060129
 31
0.0
  0
LINE
  8
LC-007-005-----0
  6
CONTINUOUS
  5
23B
 10
1037.356078
 20
230.042165
 30
0.0
 11
1040.606078
 21
233.292165
 31
0.0
  0
LINE
  8
LC-007-005-----0
  6
CONTINUOUS
  5
23C
 10
1037.356078
 20
232.466531
 30
0.0
 11
1040.606078
 21
235.716531
 31
0.0
  0
LINE
  8
LC-007-005-----0
  6
CONTINUOUS
  5
23D
 10
1037.356078
 20
234.890897
 30
0.0
 11
1039.960425
 21
237.495243
 31
0.0
  0
ENDBLK
  8
0
  5
23E
  0
BLOCK
  8
0
  5
240
  2
*X14
 70
    65
 10
1021.856078
 20
228.060129
 30
0.0
  3
*X14
  0
LINE
  8
LC-007-005-----0
  6
CONTINUOUS
  5
241
 10
1021.856078
 20
228.309237
 30
0.0
 11
1022.105187
 21
228.060129
 31
0.0
  0
LINE
  8
LC-007-005-----0
  6
CONTINUOUS
  5
242
 10
1021.856078
 20
229.252046
 30
0.0
 11
1023.047997
 21
228.060129
 31
0.0
  0
LINE
  8
LC-007-005-----0
  6
CONTINUOUS
  5
243
 10
1021.856078
 20
230.194854
 30
0.0
 11
1023.990806
 21
228.060129
 31
0.0
  0
LINE
  8
LC-007-005-----0
  6
CONTINUOUS
  5
244
 10
1021.856078
 20
231.137663
 30
0.0
 11
1024.933616
 21
228.060129
 31
0.0
  0
LINE
  8
LC-007-005-----0
  6
CONTINUOUS
  5
245
 10
1021.856078
 20
232.080471
 30
0.0
 11
1025.206078
 21
228.730475
 31
0.0
  0
LINE
  8
LC-007-005-----0
  6
CONTINUOUS
  5
246
 10
1021.856078
 20
233.023279
 30
0.0
 11
1025.206078
 21
229.673284
 31
0.0
  0
LINE
  8
LC-007-005-----0
  6
CONTINUOUS
  5
247
 10
1021.856078
 20
233.966088
 30
0.0
 11
1025.206078
 21
230.616092
 31
0.0
  0
LINE
  8
LC-007-005-----0
  6
CONTINUOUS
  5
248
 10
1021.856078
 20
234.908896
 30
0.0
 11
1025.206078
 21
231.558901
 31
0.0
  0
LINE
  8
LC-007-005-----0
  6
CONTINUOUS
  5
249
 10
1021.856078
 20
235.851705
 30
0.0
 11
1025.206078
 21
232.501709
 31
0.0
  0
LINE
  8
LC-007-005-----0
  6
CONTINUOUS
  5
24A
 10
1022.590463
 20
236.060129
 30
0.0
 11
1025.206078
 21
233.444517
 31
0.0
  0
LINE
  8
LC-007-005-----0
  6
CONTINUOUS
  5
24B
 10
1023.533273
 20
236.060129
 30
0.0
 11
1025.206078
 21
234.387326
 31
0.0
  0
LINE
  8
LC-007-005-----0
  6
CONTINUOUS
  5
24C
 10
1024.476083
 20
236.060129
 30
0.0
 11
1025.206078
 21
235.330134
 31
0.0
  0
ENDBLK
  8
0
  5
24D
  0
BLOCK
  8
0
  5
24F
  2
*X15
 70
    65
 10
1034.006078
 20
228.060129
 30
0.0
  3
*X15
  0
LINE
  8
LC-007-005-----0
  6
CONTINUOUS
  5
250
 10
1034.006078
 20
228.415763
 30
0.0
 11
1034.361713
 21
228.060129
 31
0.0
  0
LINE
  8
LC-007-005-----0
  6
CONTINUOUS
  5
251
 10
1034.006078
 20
229.358571
 30
0.0
 11
1035.304522
 21
228.060129
 31
0.0
  0
LINE
  8
LC-007-005-----0
  6
CONTINUOUS
  5
252
 10
1034.006078
 20
230.30138
 30
0.0
 11
1036.247332
 21
228.060129
 31
0.0
  0
LINE
  8
LC-007-005-----0
  6
CONTINUOUS
  5
253
 10
1034.006078
 20
231.244188
 30
0.0
 11
1037.190142
 21
228.060129
 31
0.0
  0
LINE
  8
LC-007-005-----0
  6
CONTINUOUS
  5
254
 10
1034.006078
 20
232.186997
 30
0.0
 11
1037.356078
 21
228.837001
 31
0.0
  0
LINE
  8
LC-007-005-----0
  6
CONTINUOUS
  5
255
 10
1034.006078
 20
233.129805
 30
0.0
 11
1037.356078
 21
229.779809
 31
0.0
  0
LINE
  8
LC-007-005-----0
  6
CONTINUOUS
  5
256
 10
1034.006078
 20
234.072613
 30
0.0
 11
1037.356078
 21
230.722618
 31
0.0
  0
LINE
  8
LC-007-005-----0
  6
CONTINUOUS
  5
257
 10
1034.006078
 20
235.015422
 30
0.0
 11
1037.356078
 21
231.665426
 31
0.0
  0
LINE
  8
LC-007-005-----0
  6
CONTINUOUS
  5
258
 10
1034.006078
 20
235.95823
 30
0.0
 11
1037.356078
 21
232.608235
 31
0.0
  0
LINE
  8
LC-007-005-----0
  6
CONTINUOUS
  5
259
 10
1034.846989
 20
236.060129
 30
0.0
 11
1037.356078
 21
233.551043
 31
0.0
  0
LINE
  8
LC-007-005-----0
  6
CONTINUOUS
  5
25A
 10
1035.789799
 20
236.060129
 30
0.0
 11
1037.356078
 21
234.493851
 31
0.0
  0
LINE
  8
LC-007-005-----0
  6
CONTINUOUS
  5
25B
 10
1036.732608
 20
236.060129
 30
0.0
 11
1037.356078
 21
235.43666
 31
0.0
  0
ENDBLK
  8
0
  5
25C
  0
BLOCK
  8
0
  5
25E
  2
*X16
 70
    65
 10
976.625954
 20
215.560129
 30
0.0
  3
*X16
  0
LINE
  8
LC-007-005-----0
  6
CONTINUOUS
  5
25F
 10
1160.066837
 20
225.054332
 30
0.0
 11
1159.325655
 21
225.795514
 31
0.0
  0
LINE
  8
LC-007-005-----0
  6
DASHED
  5
261
 10
1160.364831
 20
223.140094
 30
0.0
 11
1157.444796
 21
226.060129
 31
0.0
  0
LINE
  8
LC-007-005-----0
  6
DASHED
  5
262
 10
1160.3941
 20
222.302703
 30
0.0
 11
1156.636674
 21
226.060129
 31
0.0
  0
LINE
  8
LC-007-005-----0
  6
CONTINUOUS
  5
263
 10
1160.452637
 20
220.627922
 30
0.0
 11
1158.378935
 21
222.701624
 31
0.0
  0
LINE
  8
LC-007-005-----0
  6
CONTINUOUS
  5
264
 10
1157.02043
 20
224.060129
 30
0.0
 11
1155.02043
 21
226.060129
 31
0.0
  0
LINE
  8
LC-007-005-----0
  6
CONTINUOUS
  5
265
 10
1160.481906
 20
219.790531
 30
0.0
 11
1158.408204
 21
221.864233
 31
0.0
  0
LINE
  8
LC-007-005-----0
  6
CONTINUOUS
  5
266
 10
1156.212308
 20
224.060129
 30
0.0
 11
1154.260056
 21
226.012381
 31
0.0
  0
LINE
  8
LC-007-005-----0
  6
DASHED
  5
267
 10
1160.540444
 20
218.115749
 30
0.0
 11
1158.466742
 21
220.189451
 31
0.0
  0
LINE
  8
LC-007-005-----0
  6
DASHED
  5
268
 10
1155.174569
 20
223.481624
 30
0.0
 11
1153.231907
 21
225.424285
 31
0.0
  0
LINE
  8
LC-007-005-----0
  6
DASHED
  5
269
 10
1160.569713
 20
217.278358
 30
0.0
 11
1158.49601
 21
219.35206
 31
0.0
  0
LINE
  8
LC-007-005-----0
  6
DASHED
  5
26A
 10
1155.147301
 20
222.70077
 30
0.0
 11
1152.901594
 21
224.946477
 31
0.0
  0
LINE
  8
LC-007-005-----0
  6
CONTINUOUS
  5
26B
 10
1160.62825
 20
215.603576
 30
0.0
 11
1158.554548
 21
217.677279
 31
0.0
  0
LINE
  8
LC-007-005-----0
  6
CONTINUOUS
  5
26C
 10
1155.092765
 20
221.139062
 30
0.0
 11
1152.385771
 21
223.846056
 31
0.0
  0
LINE
  8
LC-007-005-----0
  6
CONTINUOUS
  5
26D
 10
1159.863576
 20
215.560129
 30
0.0
 11
1158.583817
 21
216.839888
 31
0.0
  0
LINE
  8
LC-007-005-----0
  6
CONTINUOUS
  5
26E
 10
1155.065497
 20
220.358208
 30
0.0
 11
1152.358503
 21
223.065202
 31
0.0
  0
LINE
  8
LC-007-005-----0
  6
DASHED
  5
26F
 10
1155.010961
 20
218.7965
 30
0.0
 11
1152.303967
 21
221.503494
 31
0.0
  0
LINE
  8
LC-007-005-----0
  6
DASHED
  5
270
 10
1154.983692
 20
218.015646
 30
0.0
 11
1152.276699
 21
220.72264
 31
0.0
  0
LINE
  8
LC-007-005-----0
  6
CONTINUOUS
  5
271
 10
1154.929156
 20
216.453938
 30
0.0
 11
1152.222163
 21
219.160932
 31
0.0
  0
LINE
  8
LC-007-005-----0
  6
CONTINUOUS
  5
272
 10
1154.901888
 20
215.673084
 30
0.0
 11
1152.194895
 21
218.380078
 31
0.0
  0
LINE
  8
LC-007-005-----0
  6
DASHED
  5
273
 10
1153.398599
 20
215.560129
 30
0.0
 11
1152.140359
 21
216.81837
 31
0.0
  0
LINE
  8
LC-007-005-----0
  6
DASHED
  5
274
 10
1152.590477
 20
215.560129
 30
0.0
 11
1152.113091
 21
216.037516
 31
0.0
  0
LINE
  8
LC-007-005-----0
  6
DASHED
  5
275
 10
984.890706
 20
223.251737
 30
0.0
 11
982.082314
 21
226.060129
 31
0.0
  0
LINE
  8
LC-007-005-----0
  6
CONTINUOUS
  5
276
 10
984.949189
 20
221.57701
 30
0.0
 11
980.46607
 21
226.060129
 31
0.0
  0
LINE
  8
LC-007-005-----0
  6
CONTINUOUS
  5
277
 10
984.97843
 20
220.739647
 30
0.0
 11
982.075535
 21
223.642542
 31
0.0
  0
LINE
  8
LC-007-005-----0
  6
CONTINUOUS
  5
278
 10
981.657948
 20
224.060129
 30
0.0
 11
979.657948
 21
226.060129
 31
0.0
  0
LINE
  8
LC-007-005-----0
  6
DASHED
  5
279
 10
985.036913
 20
219.06492
 30
0.0
 11
982.134018
 21
221.967815
 31
0.0
  0
LINE
  8
LC-007-005-----0
  6
DASHED
  5
27A
 10
980.041704
 20
224.060129
 30
0.0
 11
978.18382
 21
225.918013
 31
0.0
  0
LINE
  8
LC-007-005-----0
  6
DASHED
  5
27B
 10
985.066154
 20
218.227557
 30
0.0
 11
982.163259
 21
221.130452
 31
0.0
  0
LINE
  8
LC-007-005-----0
  6
DASHED
  5
27C
 10
979.233582
 20
224.060129
 30
0.0
 11
977.673195
 21
225.620516
 31
0.0
  0
LINE
  8
LC-007-005-----0
  6
CONTINUOUS
  5
27D
 10
985.124637
 20
216.55283
 30
0.0
 11
982.221742
 21
219.455725
 31
0.0
  0
LINE
  8
LC-007-005-----0
  6
CONTINUOUS
  5
27E
 10
978.880133
 20
222.797334
 30
0.0
 11
977.016619
 21
224.660848
 31
0.0
  0
LINE
  8
LC-007-005-----0
  6
CONTINUOUS
  5
27F
 10
985.153878
 20
215.715467
 30
0.0
 11
982.250983
 21
218.618362
 31
0.0
  0
LINE
  8
LC-007-005-----0
  6
CONTINUOUS
  5
280
 10
978.852841
 20
222.016504
 30
0.0
 11
976.919205
 21
223.95014
 31
0.0
  0
LINE
  8
LC-007-005-----0
  6
DASHED
  5
281
 10
983.692972
 20
215.560129
 30
0.0
 11
982.309466
 21
216.943635
 31
0.0
  0
LINE
  8
LC-007-005-----0
  6
DASHED
  5
282
 10
978.798257
 20
220.454843
 30
0.0
 11
976.864621
 21
222.38848
 31
0.0
  0
LINE
  8
LC-007-005-----0
  6
DASHED
  5
283
 10
982.88485
 20
215.560129
 30
0.0
 11
982.338707
 21
216.106272
 31
0.0
  0
LINE
  8
LC-007-005-----0
  6
DASHED
  5
284
 10
978.770966
 20
219.674013
 30
0.0
 11
976.837329
 21
221.607649
 31
0.0
  0
LINE
  8
LC-007-005-----0
  6
CONTINUOUS
  5
285
 10
978.716382
 20
218.112353
 30
0.0
 11
976.782746
 21
220.045989
 31
0.0
  0
LINE
  8
LC-007-005-----0
  6
CONTINUOUS
  5
286
 10
978.68909
 20
217.331523
 30
0.0
 11
976.755454
 21
219.265159
 31
0.0
  0
LINE
  8
LC-007-005-----0
  6
DASHED
  5
287
 10
978.634506
 20
215.769862
 30
0.0
 11
976.70087
 21
217.703499
 31
0.0
  0
LINE
  8
LC-007-005-----0
  6
DASHED
  5
288
 10
978.036118
 20
215.560129
 30
0.0
 11
976.673578
 21
216.922668
 31
0.0
  0
ENDBLK
  8
0
  5
289
  0
BLOCK
  8
0
  5
28B
  2
*X17
 70
    65
 10
983.63441
 20
183.968227
 30
0.0
  3
*X17
  0
LINE
  8
LC-005-002-----0
  6
CONTINUOUS
 62
     2
  5
28C
 10
1008.214995
 20
189.421862
 30
0.0
 11
1006.347564
 21
191.289293
 31
0.0
  0
LINE
  8
LC-005-002-----0
  6
CONTINUOUS
 62
     2
  5
28D
 10
992.648665
 20
204.988192
 30
0.0
 11
991.76857
 21
205.868287
 31
0.0
  0
LINE
  8
LC-005-002-----0
  6
CONTINUOUS
 62
     2
  5
28E
 10
1007.700167
 20
187.512324
 30
0.0
 11
1003.964789
 21
191.247702
 31
0.0
  0
LINE
  8
LC-005-002-----0
  6
CONTINUOUS
 62
     2
  5
28F
 10
992.606726
 20
202.605764
 30
0.0
 11
989.385795
 21
205.826696
 31
0.0
  0
LINE
  8
LC-005-002-----0
  6
CONTINUOUS
 62
     2
  5
290
 10
1005.317392
 20
187.470733
 30
0.0
 11
1001.582015
 21
191.20611
 31
0.0
  0
LINE
  8
LC-005-002-----0
  6
CONTINUOUS
 62
     2
  5
291
 10
990.4435
 20
202.344625
 30
0.0
 11
987.003021
 21
205.785104
 31
0.0
  0
LINE
  8
LC-005-002-----0
  6
CONTINUOUS
 62
     2
  5
292
 10
1002.934617
 20
187.429141
 30
0.0
 11
999.19924
 21
191.164519
 31
0.0
  0
LINE
  8
LC-005-002-----0
  6
CONTINUOUS
 62
     2
  5
293
 10
988.060725
 20
202.303033
 30
0.0
 11
984.620246
 21
205.743513
 31
0.0
  0
LINE
  8
LC-005-002-----0
  6
CONTINUOUS
 62
     2
  5
294
 10
1000.551843
 20
187.38755
 30
0.0
 11
996.816465
 21
191.122927
 31
0.0
  0
LINE
  8
LC-005-002-----0
  6
CONTINUOUS
 62
     2
  5
295
 10
987.527757
 20
200.411635
 30
0.0
 11
983.65966
 21
204.279732
 31
0.0
  0
LINE
  8
LC-005-002-----0
  6
CONTINUOUS
 62
     2
  5
296
 10
998.836318
 20
186.678708
 30
0.0
 11
994.433691
 21
191.081336
 31
0.0
  0
LINE
  8
LC-005-002-----0
  6
CONTINUOUS
 62
     2
  5
297
 10
987.570826
 20
197.9442
 30
0.0
 11
983.702729
 21
201.812297
 31
0.0
  0
LINE
  8
LC-005-002-----0
  6
CONTINUOUS
 62
     2
  5
298
 10
997.321904
 20
185.768756
 30
0.0
 11
992.050916
 21
191.039744
 31
0.0
  0
LINE
  8
LC-005-002-----0
  6
CONTINUOUS
 62
     2
  5
299
 10
987.613895
 20
195.476765
 30
0.0
 11
983.745799
 21
199.344862
 31
0.0
  0
LINE
  8
LC-005-002-----0
  6
CONTINUOUS
 62
     2
  5
29A
 10
995.80749
 20
184.858804
 30
0.0
 11
989.668141
 21
190.998153
 31
0.0
  0
LINE
  8
LC-005-002-----0
  6
CONTINUOUS
 62
     2
  5
29B
 10
987.656965
 20
193.009329
 30
0.0
 11
983.788868
 21
196.877426
 31
0.0
  0
LINE
  8
LC-005-002-----0
  6
CONTINUOUS
 62
     2
  5
29C
 10
994.166325
 20
184.075602
 30
0.0
 11
990.957378
 21
187.284549
 31
0.0
  0
LINE
  8
LC-005-002-----0
  6
CONTINUOUS
 62
     2
  5
29D
 10
989.988601
 20
188.253327
 30
0.0
 11
983.831937
 21
194.409991
 31
0.0
  0
LINE
  8
LC-005-002-----0
  6
CONTINUOUS
 62
     2
  5
29E
 10
991.783551
 20
184.034011
 30
0.0
 11
989.817563
 21
185.999999
 31
0.0
  0
LINE
  8
LC-005-002-----0
  6
CONTINUOUS
 62
     2
  5
29F
 10
987.605826
 20
188.211736
 30
0.0
 11
983.875006
 21
191.942555
 31
0.0
  0
LINE
  8
LC-005-002-----0
  6
CONTINUOUS
 62
     2
  5
2A0
 10
989.400776
 20
183.99242
 30
0.0
 11
987.989756
 21
185.403439
 31
0.0
  0
LINE
  8
LC-005-002-----0
  6
CONTINUOUS
 62
     2
  5
2A1
 10
985.223051
 20
188.170144
 30
0.0
 11
983.918076
 21
189.47512
 31
0.0
  0
ENDBLK
  8
0
  5
2A2
  0
BLOCK
  8
0
  5
2A4
  2
*X18
 70
    65
 10
986.498022
 20
38.755133
 30
0.0
  3
*X18
  0
LINE
  8
LC-005-002-----0
  6
CONTINUOUS
 62
     2
  5
2A5
 10
1008.214994
 20
41.53553
 30
0.0
 11
1006.678038
 21
43.072487
 31
0.0
  0
LINE
  8
LC-005-002-----0
  6
CONTINUOUS
 62
     2
  5
2A6
 10
1007.652544
 20
39.673614
 30
0.0
 11
1004.295263
 21
43.030895
 31
0.0
  0
LINE
  8
LC-005-002-----0
  6
CONTINUOUS
 62
     2
  5
2A7
 10
1005.844465
 20
39.057327
 30
0.0
 11
1001.132969
 21
43.768823
 31
0.0
  0
LINE
  8
LC-005-002-----0
  6
CONTINUOUS
 62
     2
  5
2A8
 10
1003.46169
 20
39.015736
 30
0.0
 11
996.384133
 21
46.093293
 31
0.0
  0
LINE
  8
LC-005-002-----0
  6
CONTINUOUS
 62
     2
  5
2A9
 10
1001.078916
 20
38.974144
 30
0.0
 11
994.001358
 21
46.051702
 31
0.0
  0
LINE
  8
LC-005-002-----0
  6
CONTINUOUS
 62
     2
  5
2AA
 10
998.696141
 20
38.932553
 30
0.0
 11
991.618584
 21
46.01011
 31
0.0
  0
LINE
  8
LC-005-002-----0
  6
CONTINUOUS
 62
     2
  5
2AB
 10
996.313366
 20
38.890961
 30
0.0
 11
993.413534
 21
41.790794
 31
0.0
  0
LINE
  8
LC-005-002-----0
  6
CONTINUOUS
 62
     2
  5
2AC
 10
991.201797
 20
44.002531
 30
0.0
 11
990.444703
 21
44.759624
 31
0.0
  0
LINE
  8
LC-005-002-----0
  6
CONTINUOUS
 62
     2
  5
2AD
 10
993.930592
 20
38.84937
 30
0.0
 11
991.030759
 21
41.749202
 31
0.0
  0
LINE
  8
LC-005-002-----0
  6
CONTINUOUS
 62
     2
  5
2AE
 10
991.547817
 20
38.807778
 30
0.0
 11
988.647985
 21
41.707611
 31
0.0
  0
LINE
  8
LC-005-002-----0
  6
CONTINUOUS
 62
     2
  5
2AF
 10
989.165043
 20
38.766187
 30
0.0
 11
986.50223
 21
41.428999
 31
0.0
  0
ENDBLK
  8
0
  5
2B0
  0
BLOCK
  8
0
  5
2B2
  2
*X19
 70
    65
 10
982.291771
 20
176.694937
 30
0.0
  3
*X19
  0
LINE
  8
LC-005-002-----0
  6
CONTINUOUS
 62
     2
  5
2B3
 10
1008.073511
 20
185.522736
 30
0.0
 11
1006.062501
 21
187.533746
 31
0.0
  0
LINE
  8
LC-005-002-----0
  6
DASHED
 62
     2
  5
2B4
 10
1004.539878
 20
183.399515
 30
0.0
 11
1000.502693
 21
187.436699
 31
0.0
  0
LINE
  8
LC-005-002-----0
  6
DASHED
 62
     2
  5
2B5
 10
1002.773061
 20
182.337904
 30
0.0
 11
998.670541
 21
186.440424
 31
0.0
  0
LINE
  8
LC-005-002-----0
  6
CONTINUOUS
 62
     2
  5
2B6
 10
999.239428
 20
180.214683
 30
0.0
 11
995.136908
 21
184.317203
 31
0.0
  0
LINE
  8
LC-005-002-----0
  6
CONTINUOUS
 62
     2
  5
2B7
 10
997.472611
 20
179.153073
 30
0.0
 11
992.577809
 21
184.047875
 31
0.0
  0
LINE
  8
LC-005-002-----0
  6
CONTINUOUS
 62
     2
  5
2B8
 10
990.611821
 20
186.013863
 30
0.0
 11
988.400084
 21
188.2256
 31
0.0
  0
LINE
  8
LC-005-002-----0
  6
DASHED
 62
     2
  5
2B9
 10
993.938978
 20
177.029851
 30
0.0
 11
983.759852
 21
187.208977
 31
0.0
  0
LINE
  8
LC-005-002-----0
  6
DASHED
 62
     2
  5
2BA
 10
991.315655
 20
176.824747
 30
0.0
 11
983.744428
 21
184.395975
 31
0.0
  0
LINE
  8
LC-005-002-----0
  6
CONTINUOUS
 62
     2
  5
2BB
 10
985.755848
 20
176.7277
 30
0.0
 11
982.838132
 21
179.645416
 31
0.0
  0
ENDBLK
  8
0
  5
2BC
  0
BLOCK
  8
0
  5
2BE
  2
*X20
 70
    65
 10
984.579781
 20
41.682958
 30
0.0
  3
*X20
  0
LINE
  8
LC-005-002-----0
  6
CONTINUOUS
 62
     2
  5
2BF
 10
1008.198818
 20
43.976073
 30
0.0
 11
1007.835791
 21
44.339099
 31
0.0
  0
LINE
  8
LC-005-002-----0
  6
DASHED
 62
     2
  5
2C0
 10
1005.932929
 20
43.009473
 30
0.0
 11
1000.583034
 21
48.359368
 31
0.0
  0
LINE
  8
LC-005-002-----0
  6
DASHED
 62
     2
  5
2C1
 10
1004.344413
 20
42.981745
 30
0.0
 11
996.956655
 21
50.369503
 31
0.0
  0
LINE
  8
LC-005-002-----0
  6
CONTINUOUS
 62
     2
  5
2C2
 10
999.014842
 20
45.078828
 30
0.0
 11
990.895092
 21
53.198578
 31
0.0
  0
LINE
  8
LC-005-002-----0
  6
CONTINUOUS
 62
     2
  5
2C3
 10
996.384133
 20
46.093293
 30
0.0
 11
989.306575
 21
53.170851
 31
0.0
  0
LINE
  8
LC-005-002-----0
  6
DASHED
 62
     2
  5
2C4
 10
993.2071
 20
46.037838
 30
0.0
 11
986.129542
 21
53.115395
 31
0.0
  0
LINE
  8
LC-005-002-----0
  6
DASHED
 62
     2
  5
2C5
 10
991.618584
 20
46.01011
 30
0.0
 11
986.007751
 21
51.620943
 31
0.0
  0
LINE
  8
LC-005-002-----0
  6
CONTINUOUS
 62
     2
  5
2C6
 10
992.619276
 20
41.77693
 30
0.0
 11
990.407539
 21
43.988667
 31
0.0
  0
LINE
  8
LC-005-002-----0
  6
CONTINUOUS
 62
     2
  5
2C7
 10
990.192095
 20
44.20411
 30
0.0
 11
985.566331
 21
48.829875
 31
0.0
  0
LINE
  8
LC-005-002-----0
  6
CONTINUOUS
 62
     2
  5
2C8
 10
991.030759
 20
41.749202
 30
0.0
 11
986.149127
 21
46.630834
 31
0.0
  0
LINE
  8
LC-005-002-----0
  6
CONTINUOUS
 62
     2
  5
2C9
 10
985.161189
 20
47.618773
 30
0.0
 11
984.628959
 21
48.151002
 31
0.0
  0
LINE
  8
LC-005-002-----0
  6
DASHED
 62
     2
  5
2CA
 10
987.853726
 20
41.693747
 30
0.0
 11
986.206553
 21
43.34092
 31
0.0
  0
ENDBLK
  8
0
  5
2CB
  0
BLOCK
  8
0
  5
2CD
  2
*X21
 70
    65
 10
909.210857
 20
-77.652025
 30
0.0
  3
*X21
  0
LINE
  8
LC-005-002-----0
  6
CONTINUOUS
 62
     2
  5
2CE
 10
1141.179412
 20
167.170164
 30
0.0
 11
1136.727317
 21
171.622259
 31
0.0
  0
LINE
  8
LC-005-002-----0
  6
CONTINUOUS
 62
     2
  5
2CF
 10
1141.381555
 20
166.159899
 30
0.0
 11
1133.14148
 21
174.399973
 31
0.0
  0
LINE
  8
LC-005-002-----0
  6
CONTINUOUS
 62
     2
  5
2D0
 10
1141.358053
 20
165.375278
 30
0.0
 11
1140.34941
 21
166.383921
 31
0.0
  0
LINE
  8
LC-005-002-----0
  6
CONTINUOUS
 62
     2
  5
2D1
 10
1135.083644
 20
171.649688
 30
0.0
 11
1130.162945
 21
176.570386
 31
0.0
  0
LINE
  8
LC-005-002-----0
  6
CONTINUOUS
 62
     2
  5
2D2
 10
1141.214194
 20
164.711016
 30
0.0
 11
1140.37226
 21
165.552949
 31
0.0
  0
LINE
  8
LC-005-002-----0
  6
CONTINUOUS
 62
     2
  5
2D3
 10
1131.699564
 20
174.225645
 30
0.0
 11
1127.541254
 21
178.383955
 31
0.0
  0
LINE
  8
LC-005-002-----0
  6
CONTINUOUS
 62
     2
  5
2D4
 10
1141.024976
 20
164.092111
 30
0.0
 11
1140.224128
 21
164.892959
 31
0.0
  0
LINE
  8
LC-005-002-----0
  6
CONTINUOUS
 62
     2
  5
2D5
 10
1128.834799
 20
176.282288
 30
0.0
 11
1125.16211
 21
179.954977
 31
0.0
  0
LINE
  8
LC-005-002-----0
  6
CONTINUOUS
 62
     2
  5
2D6
 10
1140.835758
 20
163.473207
 30
0.0
 11
1140.03491
 21
164.274055
 31
0.0
  0
LINE
  8
LC-005-002-----0
  6
CONTINUOUS
 62
     2
  5
2D7
 10
1126.289642
 20
178.019323
 30
0.0
 11
1122.9619
 21
181.347065
 31
0.0
  0
LINE
  8
LC-005-002-----0
  6
CONTINUOUS
 62
     2
  5
2D8
 10
1140.64654
 20
162.854303
 30
0.0
 11
1139.845692
 21
163.655151
 31
0.0
  0
LINE
  8
LC-005-002-----0
  6
CONTINUOUS
 62
     2
  5
2D9
 10
1123.967103
 20
179.53374
 30
0.0
 11
1120.900883
 21
182.599961
 31
0.0
  0
LINE
  8
LC-005-002-----0
  6
CONTINUOUS
 62
     2
  5
2DA
 10
1140.457322
 20
162.235399
 30
0.0
 11
1139.656474
 21
163.036247
 31
0.0
  0
LINE
  8
LC-005-002-----0
  6
CONTINUOUS
 62
     2
  5
2DB
 10
1121.811325
 20
180.881396
 30
0.0
 11
1118.952252
 21
183.740469
 31
0.0
  0
LINE
  8
LC-005-002-----0
  6
CONTINUOUS
 62
     2
  5
2DC
 10
1140.268104
 20
161.616495
 30
0.0
 11
1139.467256
 21
162.417343
 31
0.0
  0
LINE
  8
LC-005-002-----0
  6
CONTINUOUS
 62
     2
  5
2DD
 10
1119.78664
 20
182.09796
 30
0.0
 11
1117.09691
 21
184.787689
 31
0.0
  0
LINE
  8
LC-005-002-----0
  6
CONTINUOUS
 62
     2
  5
2DE
 10
1145.684822
 20
155.391655
 30
0.0
 11
1145.057161
 21
156.019317
 31
0.0
  0
LINE
  8
LC-005-002-----0
  6
CONTINUOUS
 62
     2
  5
2DF
 10
1140.078886
 20
160.997591
 30
0.0
 11
1139.278038
 21
161.798439
 31
0.0
  0
LINE
  8
LC-005-002-----0
  6
CONTINUOUS
 62
     2
  5
2E0
 10
1117.868617
 20
183.207861
 30
0.0
 11
1115.320675
 21
185.755802
 31
0.0
  0
LINE
  8
LC-005-002-----0
  6
CONTINUOUS
 62
     2
  5
2E1
 10
1145.495604
 20
154.772751
 30
0.0
 11
1144.694756
 21
155.573599
 31
0.0
  0
LINE
  8
LC-005-002-----0
  6
CONTINUOUS
 62
     2
  5
2E2
 10
1139.889668
 20
160.378687
 30
0.0
 11
1139.08882
 21
161.179535
 31
0.0
  0
LINE
  8
LC-005-002-----0
  6
CONTINUOUS
 62
     2
  5
2E3
 10
1116.039651
 20
184.228705
 30
0.0
 11
1113.612674
 21
186.655681
 31
0.0
  0
LINE
  8
LC-005-002-----0
  6
CONTINUOUS
 62
     2
  5
2E4
 10
1145.306386
 20
154.153847
 30
0.0
 11
1144.505538
 21
154.954695
 31
0.0
  0
LINE
  8
LC-005-002-----0
  6
CONTINUOUS
 62
     2
  5
2E5
 10
1139.70045
 20
159.759783
 30
0.0
 11
1138.899602
 21
160.560631
 31
0.0
  0
LINE
  8
LC-005-002-----0
  6
CONTINUOUS
 62
     2
  5
2E6
 10
1114.286554
 20
185.173679
 30
0.0
 11
1111.96435
 21
187.495883
 31
0.0
  0
LINE
  8
LC-005-002-----0
  6
CONTINUOUS
 62
     2
  5
2E7
 10
1145.117168
 20
153.534943
 30
0.0
 11
1144.31632
 21
154.335791
 31
0.0
  0
LINE
  8
LC-005-002-----0
  6
CONTINUOUS
 62
     2
  5
2E8
 10
1139.511232
 20
159.140879
 30
0.0
 11
1138.710384
 21
159.941727
 31
0.0
  0
LINE
  8
LC-005-002-----0
  6
CONTINUOUS
 62
     2
  5
2E9
 10
1112.599145
 20
186.052966
 30
0.0
 11
1110.368824
 21
188.283288
 31
0.0
  0
LINE
  8
LC-005-002-----0
  6
CONTINUOUS
 62
     2
  5
2EA
 10
1144.927938
 20
152.916051
 30
0.0
 11
1144.127102
 21
153.716887
 31
0.0
  0
LINE
  8
LC-005-002-----0
  6
CONTINUOUS
 62
     2
  5
2EB
 10
1139.322014
 20
158.521975
 30
0.0
 11
1138.521166
 21
159.322823
 31
0.0
  0
LINE
  8
LC-005-002-----0
  6
CONTINUOUS
 62
     2
  5
2EC
 10
1110.969363
 20
186.874626
 30
0.0
 11
1108.820467
 21
189.023522
 31
0.0
  0
LINE
  8
LC-005-002-----0
  6
CONTINUOUS
 62
     2
  5
2ED
 10
1144.600804
 20
152.435063
 30
0.0
 11
1143.755742
 21
153.280125
 31
0.0
  0
LINE
  8
LC-005-002-----0
  6
CONTINUOUS
 62
     2
  5
2EE
 10
1139.132796
 20
157.903071
 30
0.0
 11
1138.331949
 21
158.703919
 31
0.0
  0
LINE
  8
LC-005-002-----0
  6
CONTINUOUS
 62
     2
  5
2EF
 10
1109.3907
 20
187.645168
 30
0.0
 11
1107.314605
 21
189.721262
 31
0.0
  0
LINE
  8
LC-005-002-----0
  6
CONTINUOUS
 62
     2
  5
2F0
 10
1144.013313
 20
152.214432
 30
0.0
 11
1142.591753
 21
153.635992
 31
0.0
  0
LINE
  8
LC-005-002-----0
  6
CONTINUOUS
 62
     2
  5
2F1
 10
1138.943579
 20
157.284167
 30
0.0
 11
1138.142731
 21
158.085015
 31
0.0
  0
LINE
  8
LC-005-002-----0
  6
CONTINUOUS
 62
     2
  5
2F2
 10
1107.857807
 20
188.369938
 30
0.0
 11
1105.847302
 21
190.380443
 31
0.0
  0
LINE
  8
LC-005-002-----0
  6
CONTINUOUS
 62
     2
  5
2F3
 10
1142.93394
 20
152.485683
 30
0.0
 11
1141.427764
 21
153.991859
 31
0.0
  0
LINE
  8
LC-005-002-----0
  6
CONTINUOUS
 62
     2
  5
2F4
 10
1138.754361
 20
156.665263
 30
0.0
 11
1137.953513
 21
157.466111
 31
0.0
  0
LINE
  8
LC-005-002-----0
  6
CONTINUOUS
 62
     2
  5
2F5
 10
1106.366228
 20
189.053395
 30
0.0
 11
1104.415209
 21
191.004414
 31
0.0
  0
LINE
  8
LC-005-002-----0
  6
CONTINUOUS
 62
     2
  5
2F6
 10
1141.76995
 20
152.841551
 30
0.0
 11
1140.263774
 21
154.347727
 31
0.0
  0
LINE
  8
LC-005-002-----0
  6
CONTINUOUS
 62
     2
  5
2F7
 10
1138.565143
 20
156.046358
 30
0.0
 11
1137.764295
 21
156.847206
 31
0.0
  0
LINE
  8
LC-005-002-----0
  6
CONTINUOUS
 62
     2
  5
2F8
 10
1104.9122
 20
189.699302
 30
0.0
 11
1103.015447
 21
191.596054
 31
0.0
  0
LINE
  8
LC-005-002-----0
  6
CONTINUOUS
 62
     2
  5
2F9
 10
1140.605961
 20
153.197418
 30
0.0
 11
1139.099785
 21
154.703594
 31
0.0
  0
LINE
  8
LC-005-002-----0
  6
CONTINUOUS
 62
     2
  5
2FA
 10
1138.375925
 20
155.427454
 30
0.0
 11
1137.575077
 21
156.228302
 31
0.0
  0
LINE
  8
LC-005-002-----0
  6
CONTINUOUS
 62
     2
  5
2FB
 10
1103.492511
 20
190.310868
 30
0.0
 11
1101.64552
 21
192.157859
 31
0.0
  0
LINE
  8
LC-005-002-----0
  6
CONTINUOUS
 62
     2
  5
2FC
 10
1139.441972
 20
153.553285
 30
0.0
 11
1137.385859
 21
155.609398
 31
0.0
  0
LINE
  8
LC-005-002-----0
  6
CONTINUOUS
 62
     2
  5
2FD
 10
1102.104397
 20
190.89086
 30
0.0
 11
1100.303247
 21
192.69201
 31
0.0
  0
LINE
  8
LC-005-002-----0
  6
CONTINUOUS
 62
     2
  5
2FE
 10
1138.277983
 20
153.909152
 30
0.0
 11
1137.235545
 21
154.95159
 31
0.0
  0
LINE
  8
LC-005-002-----0
  6
CONTINUOUS
 62
     2
  5
2FF
 10
1100.745452
 20
191.441683
 30
0.0
 11
1098.986706
 21
193.200429
 31
0.0
  0
LINE
  8
LC-005-002-----0
  6
CONTINUOUS
 62
     2
  5
300
 10
1099.413573
 20
191.96544
 30
0.0
 11
1097.694198
 21
193.684815
 31
0.0
  0
LINE
  8
LC-005-002-----0
  6
CONTINUOUS
 62
     2
  5
301
 10
1098.106904
 20
192.463987
 30
0.0
 11
1096.424209
 21
194.146682
 31
0.0
  0
LINE
  8
LC-005-002-----0
  6
CONTINUOUS
 62
     2
  5
302
 10
1096.823801
 20
192.938968
 30
0.0
 11
1095.175381
 21
194.587388
 31
0.0
  0
LINE
  8
LC-005-002-----0
  6
CONTINUOUS
 62
     2
  5
303
 10
1095.562794
 20
193.391852
 30
0.0
 11
1093.946495
 21
195.008152
 31
0.0
  0
LINE
  8
LC-005-002-----0
  6
CONTINUOUS
 62
     2
  5
304
 10
1094.32257
 20
193.823955
 30
0.0
 11
1092.736449
 21
195.410076
 31
0.0
  0
LINE
  8
LC-005-002-----0
  6
CONTINUOUS
 62
     2
  5
305
 10
1093.101943
 20
194.23646
 30
0.0
 11
1091.544243
 21
195.79416
 31
0.0
  0
LINE
  8
LC-005-002-----0
  6
CONTINUOUS
 62
     2
  5
306
 10
1091.89984
 20
194.63044
 30
0.0
 11
1090.368966
 21
196.161315
 31
0.0
  0
LINE
  8
LC-005-002-----0
  6
CONTINUOUS
 62
     2
  5
307
 10
1090.715291
 20
195.006868
 30
0.0
 11
1089.209787
 21
196.512372
 31
0.0
  0
LINE
  8
LC-005-002-----0
  6
CONTINUOUS
 62
     2
  5
308
 10
1089.547406
 20
195.366631
 30
0.0
 11
1088.065942
 21
196.848095
 31
0.0
  0
LINE
  8
LC-005-002-----0
  6
CONTINUOUS
 62
     2
  5
309
 10
1088.395376
 20
195.710539
 30
0.0
 11
1086.936731
 21
197.169183
 31
0.0
  0
LINE
  8
LC-005-002-----0
  6
CONTINUOUS
 62
     2
  5
30A
 10
1087.258456
 20
196.039336
 30
0.0
 11
1085.821508
 21
197.476285
 31
0.0
  0
LINE
  8
LC-005-002-----0
  6
CONTINUOUS
 62
     2
  5
30B
 10
1086.135962
 20
196.353708
 30
0.0
 11
1084.719675
 21
197.769996
 31
0.0
  0
LINE
  8
LC-005-002-----0
  6
CONTINUOUS
 62
     2
  5
30C
 10
1085.027263
 20
196.654285
 30
0.0
 11
1083.630678
 21
198.05087
 31
0.0
  0
LINE
  8
LC-005-002-----0
  6
CONTINUOUS
 62
     2
  5
30D
 10
1083.931775
 20
196.941652
 30
0.0
 11
1082.554005
 21
198.319422
 31
0.0
  0
LINE
  8
LC-005-002-----0
  6
CONTINUOUS
 62
     2
  5
30E
 10
1082.848956
 20
197.216349
 30
0.0
 11
1081.489175
 21
198.576129
 31
0.0
  0
LINE
  8
LC-005-002-----0
  6
CONTINUOUS
 62
     2
  5
30F
 10
1081.778303
 20
197.47888
 30
0.0
 11
1080.435744
 21
198.821439
 31
0.0
  0
LINE
  8
LC-005-002-----0
  6
CONTINUOUS
 62
     2
  5
310
 10
1080.719348
 20
197.729713
 30
0.0
 11
1079.263646
 21
199.185415
 31
0.0
  0
LINE
  8
LC-005-002-----0
  6
CONTINUOUS
 62
     2
  5
311
 10
1078.559848
 20
199.889213
 30
0.0
 11
1076.539538
 21
201.909523
 31
0.0
  0
LINE
  8
LC-005-002-----0
  6
CONTINUOUS
 62
     2
  5
312
 10
1079.671653
 20
197.969285
 30
0.0
 11
1077.320273
 21
200.320666
 31
0.0
  0
LINE
  8
LC-005-002-----0
  6
CONTINUOUS
 62
     2
  5
313
 10
1076.813452
 20
200.827487
 30
0.0
 11
1075.701143
 21
201.939796
 31
0.0
  0
LINE
  8
LC-005-002-----0
  6
CONTINUOUS
 62
     2
  5
314
 10
1075.900595
 20
200.932221
 30
0.0
 11
1074.863779
 21
201.969037
 31
0.0
  0
LINE
  8
LC-005-002-----0
  6
CONTINUOUS
 62
     2
  5
315
 10
1075.063232
 20
200.961463
 30
0.0
 11
1074.026416
 21
201.998278
 31
0.0
  0
LINE
  8
LC-005-002-----0
  6
CONTINUOUS
 62
     2
  5
316
 10
1074.225868
 20
200.990704
 30
0.0
 11
1073.189052
 21
202.02752
 31
0.0
  0
LINE
  8
LC-005-002-----0
  6
CONTINUOUS
 62
     2
  5
317
 10
1073.388505
 20
201.019945
 30
0.0
 11
1072.351689
 21
202.056761
 31
0.0
  0
LINE
  8
LC-005-002-----0
  6
CONTINUOUS
 62
     2
  5
318
 10
1072.551142
 20
201.049187
 30
0.0
 11
1071.514326
 21
202.086003
 31
0.0
  0
LINE
  8
LC-005-002-----0
  6
CONTINUOUS
 62
     2
  5
319
 10
1071.713778
 20
201.078428
 30
0.0
 11
1070.676962
 21
202.115244
 31
0.0
  0
LINE
  8
LC-005-002-----0
  6
CONTINUOUS
 62
     2
  5
31A
 10
1070.876415
 20
201.107669
 30
0.0
 11
1069.839599
 21
202.144485
 31
0.0
  0
LINE
  8
LC-005-002-----0
  6
CONTINUOUS
 62
     2
  5
31B
 10
1070.039051
 20
201.136911
 30
0.0
 11
1069.002235
 21
202.173727
 31
0.0
  0
LINE
  8
LC-005-002-----0
  6
CONTINUOUS
 62
     2
  5
31C
 10
1069.201688
 20
201.166152
 30
0.0
 11
1068.164872
 21
202.202968
 31
0.0
  0
LINE
  8
LC-005-002-----0
  6
CONTINUOUS
 62
     2
  5
31D
 10
1068.364325
 20
201.195393
 30
0.0
 11
1067.327509
 21
202.232209
 31
0.0
  0
LINE
  8
LC-005-002-----0
  6
CONTINUOUS
 62
     2
  5
31E
 10
1067.526961
 20
201.224635
 30
0.0
 11
1066.490145
 21
202.261451
 31
0.0
  0
LINE
  8
LC-005-002-----0
  6
CONTINUOUS
 62
     2
  5
31F
 10
1066.689598
 20
201.253876
 30
0.0
 11
1065.652782
 21
202.290692
 31
0.0
  0
LINE
  8
LC-005-002-----0
  6
CONTINUOUS
 62
     2
  5
320
 10
1065.852234
 20
201.283117
 30
0.0
 11
1064.815419
 21
202.319933
 31
0.0
  0
LINE
  8
LC-005-002-----0
  6
CONTINUOUS
 62
     2
  5
321
 10
1065.014871
 20
201.312359
 30
0.0
 11
1063.978055
 21
202.349175
 31
0.0
  0
LINE
  8
LC-005-002-----0
  6
CONTINUOUS
 62
     2
  5
322
 10
1064.177508
 20
201.3416
 30
0.0
 11
1063.140692
 21
202.378416
 31
0.0
  0
LINE
  8
LC-005-002-----0
  6
CONTINUOUS
 62
     2
  5
323
 10
1063.340144
 20
201.370841
 30
0.0
 11
1062.303328
 21
202.407657
 31
0.0
  0
LINE
  8
LC-005-002-----0
  6
CONTINUOUS
 62
     2
  5
324
 10
1062.502781
 20
201.400083
 30
0.0
 11
1061.465965
 21
202.436899
 31
0.0
  0
LINE
  8
LC-005-002-----0
  6
CONTINUOUS
 62
     2
  5
325
 10
1061.665418
 20
201.429324
 30
0.0
 11
1060.628602
 21
202.46614
 31
0.0
  0
LINE
  8
LC-005-002-----0
  6
CONTINUOUS
 62
     2
  5
326
 10
1060.828054
 20
201.458565
 30
0.0
 11
1059.791238
 21
202.495381
 31
0.0
  0
LINE
  8
LC-005-002-----0
  6
CONTINUOUS
 62
     2
  5
327
 10
1059.990691
 20
201.487807
 30
0.0
 11
1058.953875
 21
202.524623
 31
0.0
  0
LINE
  8
LC-005-002-----0
  6
CONTINUOUS
 62
     2
  5
328
 10
1059.153327
 20
201.517048
 30
0.0
 11
1058.116511
 21
202.553864
 31
0.0
  0
LINE
  8
LC-005-002-----0
  6
CONTINUOUS
 62
     2
  5
329
 10
1058.315964
 20
201.54629
 30
0.0
 11
1057.279148
 21
202.583105
 31
0.0
  0
LINE
  8
LC-005-002-----0
  6
CONTINUOUS
 62
     2
  5
32A
 10
1057.478601
 20
201.575531
 30
0.0
 11
1056.441785
 21
202.612347
 31
0.0
  0
LINE
  8
LC-005-002-----0
  6
CONTINUOUS
 62
     2
  5
32B
 10
1056.641237
 20
201.604772
 30
0.0
 11
1055.604421
 21
202.641588
 31
0.0
  0
LINE
  8
LC-005-002-----0
  6
CONTINUOUS
 62
     2
  5
32C
 10
1055.803874
 20
201.634014
 30
0.0
 11
1054.767058
 21
202.67083
 31
0.0
  0
LINE
  8
LC-005-002-----0
  6
CONTINUOUS
 62
     2
  5
32D
 10
1054.454215
 20
202.983672
 30
0.0
 11
1053.225513
 21
204.212375
 31
0.0
  0
LINE
  8
LC-005-002-----0
  6
CONTINUOUS
 62
     2
  5
32E
 10
1054.966511
 20
201.663255
 30
0.0
 11
1052.480354
 21
204.149411
 31
0.0
  0
LINE
  8
LC-005-002-----0
  6
CONTINUOUS
 62
     2
  5
32F
 10
1054.129147
 20
201.692496
 30
0.0
 11
1051.972588
 21
203.849056
 31
0.0
  0
LINE
  8
LC-005-002-----0
  6
CONTINUOUS
 62
     2
  5
330
 10
1053.291784
 20
201.721738
 30
0.0
 11
1051.625582
 21
203.387939
 31
0.0
  0
LINE
  8
LC-005-002-----0
  6
CONTINUOUS
 62
     2
  5
331
 10
1052.45442
 20
201.750979
 30
0.0
 11
1051.244318
 21
202.961081
 31
0.0
  0
LINE
  8
LC-005-002-----0
  6
CONTINUOUS
 62
     2
  5
332
 10
1051.617057
 20
201.78022
 30
0.0
 11
1050.580241
 21
202.817036
 31
0.0
  0
LINE
  8
LC-005-002-----0
  6
CONTINUOUS
 62
     2
  5
333
 10
1050.779694
 20
201.809462
 30
0.0
 11
1049.742878
 21
202.846277
 31
0.0
  0
LINE
  8
LC-005-002-----0
  6
CONTINUOUS
 62
     2
  5
334
 10
1049.94233
 20
201.838703
 30
0.0
 11
1048.905514
 21
202.875519
 31
0.0
  0
LINE
  8
LC-005-002-----0
  6
CONTINUOUS
 62
     2
  5
335
 10
1049.104967
 20
201.867944
 30
0.0
 11
1048.068151
 21
202.90476
 31
0.0
  0
LINE
  8
LC-005-002-----0
  6
CONTINUOUS
 62
     2
  5
336
 10
1048.267603
 20
201.897186
 30
0.0
 11
1047.230788
 21
202.934002
 31
0.0
  0
LINE
  8
LC-005-002-----0
  6
CONTINUOUS
 62
     2
  5
337
 10
1047.43024
 20
201.926427
 30
0.0
 11
1046.393424
 21
202.963243
 31
0.0
  0
LINE
  8
LC-005-002-----0
  6
CONTINUOUS
 62
     2
  5
338
 10
1046.592877
 20
201.955668
 30
0.0
 11
1045.556061
 21
202.992484
 31
0.0
  0
LINE
  8
LC-005-002-----0
  6
CONTINUOUS
 62
     2
  5
339
 10
1045.755513
 20
201.98491
 30
0.0
 11
1044.718697
 21
203.021726
 31
0.0
  0
LINE
  8
LC-005-002-----0
  6
CONTINUOUS
 62
     2
  5
33A
 10
1044.91815
 20
202.014151
 30
0.0
 11
1043.881334
 21
203.050967
 31
0.0
  0
LINE
  8
LC-005-002-----0
  6
CONTINUOUS
 62
     2
  5
33B
 10
1044.080787
 20
202.043392
 30
0.0
 11
1043.043971
 21
203.080208
 31
0.0
  0
LINE
  8
LC-005-002-----0
  6
CONTINUOUS
 62
     2
  5
33C
 10
1043.243423
 20
202.072634
 30
0.0
 11
1042.206607
 21
203.10945
 31
0.0
  0
LINE
  8
LC-005-002-----0
  6
CONTINUOUS
 62
     2
  5
33D
 10
1042.40606
 20
202.101875
 30
0.0
 11
1041.369244
 21
203.138691
 31
0.0
  0
LINE
  8
LC-005-002-----0
  6
CONTINUOUS
 62
     2
  5
33E
 10
1041.568696
 20
202.131116
 30
0.0
 11
1040.531881
 21
203.167932
 31
0.0
  0
LINE
  8
LC-005-002-----0
  6
CONTINUOUS
 62
     2
  5
33F
 10
1040.731333
 20
202.160358
 30
0.0
 11
1039.694517
 21
203.197174
 31
0.0
  0
LINE
  8
LC-005-002-----0
  6
CONTINUOUS
 62
     2
  5
340
 10
1039.89397
 20
202.189599
 30
0.0
 11
1038.857154
 21
203.226415
 31
0.0
  0
LINE
  8
LC-005-002-----0
  6
CONTINUOUS
 62
     2
  5
341
 10
1039.056606
 20
202.218841
 30
0.0
 11
1038.01979
 21
203.255656
 31
0.0
  0
LINE
  8
LC-005-002-----0
  6
CONTINUOUS
 62
     2
  5
342
 10
1038.219243
 20
202.248082
 30
0.0
 11
1037.182427
 21
203.284898
 31
0.0
  0
LINE
  8
LC-005-002-----0
  6
CONTINUOUS
 62
     2
  5
343
 10
1037.381879
 20
202.277323
 30
0.0
 11
1036.345064
 21
203.314139
 31
0.0
  0
LINE
  8
LC-005-002-----0
  6
CONTINUOUS
 62
     2
  5
344
 10
1036.544516
 20
202.306565
 30
0.0
 11
1035.5077
 21
203.34338
 31
0.0
  0
LINE
  8
LC-005-002-----0
  6
CONTINUOUS
 62
     2
  5
345
 10
1035.707153
 20
202.335806
 30
0.0
 11
1034.670337
 21
203.372622
 31
0.0
  0
LINE
  8
LC-005-002-----0
  6
CONTINUOUS
 62
     2
  5
346
 10
1034.869789
 20
202.365047
 30
0.0
 11
1033.832973
 21
203.401863
 31
0.0
  0
LINE
  8
LC-005-002-----0
  6
CONTINUOUS
 62
     2
  5
347
 10
1034.032426
 20
202.394289
 30
0.0
 11
1032.99561
 21
203.431105
 31
0.0
  0
LINE
  8
LC-005-002-----0
  6
CONTINUOUS
 62
     2
  5
348
 10
1033.195063
 20
202.42353
 30
0.0
 11
1032.161001
 21
203.457591
 31
0.0
  0
LINE
  8
LC-005-002-----0
  6
CONTINUOUS
 62
     2
  5
349
 10
1032.357699
 20
202.452771
 30
0.0
 11
1031.483259
 21
203.327212
 31
0.0
  0
LINE
  8
LC-005-002-----0
  6
CONTINUOUS
 62
     2
  5
34A
 10
1031.684297
 20
202.318051
 30
0.0
 11
1030.966049
 21
203.036299
 31
0.0
  0
LINE
  8
LC-005-002-----0
  6
CONTINUOUS
 62
     2
  5
34B
 10
1031.296309
 20
201.897918
 30
0.0
 11
1030.569764
 21
202.624462
 31
0.0
  0
LINE
  8
LC-005-002-----0
  6
CONTINUOUS
 62
     2
  5
34C
 10
1031.096996
 20
201.289109
 30
0.0
 11
1030.296632
 21
202.089472
 31
0.0
  0
LINE
  8
LC-005-002-----0
  6
CONTINUOUS
 62
     2
  5
34D
 10
1030.907778
 20
200.670205
 30
0.0
 11
1030.10693
 21
201.471053
 31
0.0
  0
LINE
  8
LC-005-002-----0
  6
CONTINUOUS
 62
     2
  5
34E
 10
1030.71856
 20
200.051301
 30
0.0
 11
1029.917712
 21
200.852148
 31
0.0
  0
LINE
  8
LC-005-002-----0
  6
CONTINUOUS
 62
     2
  5
34F
 10
1030.529342
 20
199.432396
 30
0.0
 11
1029.728494
 21
200.233244
 31
0.0
  0
LINE
  8
LC-005-002-----0
  6
CONTINUOUS
 62
     2
  5
350
 10
1030.340124
 20
198.813492
 30
0.0
 11
1029.539276
 21
199.61434
 31
0.0
  0
LINE
  8
LC-005-002-----0
  6
CONTINUOUS
 62
     2
  5
351
 10
1030.150906
 20
198.194588
 30
0.0
 11
1029.350058
 21
198.995436
 31
0.0
  0
LINE
  8
LC-005-002-----0
  6
CONTINUOUS
 62
     2
  5
352
 10
1029.961688
 20
197.575684
 30
0.0
 11
1029.16084
 21
198.376532
 31
0.0
  0
LINE
  8
LC-005-002-----0
  6
CONTINUOUS
 62
     2
  5
353
 10
1029.77247
 20
196.95678
 30
0.0
 11
1028.971622
 21
197.757628
 31
0.0
  0
LINE
  8
LC-005-002-----0
  6
CONTINUOUS
 62
     2
  5
354
 10
1029.583252
 20
196.337876
 30
0.0
 11
1028.782404
 21
197.138724
 31
0.0
  0
LINE
  8
LC-005-002-----0
  6
CONTINUOUS
 62
     2
  5
355
 10
1023.665454
 20
202.255674
 30
0.0
 11
1022.441616
 21
203.479512
 31
0.0
  0
LINE
  8
LC-005-002-----0
  6
CONTINUOUS
 62
     2
  5
356
 10
1029.394034
 20
195.718972
 30
0.0
 11
1028.593186
 21
196.51982
 31
0.0
  0
LINE
  8
LC-005-002-----0
  6
CONTINUOUS
 62
     2
  5
357
 10
1023.763706
 20
201.3493
 30
0.0
 11
1021.275069
 21
203.837937
 31
0.0
  0
LINE
  8
LC-005-002-----0
  6
CONTINUOUS
 62
     2
  5
358
 10
1029.204816
 20
195.100068
 30
0.0
 11
1028.403968
 21
195.900916
 31
0.0
  0
LINE
  8
LC-005-002-----0
  6
CONTINUOUS
 62
     2
  5
359
 10
1023.59888
 20
200.706004
 30
0.0
 11
1022.776498
 21
201.528386
 31
0.0
  0
LINE
  8
LC-005-002-----0
  6
CONTINUOUS
 62
     2
  5
35A
 10
1021.617256
 20
202.687628
 30
0.0
 11
1020.11108
 21
204.193804
 31
0.0
  0
LINE
  8
LC-005-002-----0
  6
CONTINUOUS
 62
     2
  5
35B
 10
1029.015598
 20
194.481164
 30
0.0
 11
1028.21475
 21
195.282012
 31
0.0
  0
LINE
  8
LC-005-002-----0
  6
CONTINUOUS
 62
     2
  5
35C
 10
1023.409662
 20
200.0871
 30
0.0
 11
1022.608814
 21
200.887948
 31
0.0
  0
LINE
  8
LC-005-002-----0
  6
CONTINUOUS
 62
     2
  5
35D
 10
1020.453266
 20
203.043496
 30
0.0
 11
1018.94709
 21
204.549672
 31
0.0
  0
LINE
  8
LC-005-002-----0
  6
CONTINUOUS
 62
     2
  5
35E
 10
1028.82638
 20
193.86226
 30
0.0
 11
1028.025532
 21
194.663108
 31
0.0
  0
LINE
  8
LC-005-002-----0
  6
CONTINUOUS
 62
     2
  5
35F
 10
1023.220444
 20
199.468196
 30
0.0
 11
1022.419596
 21
200.269044
 31
0.0
  0
LINE
  8
LC-005-002-----0
  6
CONTINUOUS
 62
     2
  5
360
 10
1019.289277
 20
203.399363
 30
0.0
 11
1017.783101
 21
204.905539
 31
0.0
  0
LINE
  8
LC-005-002-----0
  6
CONTINUOUS
 62
     2
  5
361
 10
1028.637162
 20
193.243356
 30
0.0
 11
1027.836314
 21
194.044204
 31
0.0
  0
LINE
  8
LC-005-002-----0
  6
CONTINUOUS
 62
     2
  5
362
 10
1023.031226
 20
198.849291
 30
0.0
 11
1022.230378
 21
199.650139
 31
0.0
  0
LINE
  8
LC-005-002-----0
  6
CONTINUOUS
 62
     2
  5
363
 10
1018.125288
 20
203.75523
 30
0.0
 11
1016.619112
 21
205.261406
 31
0.0
  0
LINE
  8
LC-005-002-----0
  6
CONTINUOUS
 62
     2
  5
364
 10
1028.447944
 20
192.624452
 30
0.0
 11
1027.647096
 21
193.4253
 31
0.0
  0
LINE
  8
LC-005-002-----0
  6
CONTINUOUS
 62
     2
  5
365
 10
1022.842008
 20
198.230387
 30
0.0
 11
1022.04116
 21
199.031235
 31
0.0
  0
LINE
  8
LC-005-002-----0
  6
CONTINUOUS
 62
     2
  5
366
 10
1016.961298
 20
204.111097
 30
0.0
 11
1015.455123
 21
205.617273
 31
0.0
  0
LINE
  8
LC-005-002-----0
  6
CONTINUOUS
 62
     2
  5
367
 10
1028.258726
 20
192.005548
 30
0.0
 11
1027.457878
 21
192.806396
 31
0.0
  0
LINE
  8
LC-005-002-----0
  6
CONTINUOUS
 62
     2
  5
368
 10
1022.65279
 20
197.611483
 30
0.0
 11
1021.851943
 21
198.412331
 31
0.0
  0
LINE
  8
LC-005-002-----0
  6
CONTINUOUS
 62
     2
  5
369
 10
1015.797309
 20
204.466965
 30
0.0
 11
1014.291133
 21
205.973141
 31
0.0
  0
LINE
  8
LC-005-002-----0
  6
CONTINUOUS
 62
     2
  5
36A
 10
1028.069508
 20
191.386644
 30
0.0
 11
1027.26866
 21
192.187491
 31
0.0
  0
LINE
  8
LC-005-002-----0
  6
CONTINUOUS
 62
     2
  5
36B
 10
1022.463573
 20
196.992579
 30
0.0
 11
1021.662725
 21
197.793427
 31
0.0
  0
LINE
  8
LC-005-002-----0
  6
CONTINUOUS
 62
     2
  5
36C
 10
1014.63332
 20
204.822832
 30
0.0
 11
1013.127144
 21
206.329008
 31
0.0
  0
LINE
  8
LC-005-002-----0
  6
CONTINUOUS
 62
     2
  5
36D
 10
1027.88029
 20
190.767739
 30
0.0
 11
1027.079442
 21
191.568587
 31
0.0
  0
LINE
  8
LC-005-002-----0
  6
CONTINUOUS
 62
     2
  5
36E
 10
1022.274355
 20
196.373675
 30
0.0
 11
1021.473507
 21
197.174523
 31
0.0
  0
LINE
  8
LC-005-002-----0
  6
CONTINUOUS
 62
     2
  5
36F
 10
1013.469331
 20
205.178699
 30
0.0
 11
1012.101455
 21
206.546575
 31
0.0
  0
LINE
  8
LC-005-002-----0
  6
CONTINUOUS
 62
     2
  5
370
 10
1027.691072
 20
190.148835
 30
0.0
 11
1026.890224
 21
190.949683
 31
0.0
  0
LINE
  8
LC-005-002-----0
  6
CONTINUOUS
 62
     2
  5
371
 10
1022.085137
 20
195.754771
 30
0.0
 11
1021.284289
 21
196.555619
 31
0.0
  0
LINE
  8
LC-005-002-----0
  6
CONTINUOUS
 62
     2
  5
372
 10
1012.305341
 20
205.534566
 30
0.0
 11
1011.315277
 21
206.524631
 31
0.0
  0
LINE
  8
LC-005-002-----0
  6
CONTINUOUS
 62
     2
  5
373
 10
1027.501854
 20
189.529931
 30
0.0
 11
1026.701006
 21
190.330779
 31
0.0
  0
LINE
  8
LC-005-002-----0
  6
CONTINUOUS
 62
     2
  5
374
 10
1021.895919
 20
195.135867
 30
0.0
 11
1021.095071
 21
195.936715
 31
0.0
  0
LINE
  8
LC-005-002-----0
  6
CONTINUOUS
 62
     2
  5
375
 10
1011.502323
 20
205.529462
 30
0.0
 11
1010.529099
 21
206.502687
 31
0.0
  0
LINE
  8
LC-005-002-----0
  6
CONTINUOUS
 62
     2
  5
376
 10
1027.312636
 20
188.911027
 30
0.0
 11
1026.511788
 21
189.711875
 31
0.0
  0
LINE
  8
LC-005-002-----0
  6
CONTINUOUS
 62
     2
  5
377
 10
1021.706701
 20
194.516963
 30
0.0
 11
1020.905853
 21
195.317811
 31
0.0
  0
LINE
  8
LC-005-002-----0
  6
CONTINUOUS
 62
     2
  5
378
 10
1010.716146
 20
205.507518
 30
0.0
 11
1009.742921
 21
206.480742
 31
0.0
  0
LINE
  8
LC-005-002-----0
  6
CONTINUOUS
 62
     2
  5
379
 10
1026.999033
 20
188.416509
 30
0.0
 11
1026.192826
 21
189.222715
 31
0.0
  0
LINE
  8
LC-005-002-----0
  6
CONTINUOUS
 62
     2
  5
37A
 10
1021.517483
 20
193.898059
 30
0.0
 11
1020.716635
 21
194.698907
 31
0.0
  0
LINE
  8
LC-005-002-----0
  6
CONTINUOUS
 62
     2
  5
37B
 10
1009.929968
 20
205.485574
 30
0.0
 11
1008.956743
 21
206.458798
 31
0.0
  0
LINE
  8
LC-005-002-----0
  6
CONTINUOUS
 62
     2
  5
37C
 10
1026.428783
 20
188.178637
 30
0.0
 11
1025.028837
 21
189.578583
 31
0.0
  0
LINE
  8
LC-005-002-----0
  6
CONTINUOUS
 62
     2
  5
37D
 10
1021.328265
 20
193.279155
 30
0.0
 11
1020.527417
 21
194.080003
 31
0.0
  0
LINE
  8
LC-005-002-----0
  6
CONTINUOUS
 62
     2
  5
37E
 10
1009.14379
 20
205.46363
 30
0.0
 11
1008.170565
 21
206.436854
 31
0.0
  0
LINE
  8
LC-005-002-----0
  6
CONTINUOUS
 62
     2
  5
37F
 10
1025.371024
 20
188.428274
 30
0.0
 11
1023.864848
 21
189.93445
 31
0.0
  0
LINE
  8
LC-005-002-----0
  6
CONTINUOUS
 62
     2
  5
380
 10
1021.139047
 20
192.660251
 30
0.0
 11
1020.338199
 21
193.461099
 31
0.0
  0
LINE
  8
LC-005-002-----0
  6
CONTINUOUS
 62
     2
  5
381
 10
1008.357612
 20
205.441686
 30
0.0
 11
1007.384388
 21
206.41491
 31
0.0
  0
LINE
  8
LC-005-002-----0
  6
CONTINUOUS
 62
     2
  5
382
 10
1024.207034
 20
188.784141
 30
0.0
 11
1022.700858
 21
190.290317
 31
0.0
  0
LINE
  8
LC-005-002-----0
  6
CONTINUOUS
 62
     2
  5
383
 10
1020.949829
 20
192.041347
 30
0.0
 11
1020.148981
 21
192.842195
 31
0.0
  0
LINE
  8
LC-005-002-----0
  6
CONTINUOUS
 62
     2
  5
384
 10
1007.571434
 20
205.419741
 30
0.0
 11
1006.59821
 21
206.392966
 31
0.0
  0
LINE
  8
LC-005-002-----0
  6
CONTINUOUS
 62
     2
  5
385
 10
1023.043045
 20
189.140008
 30
0.0
 11
1021.536869
 21
190.646184
 31
0.0
  0
LINE
  8
LC-005-002-----0
  6
CONTINUOUS
 62
     2
  5
386
 10
1020.760611
 20
191.422443
 30
0.0
 11
1019.959763
 21
192.223291
 31
0.0
  0
LINE
  8
LC-005-002-----0
  6
CONTINUOUS
 62
     2
  5
387
 10
1006.785256
 20
205.397797
 30
0.0
 11
1005.812032
 21
206.371022
 31
0.0
  0
LINE
  8
LC-005-002-----0
  6
CONTINUOUS
 62
     2
  5
388
 10
1021.879056
 20
189.495876
 30
0.0
 11
1019.770545
 21
191.604386
 31
0.0
  0
LINE
  8
LC-005-002-----0
  6
CONTINUOUS
 62
     2
  5
389
 10
1005.999078
 20
205.375853
 30
0.0
 11
1005.025854
 21
206.349077
 31
0.0
  0
LINE
  8
LC-005-002-----0
  6
CONTINUOUS
 62
     2
  5
38A
 10
1020.715067
 20
189.851743
 30
0.0
 11
1019.61029
 21
190.956519
 31
0.0
  0
LINE
  8
LC-005-002-----0
  6
CONTINUOUS
 62
     2
  5
38B
 10
1005.212901
 20
205.353909
 30
0.0
 11
1004.239676
 21
206.327133
 31
0.0
  0
LINE
  8
LC-005-002-----0
  6
CONTINUOUS
 62
     2
  5
38C
 10
1004.426723
 20
205.331965
 30
0.0
 11
1003.453498
 21
206.305189
 31
0.0
  0
LINE
  8
LC-005-002-----0
  6
CONTINUOUS
 62
     2
  5
38D
 10
1003.640545
 20
205.310021
 30
0.0
 11
1002.66732
 21
206.283245
 31
0.0
  0
LINE
  8
LC-005-002-----0
  6
CONTINUOUS
 62
     2
  5
38E
 10
1002.854367
 20
205.288076
 30
0.0
 11
1001.881143
 21
206.261301
 31
0.0
  0
LINE
  8
LC-005-002-----0
  6
CONTINUOUS
 62
     2
  5
38F
 10
1002.068189
 20
205.266132
 30
0.0
 11
1001.094965
 21
206.239357
 31
0.0
  0
LINE
  8
LC-005-002-----0
  6
CONTINUOUS
 62
     2
  5
390
 10
1001.282011
 20
205.244188
 30
0.0
 11
1000.357283
 21
206.168916
 31
0.0
  0
LINE
  8
LC-005-002-----0
  6
CONTINUOUS
 62
     2
  5
391
 10
1000.533572
 20
205.184505
 30
0.0
 11
999.703106
 21
206.014971
 31
0.0
  0
LINE
  8
LC-005-002-----0
  6
CONTINUOUS
 62
     2
  5
392
 10
999.8862
 20
205.023755
 30
0.0
 11
999.114149
 21
205.795806
 31
0.0
  0
LINE
  8
LC-005-002-----0
  6
CONTINUOUS
 62
     2
  5
393
 10
999.316552
 20
204.785281
 30
0.0
 11
998.580235
 21
205.521598
 31
0.0
  0
LINE
  8
LC-005-002-----0
  6
CONTINUOUS
 62
     2
  5
394
 10
998.811395
 20
204.482316
 30
0.0
 11
998.095469
 21
205.198242
 31
0.0
  0
LINE
  8
LC-005-002-----0
  6
CONTINUOUS
 62
     2
  5
395
 10
998.364132
 20
204.121457
 30
0.0
 11
997.656611
 21
204.828978
 31
0.0
  0
LINE
  8
LC-005-002-----0
  6
CONTINUOUS
 62
     2
  5
396
 10
1006.960782
 20
194.716685
 30
0.0
 11
1006.706244
 21
194.971223
 31
0.0
  0
LINE
  8
LC-005-002-----0
  6
CONTINUOUS
 62
     2
  5
397
 10
997.972221
 20
203.705246
 30
0.0
 11
997.262355
 21
204.415112
 31
0.0
  0
LINE
  8
LC-005-002-----0
  6
CONTINUOUS
 62
     2
  5
398
 10
1006.771564
 20
194.097781
 30
0.0
 11
1005.542255
 21
195.32709
 31
0.0
  0
LINE
  8
LC-005-002-----0
  6
CONTINUOUS
 62
     2
  5
399
 10
997.636363
 20
203.232981
 30
0.0
 11
996.913063
 21
203.956282
 31
0.0
  0
LINE
  8
LC-005-002-----0
  6
CONTINUOUS
 62
     2
  5
39A
 10
1005.884441
 20
194.176782
 30
0.0
 11
1004.378265
 21
195.682958
 31
0.0
  0
LINE
  8
LC-005-002-----0
  6
CONTINUOUS
 62
     2
  5
39B
 10
997.360712
 20
202.700511
 30
0.0
 11
996.61084
 21
203.450383
 31
0.0
  0
LINE
  8
LC-005-002-----0
  6
CONTINUOUS
 62
     2
  5
39C
 10
1004.720452
 20
194.532649
 30
0.0
 11
1003.214276
 21
196.038825
 31
0.0
  0
LINE
  8
LC-005-002-----0
  6
CONTINUOUS
 62
     2
  5
39D
 10
997.154305
 20
202.098796
 30
0.0
 11
996.35997
 21
202.893131
 31
0.0
  0
LINE
  8
LC-005-002-----0
  6
CONTINUOUS
 62
     2
  5
39E
 10
1003.556463
 20
194.888516
 30
0.0
 11
1002.050287
 21
196.394692
 31
0.0
  0
LINE
  8
LC-005-002-----0
  6
CONTINUOUS
 62
     2
  5
39F
 10
997.03511
 20
201.409869
 30
0.0
 11
996.16795
 21
202.277029
 31
0.0
  0
LINE
  8
LC-005-002-----0
  6
CONTINUOUS
 62
     2
  5
3A0
 10
1002.392473
 20
195.244383
 30
0.0
 11
1000.886298
 21
196.750559
 31
0.0
  0
LINE
  8
LC-005-002-----0
  6
CONTINUOUS
 62
     2
  5
3A1
 10
997.042674
 20
200.594182
 30
0.0
 11
996.047842
 21
201.589015
 31
0.0
  0
LINE
  8
LC-005-002-----0
  6
CONTINUOUS
 62
     2
  5
3A2
 10
1001.228484
 20
195.600251
 30
0.0
 11
999.70602
 21
197.122715
 31
0.0
  0
LINE
  8
LC-005-002-----0
  6
CONTINUOUS
 62
     2
  5
3A3
 10
997.300787
 20
199.527948
 30
0.0
 11
996.024233
 21
200.804502
 31
0.0
  0
LINE
  8
LC-005-002-----0
  6
CONTINUOUS
 62
     2
  5
3A4
 10
1000.064495
 20
195.956118
 30
0.0
 11
996.15291
 21
199.867703
 31
0.0
  0
LINE
  8
LC-005-002-----0
  6
CONTINUOUS
 62
     2
  5
3A5
 10
998.746177
 20
196.466314
 30
0.0
 11
996.644386
 21
198.568105
 31
0.0
  0
ENDBLK
  8
0
  5
3A6
  0
BLOCK
  8
0
  5
3A8
  2
*X22
 70
    65
 10
742.617765
 20
-25.404038
 30
0.0
  3
*X22
  0
LINE
  8
LC-005-002-----0
  6
CONTINUOUS
 62
     2
  5
3A9
 10
1006.09007
 20
202.860495
 30
0.0
 11
1003.038567
 21
205.911998
 31
0.0
  0
LINE
  8
LC-005-002-----0
  6
CONTINUOUS
 62
     2
  5
3AA
 10
1006.504419
 20
201.638024
 30
0.0
 11
1004.570368
 21
203.572076
 31
0.0
  0
LINE
  8
LC-005-002-----0
  6
CONTINUOUS
 62
     2
  5
3AB
 10
1003.750148
 20
204.392295
 30
0.0
 11
1001.95386
 21
206.188583
 31
0.0
  0
LINE
  8
LC-005-002-----0
  6
CONTINUOUS
 62
     2
  5
3AC
 10
1006.914293
 20
200.420029
 30
0.0
 11
1005.324049
 21
202.010272
 31
0.0
  0
LINE
  8
LC-005-002-----0
  6
CONTINUOUS
 62
     2
  5
3AD
 10
1002.212846
 20
205.121475
 30
0.0
 11
1001.095007
 21
206.239314
 31
0.0
  0
LINE
  8
LC-005-002-----0
  6
CONTINUOUS
 62
     2
  5
3AE
 10
1007.324166
 20
199.202033
 30
0.0
 11
1005.733923
 21
200.792277
 31
0.0
  0
LINE
  8
LC-005-002-----0
  6
CONTINUOUS
 62
     2
  5
3AF
 10
1001.285945
 20
205.240254
 30
0.0
 11
1000.357283
 21
206.168916
 31
0.0
  0
LINE
  8
LC-005-002-----0
  6
CONTINUOUS
 62
     2
  5
3B0
 10
1007.73404
 20
197.984037
 30
0.0
 11
1006.143796
 21
199.574281
 31
0.0
  0
LINE
  8
LC-005-002-----0
  6
CONTINUOUS
 62
     2
  5
3B1
 10
1000.533572
 20
205.184505
 30
0.0
 11
999.703106
 21
206.014971
 31
0.0
  0
LINE
  8
LC-005-002-----0
  6
CONTINUOUS
 62
     2
  5
3B2
 10
1008.143914
 20
196.766042
 30
0.0
 11
1006.55367
 21
198.356285
 31
0.0
  0
LINE
  8
LC-005-002-----0
  6
CONTINUOUS
 62
     2
  5
3B3
 10
999.8862
 20
205.023755
 30
0.0
 11
999.114149
 21
205.795806
 31
0.0
  0
LINE
  8
LC-005-002-----0
  6
CONTINUOUS
 62
     2
  5
3B4
 10
1008.553787
 20
195.548046
 30
0.0
 11
1006.963544
 21
197.138289
 31
0.0
  0
LINE
  8
LC-005-002-----0
  6
CONTINUOUS
 62
     2
  5
3B5
 10
999.316552
 20
204.785281
 30
0.0
 11
998.580235
 21
205.521598
 31
0.0
  0
LINE
  8
LC-005-002-----0
  6
CONTINUOUS
 62
     2
  5
3B6
 10
1008.963661
 20
194.33005
 30
0.0
 11
1007.373417
 21
195.920294
 31
0.0
  0
LINE
  8
LC-005-002-----0
  6
CONTINUOUS
 62
     2
  5
3B7
 10
998.811395
 20
204.482316
 30
0.0
 11
998.095469
 21
205.198242
 31
0.0
  0
LINE
  8
LC-005-002-----0
  6
CONTINUOUS
 62
     2
  5
3B8
 10
1009.373535
 20
193.112054
 30
0.0
 11
1007.783291
 21
194.702298
 31
0.0
  0
LINE
  8
LC-005-002-----0
  6
CONTINUOUS
 62
     2
  5
3B9
 10
998.364132
 20
204.121457
 30
0.0
 11
997.656611
 21
204.828978
 31
0.0
  0
LINE
  8
LC-005-002-----0
  6
CONTINUOUS
 62
     2
  5
3BA
 10
1009.757655
 20
191.919812
 30
0.0
 11
1008.193165
 21
193.484302
 31
0.0
  0
LINE
  8
LC-005-002-----0
  6
CONTINUOUS
 62
     2
  5
3BB
 10
997.972221
 20
203.705246
 30
0.0
 11
997.262355
 21
204.415112
 31
0.0
  0
LINE
  8
LC-005-002-----0
  6
CONTINUOUS
 62
     2
  5
3BC
 10
1009.757655
 20
191.11169
 30
0.0
 11
1008.603038
 21
192.266307
 31
0.0
  0
LINE
  8
LC-005-002-----0
  6
CONTINUOUS
 62
     2
  5
3BD
 10
997.636363
 20
203.232981
 30
0.0
 11
996.913063
 21
203.956282
 31
0.0
  0
LINE
  8
LC-005-002-----0
  6
CONTINUOUS
 62
     2
  5
3BE
 10
1009.757655
 20
190.303568
 30
0.0
 11
1008.757655
 21
191.303568
 31
0.0
  0
LINE
  8
LC-005-002-----0
  6
CONTINUOUS
 62
     2
  5
3BF
 10
997.360712
 20
202.700511
 30
0.0
 11
996.61084
 21
203.450383
 31
0.0
  0
LINE
  8
LC-005-002-----0
  6
CONTINUOUS
 62
     2
  5
3C0
 10
1009.757655
 20
189.495446
 30
0.0
 11
1008.757655
 21
190.495446
 31
0.0
  0
LINE
  8
LC-005-002-----0
  6
CONTINUOUS
 62
     2
  5
3C1
 10
997.154305
 20
202.098796
 30
0.0
 11
996.35997
 21
202.893131
 31
0.0
  0
LINE
  8
LC-005-002-----0
  6
CONTINUOUS
 62
     2
  5
3C2
 10
1009.757655
 20
188.687324
 30
0.0
 11
1008.757655
 21
189.687324
 31
0.0
  0
LINE
  8
LC-005-002-----0
  6
CONTINUOUS
 62
     2
  5
3C3
 10
997.03511
 20
201.409869
 30
0.0
 11
996.16795
 21
202.277029
 31
0.0
  0
LINE
  8
LC-005-002-----0
  6
CONTINUOUS
 62
     2
  5
3C4
 10
1009.757655
 20
187.879202
 30
0.0
 11
1008.757655
 21
188.879202
 31
0.0
  0
LINE
  8
LC-005-002-----0
  6
CONTINUOUS
 62
     2
  5
3C5
 10
997.018862
 20
200.617995
 30
0.0
 11
996.047842
 21
201.589015
 31
0.0
  0
LINE
  8
LC-005-002-----0
  6
CONTINUOUS
 62
     2
  5
3C6
 10
1009.757655
 20
187.07108
 30
0.0
 11
1008.757655
 21
188.07108
 31
0.0
  0
LINE
  8
LC-005-002-----0
  6
CONTINUOUS
 62
     2
  5
3C7
 10
997.018862
 20
199.809873
 30
0.0
 11
996.018862
 21
200.809873
 31
0.0
  0
LINE
  8
LC-005-002-----0
  6
CONTINUOUS
 62
     2
  5
3C8
 10
1009.757655
 20
186.262958
 30
0.0
 11
1008.757655
 21
187.262958
 31
0.0
  0
LINE
  8
LC-005-002-----0
  6
CONTINUOUS
 62
     2
  5
3C9
 10
997.018862
 20
199.001751
 30
0.0
 11
996.018862
 21
200.001751
 31
0.0
  0
LINE
  8
LC-005-002-----0
  6
CONTINUOUS
 62
     2
  5
3CA
 10
1009.757655
 20
185.454836
 30
0.0
 11
1008.757655
 21
186.454836
 31
0.0
  0
LINE
  8
LC-005-002-----0
  6
CONTINUOUS
 62
     2
  5
3CB
 10
997.018862
 20
198.193629
 30
0.0
 11
996.018862
 21
199.193629
 31
0.0
  0
LINE
  8
LC-005-002-----0
  6
CONTINUOUS
 62
     2
  5
3CC
 10
1009.757655
 20
184.646714
 30
0.0
 11
1008.757655
 21
185.646714
 31
0.0
  0
LINE
  8
LC-005-002-----0
  6
CONTINUOUS
 62
     2
  5
3CD
 10
997.018862
 20
197.385507
 30
0.0
 11
996.018862
 21
198.385507
 31
0.0
  0
LINE
  8
LC-005-002-----0
  6
CONTINUOUS
 62
     2
  5
3CE
 10
1009.757655
 20
183.838592
 30
0.0
 11
1008.757655
 21
184.838592
 31
0.0
  0
LINE
  8
LC-005-002-----0
  6
CONTINUOUS
 62
     2
  5
3CF
 10
997.018862
 20
196.577385
 30
0.0
 11
996.018862
 21
197.577385
 31
0.0
  0
LINE
  8
LC-005-002-----0
  6
CONTINUOUS
 62
     2
  5
3D0
 10
1009.757655
 20
183.03047
 30
0.0
 11
1008.757655
 21
184.03047
 31
0.0
  0
LINE
  8
LC-005-002-----0
  6
CONTINUOUS
 62
     2
  5
3D1
 10
997.018862
 20
195.769263
 30
0.0
 11
996.018862
 21
196.769263
 31
0.0
  0
LINE
  8
LC-005-002-----0
  6
CONTINUOUS
 62
     2
  5
3D2
 10
1009.757655
 20
182.222348
 30
0.0
 11
1008.757655
 21
183.222348
 31
0.0
  0
LINE
  8
LC-005-002-----0
  6
CONTINUOUS
 62
     2
  5
3D3
 10
997.018862
 20
194.961141
 30
0.0
 11
996.018862
 21
195.961141
 31
0.0
  0
LINE
  8
LC-005-002-----0
  6
CONTINUOUS
 62
     2
  5
3D4
 10
1009.753882
 20
181.417999
 30
0.0
 11
1008.757655
 21
182.414226
 31
0.0
  0
LINE
  8
LC-005-002-----0
  6
CONTINUOUS
 62
     2
  5
3D5
 10
997.018862
 20
194.153019
 30
0.0
 11
996.018862
 21
195.153019
 31
0.0
  0
LINE
  8
LC-005-002-----0
  6
CONTINUOUS
 62
     2
  5
3D6
 10
1009.600379
 20
180.763379
 30
0.0
 11
1008.757655
 21
181.606104
 31
0.0
  0
LINE
  8
LC-005-002-----0
  6
CONTINUOUS
 62
     2
  5
3D7
 10
996.662984
 20
193.700775
 30
0.0
 11
996.018862
 21
194.344897
 31
0.0
  0
LINE
  8
LC-005-002-----0
  6
CONTINUOUS
 62
     2
  5
3D8
 10
1009.294606
 20
180.261031
 30
0.0
 11
1008.581566
 21
180.97407
 31
0.0
  0
LINE
  8
LC-005-002-----0
  6
CONTINUOUS
 62
     2
  5
3D9
 10
1008.869316
 20
179.878198
 30
0.0
 11
1008.133434
 21
180.61408
 31
0.0
  0
LINE
  8
LC-005-002-----0
  6
CONTINUOUS
 62
     2
  5
3DA
 10
1008.318389
 20
179.621004
 30
0.0
 11
1007.398603
 21
180.54079
 31
0.0
  0
LINE
  8
LC-005-002-----0
  6
CONTINUOUS
 62
     2
  5
3DB
 10
1007.590481
 20
179.54079
 30
0.0
 11
1006.590481
 21
180.54079
 31
0.0
  0
LINE
  8
LC-005-002-----0
  6
CONTINUOUS
 62
     2
  5
3DC
 10
1006.782359
 20
179.54079
 30
0.0
 11
1005.782359
 21
180.54079
 31
0.0
  0
LINE
  8
LC-005-002-----0
  6
CONTINUOUS
 62
     2
  5
3DD
 10
1005.974237
 20
179.54079
 30
0.0
 11
1004.974237
 21
180.54079
 31
0.0
  0
LINE
  8
LC-005-002-----0
  6
CONTINUOUS
 62
     2
  5
3DE
 10
1012.588969
 20
172.117936
 30
0.0
 11
1011.251199
 21
173.455705
 31
0.0
  0
LINE
  8
LC-005-002-----0
  6
CONTINUOUS
 62
     2
  5
3DF
 10
1005.166115
 20
179.54079
 30
0.0
 11
1004.166115
 21
180.54079
 31
0.0
  0
LINE
  8
LC-005-002-----0
  6
CONTINUOUS
 62
     2
  5
3E0
 10
1012.886115
 20
171.012667
 30
0.0
 11
1010.357993
 21
173.54079
 31
0.0
  0
LINE
  8
LC-005-002-----0
  6
CONTINUOUS
 62
     2
  5
3E1
 10
1004.357993
 20
179.54079
 30
0.0
 11
1003.357993
 21
180.54079
 31
0.0
  0
LINE
  8
LC-005-002-----0
  6
CONTINUOUS
 62
     2
  5
3E2
 10
1013.181909
 20
169.908752
 30
0.0
 11
1011.767695
 21
171.322965
 31
0.0
  0
LINE
  8
LC-005-002-----0
  6
CONTINUOUS
 62
     2
  5
3E3
 10
1010.549871
 20
172.54079
 30
0.0
 11
1009.549871
 21
173.54079
 31
0.0
  0
LINE
  8
LC-005-002-----0
  6
CONTINUOUS
 62
     2
  5
3E4
 10
1003.549871
 20
179.54079
 30
0.0
 11
1002.549871
 21
180.54079
 31
0.0
  0
LINE
  8
LC-005-002-----0
  6
CONTINUOUS
 62
     2
  5
3E5
 10
1013.477702
 20
168.804836
 30
0.0
 11
1012.063488
 21
170.21905
 31
0.0
  0
LINE
  8
LC-005-002-----0
  6
CONTINUOUS
 62
     2
  5
3E6
 10
1009.741749
 20
172.54079
 30
0.0
 11
1008.741749
 21
173.54079
 31
0.0
  0
LINE
  8
LC-005-002-----0
  6
CONTINUOUS
 62
     2
  5
3E7
 10
1002.741749
 20
179.54079
 30
0.0
 11
1001.741749
 21
180.54079
 31
0.0
  0
LINE
  8
LC-005-002-----0
  6
CONTINUOUS
 62
     2
  5
3E8
 10
1013.773495
 20
167.700921
 30
0.0
 11
1012.359281
 21
169.115135
 31
0.0
  0
LINE
  8
LC-005-002-----0
  6
CONTINUOUS
 62
     2
  5
3E9
 10
1008.933627
 20
172.54079
 30
0.0
 11
1007.933627
 21
173.54079
 31
0.0
  0
LINE
  8
LC-005-002-----0
  6
CONTINUOUS
 62
     2
  5
3EA
 10
1001.933627
 20
179.54079
 30
0.0
 11
1000.933627
 21
180.54079
 31
0.0
  0
LINE
  8
LC-005-002-----0
  6
CONTINUOUS
 62
     2
  5
3EB
 10
1014.069288
 20
166.597006
 30
0.0
 11
1012.655075
 21
168.011219
 31
0.0
  0
LINE
  8
LC-005-002-----0
  6
CONTINUOUS
 62
     2
  5
3EC
 10
1008.125505
 20
172.54079
 30
0.0
 11
1007.125505
 21
173.54079
 31
0.0
  0
LINE
  8
LC-005-002-----0
  6
CONTINUOUS
 62
     2
  5
3ED
 10
1001.125505
 20
179.54079
 30
0.0
 11
1000.125505
 21
180.54079
 31
0.0
  0
LINE
  8
LC-005-002-----0
  6
CONTINUOUS
 62
     2
  5
3EE
 10
1014.365081
 20
165.493091
 30
0.0
 11
1012.950868
 21
166.907304
 31
0.0
  0
LINE
  8
LC-005-002-----0
  6
CONTINUOUS
 62
     2
  5
3EF
 10
1007.317382
 20
172.54079
 30
0.0
 11
1006.317382
 21
173.54079
 31
0.0
  0
LINE
  8
LC-005-002-----0
  6
CONTINUOUS
 62
     2
  5
3F0
 10
1000.317382
 20
179.54079
 30
0.0
 11
999.317382
 21
180.54079
 31
0.0
  0
LINE
  8
LC-005-002-----0
  6
CONTINUOUS
 62
     2
  5
3F1
 10
1014.660875
 20
164.389175
 30
0.0
 11
1013.246661
 21
165.803389
 31
0.0
  0
LINE
  8
LC-005-002-----0
  6
CONTINUOUS
 62
     2
  5
3F2
 10
1006.50926
 20
172.54079
 30
0.0
 11
1005.50926
 21
173.54079
 31
0.0
  0
LINE
  8
LC-005-002-----0
  6
CONTINUOUS
 62
     2
  5
3F3
 10
999.50926
 20
179.54079
 30
0.0
 11
998.50926
 21
180.54079
 31
0.0
  0
LINE
  8
LC-005-002-----0
  6
CONTINUOUS
 62
     2
  5
3F4
 10
1014.956668
 20
163.28526
 30
0.0
 11
1013.542454
 21
164.699474
 31
0.0
  0
LINE
  8
LC-005-002-----0
  6
CONTINUOUS
 62
     2
  5
3F5
 10
1005.701138
 20
172.54079
 30
0.0
 11
1004.701138
 21
173.54079
 31
0.0
  0
LINE
  8
LC-005-002-----0
  6
CONTINUOUS
 62
     2
  5
3F6
 10
998.701138
 20
179.54079
 30
0.0
 11
997.701138
 21
180.54079
 31
0.0
  0
LINE
  8
LC-005-002-----0
  6
CONTINUOUS
 62
     2
  5
3F7
 10
1015.252461
 20
162.181345
 30
0.0
 11
1013.838248
 21
163.595558
 31
0.0
  0
LINE
  8
LC-005-002-----0
  6
CONTINUOUS
 62
     2
  5
3F8
 10
1004.893016
 20
172.54079
 30
0.0
 11
1003.893016
 21
173.54079
 31
0.0
  0
LINE
  8
LC-005-002-----0
  6
CONTINUOUS
 62
     2
  5
3F9
 10
997.893016
 20
179.54079
 30
0.0
 11
996.934345
 21
180.499461
 31
0.0
  0
LINE
  8
LC-005-002-----0
  6
CONTINUOUS
 62
     2
  5
3FA
 10
1015.548254
 20
161.07743
 30
0.0
 11
1014.134041
 21
162.491643
 31
0.0
  0
LINE
  8
LC-005-002-----0
  6
CONTINUOUS
 62
     2
  5
3FB
 10
1004.084894
 20
172.54079
 30
0.0
 11
1003.084894
 21
173.54079
 31
0.0
  0
LINE
  8
LC-005-002-----0
  6
CONTINUOUS
 62
     2
  5
3FC
 10
997.218862
 20
179.406822
 30
0.0
 11
996.447951
 21
180.177733
 31
0.0
  0
LINE
  8
LC-005-002-----0
  6
CONTINUOUS
 62
     2
  5
3FD
 10
1015.844048
 20
159.973514
 30
0.0
 11
1014.429834
 21
161.387728
 31
0.0
  0
LINE
  8
LC-005-002-----0
  6
CONTINUOUS
 62
     2
  5
3FE
 10
1003.276772
 20
172.54079
 30
0.0
 11
1002.276772
 21
173.54079
 31
0.0
  0
LINE
  8
LC-005-002-----0
  6
CONTINUOUS
 62
     2
  5
3FF
 10
997.218862
 20
178.5987
 30
0.0
 11
996.220449
 21
179.597113
 31
0.0
  0
LINE
  8
LC-005-002-----0
  6
CONTINUOUS
 62
     2
  5
400
 10
1016.139841
 20
158.869599
 30
0.0
 11
1014.725627
 21
160.283812
 31
0.0
  0
LINE
  8
LC-005-002-----0
  6
CONTINUOUS
 62
     2
  5
401
 10
1002.46865
 20
172.54079
 30
0.0
 11
1001.46865
 21
173.54079
 31
0.0
  0
LINE
  8
LC-005-002-----0
  6
CONTINUOUS
 62
     2
  5
402
 10
997.218862
 20
177.790578
 30
0.0
 11
996.218862
 21
178.790578
 31
0.0
  0
LINE
  8
LC-005-002-----0
  6
CONTINUOUS
 62
     2
  5
403
 10
1016.435634
 20
157.765684
 30
0.0
 11
1015.021421
 21
159.179897
 31
0.0
  0
LINE
  8
LC-005-002-----0
  6
CONTINUOUS
 62
     2
  5
404
 10
1001.660528
 20
172.54079
 30
0.0
 11
1000.660528
 21
173.54079
 31
0.0
  0
LINE
  8
LC-005-002-----0
  6
CONTINUOUS
 62
     2
  5
405
 10
997.218862
 20
176.982456
 30
0.0
 11
996.218862
 21
177.982456
 31
0.0
  0
LINE
  8
LC-005-002-----0
  6
CONTINUOUS
 62
     2
  5
406
 10
1016.731427
 20
156.661768
 30
0.0
 11
1015.317214
 21
158.075982
 31
0.0
  0
LINE
  8
LC-005-002-----0
  6
CONTINUOUS
 62
     2
  5
407
 10
1000.852406
 20
172.54079
 30
0.0
 11
999.852406
 21
173.54079
 31
0.0
  0
LINE
  8
LC-005-002-----0
  6
CONTINUOUS
 62
     2
  5
408
 10
997.218862
 20
176.174334
 30
0.0
 11
996.218862
 21
177.174334
 31
0.0
  0
LINE
  8
LC-005-002-----0
  6
CONTINUOUS
 62
     2
  5
409
 10
1017.027221
 20
155.557853
 30
0.0
 11
1015.613007
 21
156.972067
 31
0.0
  0
LINE
  8
LC-005-002-----0
  6
CONTINUOUS
 62
     2
  5
40A
 10
1000.044284
 20
172.54079
 30
0.0
 11
999.044284
 21
173.54079
 31
0.0
  0
LINE
  8
LC-005-002-----0
  6
CONTINUOUS
 62
     2
  5
40B
 10
997.218862
 20
175.366212
 30
0.0
 11
996.218862
 21
176.366212
 31
0.0
  0
LINE
  8
LC-005-002-----0
  6
CONTINUOUS
 62
     2
  5
40C
 10
1019.440109
 20
152.336843
 30
0.0
 11
1018.265668
 21
153.511283
 31
0.0
  0
LINE
  8
LC-005-002-----0
  6
CONTINUOUS
 62
     2
  5
40D
 10
1017.323014
 20
154.453938
 30
0.0
 11
1015.9088
 21
155.868151
 31
0.0
  0
LINE
  8
LC-005-002-----0
  6
CONTINUOUS
 62
     2
  5
40E
 10
999.236162
 20
172.54079
 30
0.0
 11
998.236162
 21
173.54079
 31
0.0
  0
LINE
  8
LC-005-002-----0
  6
CONTINUOUS
 62
     2
  5
40F
 10
997.218862
 20
174.55809
 30
0.0
 11
996.218862
 21
175.55809
 31
0.0
  0
LINE
  8
LC-005-002-----0
  6
CONTINUOUS
 62
     2
  5
410
 10
1019.39506
 20
151.57377
 30
0.0
 11
1016.204594
 21
154.764236
 31
0.0
  0
LINE
  8
LC-005-002-----0
  6
CONTINUOUS
 62
     2
  5
411
 10
998.42804
 20
172.54079
 30
0.0
 11
997.42804
 21
173.54079
 31
0.0
  0
LINE
  8
LC-005-002-----0
  6
CONTINUOUS
 62
     2
  5
412
 10
997.218862
 20
173.749968
 30
0.0
 11
996.218862
 21
174.749968
 31
0.0
  0
LINE
  8
LC-005-002-----0
  6
CONTINUOUS
 62
     2
  5
413
 10
1019.102761
 20
151.057947
 30
0.0
 11
1016.500387
 21
153.660321
 31
0.0
  0
LINE
  8
LC-005-002-----0
  6
CONTINUOUS
 62
     2
  5
414
 10
997.619918
 20
172.54079
 30
0.0
 11
996.218862
 21
173.941846
 31
0.0
  0
LINE
  8
LC-005-002-----0
  6
CONTINUOUS
 62
     2
  5
415
 10
1018.64908
 20
150.703506
 30
0.0
 11
1016.79618
 21
152.556406
 31
0.0
  0
LINE
  8
LC-005-002-----0
  6
CONTINUOUS
 62
     2
  5
416
 10
996.586332
 20
172.766254
 30
0.0
 11
996.444326
 21
172.90826
 31
0.0
  0
LINE
  8
LC-005-002-----0
  6
CONTINUOUS
 62
     2
  5
417
 10
1018.506187
 20
150.038277
 30
0.0
 11
1017.091973
 21
151.45249
 31
0.0
  0
LINE
  8
LC-005-002-----0
  6
CONTINUOUS
 62
     2
  5
418
 10
1018.80198
 20
148.934361
 30
0.0
 11
1017.387767
 21
150.348575
 31
0.0
  0
LINE
  8
LC-005-002-----0
  6
CONTINUOUS
 62
     2
  5
419
 10
1019.097773
 20
147.830446
 30
0.0
 11
1017.68356
 21
149.24466
 31
0.0
  0
LINE
  8
LC-005-002-----0
  6
CONTINUOUS
 62
     2
  5
41A
 10
1019.393567
 20
146.726531
 30
0.0
 11
1017.979353
 21
148.140744
 31
0.0
  0
LINE
  8
LC-005-002-----0
  6
CONTINUOUS
 62
     2
  5
41B
 10
1019.68936
 20
145.622615
 30
0.0
 11
1018.275146
 21
147.036829
 31
0.0
  0
LINE
  8
LC-005-002-----0
  6
CONTINUOUS
 62
     2
  5
41C
 10
1019.985153
 20
144.5187
 30
0.0
 11
1018.57094
 21
145.932914
 31
0.0
  0
LINE
  8
LC-005-002-----0
  6
CONTINUOUS
 62
     2
  5
41D
 10
1020.280946
 20
143.414785
 30
0.0
 11
1018.866733
 21
144.828999
 31
0.0
  0
LINE
  8
LC-005-002-----0
  6
CONTINUOUS
 62
     2
  5
41E
 10
1020.57674
 20
142.31087
 30
0.0
 11
1019.162526
 21
143.725083
 31
0.0
  0
LINE
  8
LC-005-002-----0
  6
CONTINUOUS
 62
     2
  5
41F
 10
1020.872533
 20
141.206954
 30
0.0
 11
1019.458319
 21
142.621168
 31
0.0
  0
LINE
  8
LC-005-002-----0
  6
CONTINUOUS
 62
     2
  5
420
 10
1021.168326
 20
140.103039
 30
0.0
 11
1019.754113
 21
141.517253
 31
0.0
  0
LINE
  8
LC-005-002-----0
  6
CONTINUOUS
 62
     2
  5
421
 10
1021.464119
 20
138.999124
 30
0.0
 11
1020.049906
 21
140.413337
 31
0.0
  0
LINE
  8
LC-005-002-----0
  6
CONTINUOUS
 62
     2
  5
422
 10
1021.759913
 20
137.895208
 30
0.0
 11
1020.345699
 21
139.309422
 31
0.0
  0
LINE
  8
LC-005-002-----0
  6
CONTINUOUS
 62
     2
  5
423
 10
1022.055706
 20
136.791293
 30
0.0
 11
1020.641492
 21
138.205507
 31
0.0
  0
LINE
  8
LC-005-002-----0
  6
CONTINUOUS
 62
     2
  5
424
 10
1022.351499
 20
135.687378
 30
0.0
 11
1020.937285
 21
137.101592
 31
0.0
  0
LINE
  8
LC-005-002-----0
  6
CONTINUOUS
 62
     2
  5
425
 10
1022.647292
 20
134.583463
 30
0.0
 11
1021.233079
 21
135.997676
 31
0.0
  0
LINE
  8
LC-005-002-----0
  6
CONTINUOUS
 62
     2
  5
426
 10
1022.943086
 20
133.479547
 30
0.0
 11
1021.528872
 21
134.893761
 31
0.0
  0
LINE
  8
LC-005-002-----0
  6
CONTINUOUS
 62
     2
  5
427
 10
1023.238879
 20
132.375632
 30
0.0
 11
1021.824665
 21
133.789846
 31
0.0
  0
LINE
  8
LC-005-002-----0
  6
CONTINUOUS
 62
     2
  5
428
 10
1023.534672
 20
131.271717
 30
0.0
 11
1022.120458
 21
132.68593
 31
0.0
  0
LINE
  8
LC-005-002-----0
  6
CONTINUOUS
 62
     2
  5
429
 10
1023.830465
 20
130.167802
 30
0.0
 11
1022.416252
 21
131.582015
 31
0.0
  0
LINE
  8
LC-005-002-----0
  6
CONTINUOUS
 62
     2
  5
42A
 10
1024.104849
 20
129.085296
 30
0.0
 11
1022.712045
 21
130.4781
 31
0.0
  0
LINE
  8
LC-005-002-----0
  6
CONTINUOUS
 62
     2
  5
42B
 10
1024.063118
 20
128.318905
 30
0.0
 11
1023.007838
 21
129.374185
 31
0.0
  0
LINE
  8
LC-005-002-----0
  6
CONTINUOUS
 62
     2
  5
42C
 10
1023.82198
 20
127.751921
 30
0.0
 11
1023.07486
 21
128.499041
 31
0.0
  0
LINE
  8
LC-005-002-----0
  6
CONTINUOUS
 62
     2
  5
42D
 10
1023.452248
 20
127.313531
 30
0.0
 11
1022.742659
 21
128.02312
 31
0.0
  0
LINE
  8
LC-005-002-----0
  6
CONTINUOUS
 62
     2
  5
42E
 10
1022.982396
 20
126.975261
 30
0.0
 11
1022.271496
 21
127.68616
 31
0.0
  0
LINE
  8
LC-005-002-----0
  6
CONTINUOUS
 62
     2
  5
42F
 10
1022.585086
 20
126.564448
 30
0.0
 11
1021.87191
 21
127.277625
 31
0.0
  0
LINE
  8
LC-005-002-----0
  6
CONTINUOUS
 62
     2
  5
430
 10
1022.310762
 20
126.03065
 30
0.0
 11
1021.551385
 21
126.790028
 31
0.0
  0
LINE
  8
LC-005-002-----0
  6
CONTINUOUS
 62
     2
  5
431
 10
1022.207799
 20
125.325492
 30
0.0
 11
1021.320586
 21
126.212705
 31
0.0
  0
LINE
  8
LC-005-002-----0
  6
CONTINUOUS
 62
     2
  5
432
 10
1022.270189
 20
124.454979
 30
0.0
 11
1021.209129
 21
125.516039
 31
0.0
  0
LINE
  8
LC-005-002-----0
  6
CONTINUOUS
 62
     2
  5
433
 10
1022.328668
 20
123.588379
 30
0.0
 11
1021.252631
 21
124.664415
 31
0.0
  0
LINE
  8
LC-005-002-----0
  6
CONTINUOUS
 62
     2
  5
434
 10
1022.381415
 20
122.72751
 30
0.0
 11
1021.312971
 21
123.795954
 31
0.0
  0
LINE
  8
LC-005-002-----0
  6
CONTINUOUS
 62
     2
  5
435
 10
1022.428549
 20
121.872253
 30
0.0
 11
1021.367499
 21
122.933303
 31
0.0
  0
LINE
  8
LC-005-002-----0
  6
CONTINUOUS
 62
     2
  5
436
 10
1022.470186
 20
121.022495
 30
0.0
 11
1021.416338
 21
122.076342
 31
0.0
  0
LINE
  8
LC-005-002-----0
  6
CONTINUOUS
 62
     2
  5
437
 10
1022.506433
 20
120.178126
 30
0.0
 11
1021.459605
 21
121.224954
 31
0.0
  0
LINE
  8
LC-005-002-----0
  6
CONTINUOUS
 62
     2
  5
438
 10
1022.537396
 20
119.339041
 30
0.0
 11
1021.497411
 21
120.379025
 31
0.0
  0
LINE
  8
LC-005-002-----0
  6
CONTINUOUS
 62
     2
  5
439
 10
1022.563177
 20
118.505138
 30
0.0
 11
1021.529866
 21
119.538448
 31
0.0
  0
LINE
  8
LC-005-002-----0
  6
CONTINUOUS
 62
     2
  5
43A
 10
1022.583873
 20
117.67632
 30
0.0
 11
1021.557073
 21
118.70312
 31
0.0
  0
LINE
  8
LC-005-002-----0
  6
CONTINUOUS
 62
     2
  5
43B
 10
1022.599578
 20
116.852492
 30
0.0
 11
1021.579131
 21
117.872939
 31
0.0
  0
LINE
  8
LC-005-002-----0
  6
CONTINUOUS
 62
     2
  5
43C
 10
1022.610383
 20
116.033565
 30
0.0
 11
1021.596139
 21
117.047809
 31
0.0
  0
LINE
  8
LC-005-002-----0
  6
CONTINUOUS
 62
     2
  5
43D
 10
1022.616376
 20
115.21945
 30
0.0
 11
1021.608188
 21
116.227639
 31
0.0
  0
LINE
  8
LC-005-002-----0
  6
CONTINUOUS
 62
     2
  5
43E
 10
1022.617641
 20
114.410063
 30
0.0
 11
1021.615367
 21
115.412337
 31
0.0
  0
LINE
  8
LC-005-002-----0
  6
CONTINUOUS
 62
     2
  5
43F
 10
1022.61426
 20
113.605323
 30
0.0
 11
1021.617765
 21
114.601817
 31
0.0
  0
LINE
  8
LC-005-002-----0
  6
CONTINUOUS
 62
     2
  5
440
 10
1022.60631
 20
112.80515
 30
0.0
 11
1021.615463
 21
113.795997
 31
0.0
  0
LINE
  8
LC-005-002-----0
  6
CONTINUOUS
 62
     2
  5
441
 10
1022.59387
 20
112.009468
 30
0.0
 11
1021.608542
 21
112.994796
 31
0.0
  0
LINE
  8
LC-005-002-----0
  6
CONTINUOUS
 62
     2
  5
442
 10
1022.577011
 20
111.218205
 30
0.0
 11
1021.597081
 21
112.198135
 31
0.0
  0
LINE
  8
LC-005-002-----0
  6
CONTINUOUS
 62
     2
  5
443
 10
1022.555806
 20
110.431288
 30
0.0
 11
1021.581155
 21
111.405939
 31
0.0
  0
LINE
  8
LC-005-002-----0
  6
CONTINUOUS
 62
     2
  5
444
 10
1022.530323
 20
109.648649
 30
0.0
 11
1021.560836
 21
110.618136
 31
0.0
  0
LINE
  8
LC-005-002-----0
  6
CONTINUOUS
 62
     2
  5
445
 10
1022.500629
 20
108.87022
 30
0.0
 11
1021.536194
 21
109.834656
 31
0.0
  0
LINE
  8
LC-005-002-----0
  6
CONTINUOUS
 62
     2
  5
446
 10
1022.466789
 20
108.095939
 30
0.0
 11
1021.507298
 21
109.05543
 31
0.0
  0
LINE
  8
LC-005-002-----0
  6
CONTINUOUS
 62
     2
  5
447
 10
1022.428865
 20
107.325741
 30
0.0
 11
1021.474214
 21
108.280391
 31
0.0
  0
LINE
  8
LC-005-002-----0
  6
CONTINUOUS
 62
     2
  5
448
 10
1022.386918
 20
106.559566
 30
0.0
 11
1021.437006
 21
107.509478
 31
0.0
  0
LINE
  8
LC-005-002-----0
  6
CONTINUOUS
 62
     2
  5
449
 10
1022.341007
 20
105.797355
 30
0.0
 11
1021.395735
 21
106.742626
 31
0.0
  0
LINE
  8
LC-005-002-----0
  6
CONTINUOUS
 62
     2
  5
44A
 10
1022.291189
 20
105.039051
 30
0.0
 11
1021.350462
 21
105.979777
 31
0.0
  0
LINE
  8
LC-005-002-----0
  6
CONTINUOUS
 62
     2
  5
44B
 10
1022.237519
 20
104.284599
 30
0.0
 11
1021.301245
 21
105.220873
 31
0.0
  0
LINE
  8
LC-005-002-----0
  6
CONTINUOUS
 62
     2
  5
44C
 10
1022.180051
 20
103.533945
 30
0.0
 11
1021.24814
 21
104.465856
 31
0.0
  0
LINE
  8
LC-005-002-----0
  6
CONTINUOUS
 62
     2
  5
44D
 10
1022.118837
 20
102.787036
 30
0.0
 11
1021.191202
 21
103.714671
 31
0.0
  0
LINE
  8
LC-005-002-----0
  6
CONTINUOUS
 62
     2
  5
44E
 10
1022.053928
 20
102.043823
 30
0.0
 11
1021.130484
 21
102.967267
 31
0.0
  0
LINE
  8
LC-005-002-----0
  6
CONTINUOUS
 62
     2
  5
44F
 10
1021.985374
 20
101.304256
 30
0.0
 11
1021.066038
 21
102.223591
 31
0.0
  0
LINE
  8
LC-005-002-----0
  6
CONTINUOUS
 62
     2
  5
450
 10
1021.913221
 20
100.568286
 30
0.0
 11
1020.997914
 21
101.483593
 31
0.0
  0
LINE
  8
LC-005-002-----0
  6
CONTINUOUS
 62
     2
  5
451
 10
1021.837518
 20
99.835868
 30
0.0
 11
1020.926161
 21
100.747224
 31
0.0
  0
LINE
  8
LC-005-002-----0
  6
CONTINUOUS
 62
     2
  5
452
 10
1021.758308
 20
99.106956
 30
0.0
 11
1020.850826
 21
100.014438
 31
0.0
  0
LINE
  8
LC-005-002-----0
  6
CONTINUOUS
 62
     2
  5
453
 10
1021.675635
 20
98.381506
 30
0.0
 11
1020.771955
 21
99.285187
 31
0.0
  0
LINE
  8
LC-005-002-----0
  6
CONTINUOUS
 62
     2
  5
454
 10
1021.589544
 20
97.659476
 30
0.0
 11
1020.689592
 21
98.559427
 31
0.0
  0
LINE
  8
LC-005-002-----0
  6
CONTINUOUS
 62
     2
  5
455
 10
1021.500075
 20
96.940823
 30
0.0
 11
1020.603782
 21
97.837115
 31
0.0
  0
LINE
  8
LC-005-002-----0
  6
CONTINUOUS
 62
     2
  5
456
 10
1021.407268
 20
96.225507
 30
0.0
 11
1020.514567
 21
97.118208
 31
0.0
  0
LINE
  8
LC-005-002-----0
  6
CONTINUOUS
 62
     2
  5
457
 10
1021.311165
 20
95.513489
 30
0.0
 11
1020.421988
 21
96.402665
 31
0.0
  0
LINE
  8
LC-005-002-----0
  6
CONTINUOUS
 62
     2
  5
458
 10
1021.211802
 20
94.80473
 30
0.0
 11
1020.326085
 21
95.690446
 31
0.0
  0
LINE
  8
LC-005-002-----0
  6
CONTINUOUS
 62
     2
  5
459
 10
1021.109217
 20
94.099192
 30
0.0
 11
1020.226897
 21
94.981512
 31
0.0
  0
LINE
  8
LC-005-002-----0
  6
CONTINUOUS
 62
     2
  5
45A
 10
1021.003447
 20
93.39684
 30
0.0
 11
1020.124463
 21
94.275824
 31
0.0
  0
LINE
  8
LC-005-002-----0
  6
CONTINUOUS
 62
     2
  5
45B
 10
1020.894528
 20
92.697637
 30
0.0
 11
1020.018819
 21
93.573346
 31
0.0
  0
LINE
  8
LC-005-002-----0
  6
CONTINUOUS
 62
     2
  5
45C
 10
1020.782494
 20
92.001549
 30
0.0
 11
1019.910001
 21
92.874042
 31
0.0
  0
LINE
  8
LC-005-002-----0
  6
CONTINUOUS
 62
     2
  5
45D
 10
1020.667379
 20
91.308542
 30
0.0
 11
1019.798046
 21
92.177875
 31
0.0
  0
LINE
  8
LC-005-002-----0
  6
CONTINUOUS
 62
     2
  5
45E
 10
1020.549216
 20
90.618583
 30
0.0
 11
1019.682986
 21
91.484813
 31
0.0
  0
LINE
  8
LC-005-002-----0
  6
CONTINUOUS
 62
     2
  5
45F
 10
1020.428037
 20
89.93164
 30
0.0
 11
1019.564856
 21
90.794821
 31
0.0
  0
LINE
  8
LC-005-002-----0
  6
CONTINUOUS
 62
     2
  5
460
 10
1020.303874
 20
89.247681
 30
0.0
 11
1019.443688
 21
90.107867
 31
0.0
  0
LINE
  8
LC-005-002-----0
  6
CONTINUOUS
 62
     2
  5
461
 10
1020.176757
 20
88.566676
 30
0.0
 11
1019.319514
 21
89.423919
 31
0.0
  0
LINE
  8
LC-005-002-----0
  6
CONTINUOUS
 62
     2
  5
462
 10
1020.046716
 20
87.888595
 30
0.0
 11
1019.192366
 21
88.742945
 31
0.0
  0
LINE
  8
LC-005-002-----0
  6
CONTINUOUS
 62
     2
  5
463
 10
1019.91378
 20
87.213409
 30
0.0
 11
1019.062272
 21
88.064916
 31
0.0
  0
LINE
  8
LC-005-002-----0
  6
CONTINUOUS
 62
     2
  5
464
 10
1019.777978
 20
86.541089
 30
0.0
 11
1018.929264
 21
87.389802
 31
0.0
  0
LINE
  8
LC-005-002-----0
  6
CONTINUOUS
 62
     2
  5
465
 10
1019.639338
 20
85.871607
 30
0.0
 11
1018.79337
 21
86.717574
 31
0.0
  0
LINE
  8
LC-005-002-----0
  6
CONTINUOUS
 62
     2
  5
466
 10
1019.497886
 20
85.204937
 30
0.0
 11
1018.654618
 21
86.048204
 31
0.0
  0
LINE
  8
LC-005-002-----0
  6
CONTINUOUS
 62
     2
  5
467
 10
1019.35365
 20
84.541051
 30
0.0
 11
1018.513036
 21
85.381664
 31
0.0
  0
LINE
  8
LC-005-002-----0
  6
CONTINUOUS
 62
     2
  5
468
 10
1019.206655
 20
83.879924
 30
0.0
 11
1018.368651
 21
84.717928
 31
0.0
  0
LINE
  8
LC-005-002-----0
  6
CONTINUOUS
 62
     2
  5
469
 10
1019.056927
 20
83.22153
 30
0.0
 11
1018.221489
 21
84.056968
 31
0.0
  0
LINE
  8
LC-005-002-----0
  6
CONTINUOUS
 62
     2
  5
46A
 10
1018.90449
 20
82.565844
 30
0.0
 11
1018.071575
 21
83.39876
 31
0.0
  0
LINE
  8
LC-005-002-----0
  6
CONTINUOUS
 62
     2
  5
46B
 10
1018.749369
 20
81.912843
 30
0.0
 11
1017.918935
 21
82.743278
 31
0.0
  0
LINE
  8
LC-005-002-----0
  6
CONTINUOUS
 62
     2
  5
46C
 10
1018.591588
 20
81.262503
 30
0.0
 11
1017.763593
 21
82.090498
 31
0.0
  0
LINE
  8
LC-005-002-----0
  6
CONTINUOUS
 62
     2
  5
46D
 10
1018.431168
 20
80.6148
 30
0.0
 11
1017.605573
 21
81.440395
 31
0.0
  0
LINE
  8
LC-005-002-----0
  6
CONTINUOUS
 62
     2
  5
46E
 10
1018.268134
 20
79.969712
 30
0.0
 11
1017.444899
 21
80.792947
 31
0.0
  0
LINE
  8
LC-005-002-----0
  6
CONTINUOUS
 62
     2
  5
46F
 10
1018.102508
 20
79.327217
 30
0.0
 11
1017.281594
 21
80.14813
 31
0.0
  0
LINE
  8
LC-005-002-----0
  6
CONTINUOUS
 62
     2
  5
470
 10
1017.93431
 20
78.687292
 30
0.0
 11
1017.11568
 21
79.505922
 31
0.0
  0
LINE
  8
LC-005-002-----0
  6
CONTINUOUS
 62
     2
  5
471
 10
1017.763562
 20
78.049918
 30
0.0
 11
1016.947179
 21
78.866302
 31
0.0
  0
LINE
  8
LC-005-002-----0
  6
CONTINUOUS
 62
     2
  5
472
 10
1017.590286
 20
77.415073
 30
0.0
 11
1016.776112
 21
78.229247
 31
0.0
  0
LINE
  8
LC-005-002-----0
  6
CONTINUOUS
 62
     2
  5
473
 10
1017.4145
 20
76.782736
 30
0.0
 11
1016.6025
 21
77.594736
 31
0.0
  0
LINE
  8
LC-005-002-----0
  6
CONTINUOUS
 62
     2
  5
474
 10
1017.236226
 20
76.152888
 30
0.0
 11
1016.426365
 21
76.96275
 31
0.0
  0
LINE
  8
LC-005-002-----0
  6
CONTINUOUS
 62
     2
  5
475
 10
1017.055482
 20
75.52551
 30
0.0
 11
1016.247725
 21
76.333267
 31
0.0
  0
LINE
  8
LC-005-002-----0
  6
CONTINUOUS
 62
     2
  5
476
 10
1016.872287
 20
74.900583
 30
0.0
 11
1016.066601
 21
75.706269
 31
0.0
  0
LINE
  8
LC-005-002-----0
  6
CONTINUOUS
 62
     2
  5
477
 10
1016.686661
 20
74.278087
 30
0.0
 11
1015.883012
 21
75.081736
 31
0.0
  0
LINE
  8
LC-005-002-----0
  6
CONTINUOUS
 62
     2
  5
478
 10
1016.498621
 20
73.658005
 30
0.0
 11
1015.696976
 21
74.45965
 31
0.0
  0
LINE
  8
LC-005-002-----0
  6
CONTINUOUS
 62
     2
  5
479
 10
1016.308185
 20
73.040319
 30
0.0
 11
1015.508513
 21
73.839991
 31
0.0
  0
LINE
  8
LC-005-002-----0
  6
CONTINUOUS
 62
     2
  5
47A
 10
1016.115371
 20
72.425011
 30
0.0
 11
1015.31764
 21
73.222742
 31
0.0
  0
LINE
  8
LC-005-002-----0
  6
CONTINUOUS
 62
     2
  5
47B
 10
1015.920196
 20
71.812064
 30
0.0
 11
1015.124374
 21
72.607886
 31
0.0
  0
LINE
  8
LC-005-002-----0
  6
CONTINUOUS
 62
     2
  5
47C
 10
1015.722676
 20
71.201462
 30
0.0
 11
1014.928734
 21
71.995404
 31
0.0
  0
LINE
  8
LC-005-002-----0
  6
CONTINUOUS
 62
     2
  5
47D
 10
1015.522828
 20
70.593188
 30
0.0
 11
1014.730736
 21
71.38528
 31
0.0
  0
LINE
  8
LC-005-002-----0
  6
CONTINUOUS
 62
     2
  5
47E
 10
1015.320668
 20
69.987226
 30
0.0
 11
1014.530396
 21
70.777498
 31
0.0
  0
LINE
  8
LC-005-002-----0
  6
CONTINUOUS
 62
     2
  5
47F
 10
1015.116212
 20
69.383559
 30
0.0
 11
1014.327731
 21
70.172041
 31
0.0
  0
LINE
  8
LC-005-002-----0
  6
CONTINUOUS
 62
     2
  5
480
 10
1014.909476
 20
68.782174
 30
0.0
 11
1014.122757
 21
69.568892
 31
0.0
  0
LINE
  8
LC-005-002-----0
  6
CONTINUOUS
 62
     2
  5
481
 10
1014.700474
 20
68.183054
 30
0.0
 11
1013.91549
 21
68.968038
 31
0.0
  0
LINE
  8
LC-005-002-----0
  6
CONTINUOUS
 62
     2
  5
482
 10
1014.489221
 20
67.586185
 30
0.0
 11
1013.705944
 21
68.369462
 31
0.0
  0
LINE
  8
LC-005-002-----0
  6
CONTINUOUS
 62
     2
  5
483
 10
1014.275731
 20
66.991552
 30
0.0
 11
1013.494135
 21
67.773149
 31
0.0
  0
LINE
  8
LC-005-002-----0
  6
CONTINUOUS
 62
     2
  5
484
 10
1014.06002
 20
66.399142
 30
0.0
 11
1013.280077
 21
67.179085
 31
0.0
  0
LINE
  8
LC-005-002-----0
  6
CONTINUOUS
 62
     2
  5
485
 10
1013.842101
 20
65.808939
 30
0.0
 11
1013.063785
 21
66.587255
 31
0.0
  0
LINE
  8
LC-005-002-----0
  6
CONTINUOUS
 62
     2
  5
486
 10
1013.621987
 20
65.220931
 30
0.0
 11
1012.845272
 21
65.997645
 31
0.0
  0
LINE
  8
LC-005-002-----0
  6
CONTINUOUS
 62
     2
  5
487
 10
1013.399692
 20
64.635103
 30
0.0
 11
1012.624553
 21
65.410242
 31
0.0
  0
LINE
  8
LC-005-002-----0
  6
CONTINUOUS
 62
     2
  5
488
 10
1013.17523
 20
64.051444
 30
0.0
 11
1012.401641
 21
64.825032
 31
0.0
  0
LINE
  8
LC-005-002-----0
  6
CONTINUOUS
 62
     2
  5
489
 10
1012.948612
 20
63.469939
 30
0.0
 11
1012.17655
 21
64.242002
 31
0.0
  0
LINE
  8
LC-005-002-----0
  6
CONTINUOUS
 62
     2
  5
48A
 10
1012.719852
 20
62.890577
 30
0.0
 11
1011.949291
 21
63.661138
 31
0.0
  0
LINE
  8
LC-005-002-----0
  6
CONTINUOUS
 62
     2
  5
48B
 10
1012.488962
 20
62.313345
 30
0.0
 11
1011.719879
 21
63.082428
 31
0.0
  0
LINE
  8
LC-005-002-----0
  6
CONTINUOUS
 62
     2
  5
48C
 10
1012.255954
 20
61.738231
 30
0.0
 11
1011.488325
 21
62.50586
 31
0.0
  0
LINE
  8
LC-005-002-----0
  6
CONTINUOUS
 62
     2
  5
48D
 10
1012.020841
 20
61.165223
 30
0.0
 11
1011.254642
 21
61.931421
 31
0.0
  0
LINE
  8
LC-005-002-----0
  6
CONTINUOUS
 62
     2
  5
48E
 10
1011.783633
 20
60.594309
 30
0.0
 11
1011.018842
 21
61.3591
 31
0.0
  0
LINE
  8
LC-005-002-----0
  6
CONTINUOUS
 62
     2
  5
48F
 10
1011.544342
 20
60.025478
 30
0.0
 11
1010.780936
 21
60.788884
 31
0.0
  0
LINE
  8
LC-005-002-----0
  6
CONTINUOUS
 62
     2
  5
490
 10
1011.302979
 20
59.458718
 30
0.0
 11
1010.540936
 21
60.220762
 31
0.0
  0
LINE
  8
LC-005-002-----0
  6
CONTINUOUS
 62
     2
  5
491
 10
1011.059203
 20
58.894373
 30
0.0
 11
1010.298853
 21
59.654722
 31
0.0
  0
LINE
  8
LC-005-002-----0
  6
CONTINUOUS
 62
     2
  5
492
 10
1010.774245
 20
58.371208
 30
0.0
 11
1010.045241
 21
59.100212
 31
0.0
  0
LINE
  8
LC-005-002-----0
  6
CONTINUOUS
 62
     2
  5
493
 10
1010.427091
 20
57.91024
 30
0.0
 11
1009.717815
 21
58.619516
 31
0.0
  0
LINE
  8
LC-005-002-----0
  6
CONTINUOUS
 62
     2
  5
494
 10
1010.021506
 20
57.507703
 30
0.0
 11
1009.311719
 21
58.21749
 31
0.0
  0
LINE
  8
LC-005-002-----0
  6
CONTINUOUS
 62
     2
  5
495
 10
1009.557396
 20
57.163691
 30
0.0
 11
1008.826716
 21
57.894371
 31
0.0
  0
LINE
  8
LC-005-002-----0
  6
CONTINUOUS
 62
     2
  5
496
 10
1009.030764
 20
56.882201
 30
0.0
 11
1008.252531
 21
57.660434
 31
0.0
  0
LINE
  8
LC-005-002-----0
  6
CONTINUOUS
 62
     2
  5
497
 10
1008.432221
 20
56.672622
 30
0.0
 11
1007.560464
 21
57.544379
 31
0.0
  0
LINE
  8
LC-005-002-----0
  6
CONTINUOUS
 62
     2
  5
498
 10
1007.742407
 20
56.554314
 30
0.0
 11
1006.755931
 21
57.54079
 31
0.0
  0
LINE
  8
LC-005-002-----0
  6
CONTINUOUS
 62
     2
  5
499
 10
1006.947809
 20
56.54079
 30
0.0
 11
1005.947809
 21
57.54079
 31
0.0
  0
LINE
  8
LC-005-002-----0
  6
CONTINUOUS
 62
     2
  5
49A
 10
1006.139687
 20
56.54079
 30
0.0
 11
1005.139687
 21
57.54079
 31
0.0
  0
LINE
  8
LC-005-002-----0
  6
CONTINUOUS
 62
     2
  5
49B
 10
1005.331565
 20
56.54079
 30
0.0
 11
1004.331565
 21
57.54079
 31
0.0
  0
LINE
  8
LC-005-002-----0
  6
CONTINUOUS
 62
     2
  5
49C
 10
1004.523443
 20
56.54079
 30
0.0
 11
1003.523443
 21
57.54079
 31
0.0
  0
LINE
  8
LC-005-002-----0
  6
CONTINUOUS
 62
     2
  5
49D
 10
1003.715321
 20
56.54079
 30
0.0
 11
1002.715321
 21
57.54079
 31
0.0
  0
LINE
  8
LC-005-002-----0
  6
CONTINUOUS
 62
     2
  5
49E
 10
1002.907199
 20
56.54079
 30
0.0
 11
1001.907199
 21
57.54079
 31
0.0
  0
LINE
  8
LC-005-002-----0
  6
CONTINUOUS
 62
     2
  5
49F
 10
1002.099077
 20
56.54079
 30
0.0
 11
1001.099077
 21
57.54079
 31
0.0
  0
LINE
  8
LC-005-002-----0
  6
CONTINUOUS
 62
     2
  5
4A0
 10
1001.290955
 20
56.54079
 30
0.0
 11
1000.290955
 21
57.54079
 31
0.0
  0
LINE
  8
LC-005-002-----0
  6
CONTINUOUS
 62
     2
  5
4A1
 10
1000.482833
 20
56.54079
 30
0.0
 11
999.482833
 21
57.54079
 31
0.0
  0
LINE
  8
LC-005-002-----0
  6
CONTINUOUS
 62
     2
  5
4A2
 10
999.674711
 20
56.54079
 30
0.0
 11
998.674711
 21
57.54079
 31
0.0
  0
LINE
  8
LC-005-002-----0
  6
CONTINUOUS
 62
     2
  5
4A3
 10
998.866589
 20
56.54079
 30
0.0
 11
997.866589
 21
57.54079
 31
0.0
  0
LINE
  8
LC-005-002-----0
  6
CONTINUOUS
 62
     2
  5
4A4
 10
998.058467
 20
56.54079
 30
0.0
 11
997.06966
 21
57.529596
 31
0.0
  0
LINE
  8
LC-005-002-----0
  6
CONTINUOUS
 62
     2
  5
4A5
 10
997.250345
 20
56.54079
 30
0.0
 11
996.527672
 21
57.263463
 31
0.0
  0
LINE
  8
LC-005-002-----0
  6
CONTINUOUS
 62
     2
  5
4A6
 10
997.218862
 20
55.764151
 30
0.0
 11
996.239604
 21
56.743408
 31
0.0
  0
LINE
  8
LC-005-002-----0
  6
CONTINUOUS
 62
     2
  5
4A7
 10
997.218862
 20
54.956029
 30
0.0
 11
996.218862
 21
55.956029
 31
0.0
  0
LINE
  8
LC-005-002-----0
  6
CONTINUOUS
 62
     2
  5
4A8
 10
997.218862
 20
54.147907
 30
0.0
 11
996.218862
 21
55.147907
 31
0.0
  0
LINE
  8
LC-005-002-----0
  6
CONTINUOUS
 62
     2
  5
4A9
 10
1000.218862
 20
50.339784
 30
0.0
 11
1000.017857
 21
50.54079
 31
0.0
  0
LINE
  8
LC-005-002-----0
  6
CONTINUOUS
 62
     2
  5
4AA
 10
997.218862
 20
53.339784
 30
0.0
 11
996.218862
 21
54.339784
 31
0.0
  0
LINE
  8
LC-005-002-----0
  6
CONTINUOUS
 62
     2
  5
4AB
 10
1000.209735
 20
49.54079
 30
0.0
 11
999.209735
 21
50.54079
 31
0.0
  0
LINE
  8
LC-005-002-----0
  6
CONTINUOUS
 62
     2
  5
4AC
 10
997.218862
 20
52.531662
 30
0.0
 11
996.218862
 21
53.531662
 31
0.0
  0
LINE
  8
LC-005-002-----0
  6
CONTINUOUS
 62
     2
  5
4AD
 10
999.401613
 20
49.54079
 30
0.0
 11
998.401613
 21
50.54079
 31
0.0
  0
LINE
  8
LC-005-002-----0
  6
CONTINUOUS
 62
     2
  5
4AE
 10
997.218862
 20
51.72354
 30
0.0
 11
996.218862
 21
52.72354
 31
0.0
  0
LINE
  8
LC-005-002-----0
  6
CONTINUOUS
 62
     2
  5
4AF
 10
998.593491
 20
49.54079
 30
0.0
 11
997.593491
 21
50.54079
 31
0.0
  0
LINE
  8
LC-005-002-----0
  6
CONTINUOUS
 62
     2
  5
4B0
 10
997.218862
 20
50.915418
 30
0.0
 11
996.218862
 21
51.915418
 31
0.0
  0
LINE
  8
LC-005-002-----0
  6
CONTINUOUS
 62
     2
  5
4B1
 10
997.785369
 20
49.54079
 30
0.0
 11
996.218862
 21
51.107296
 31
0.0
  0
LINE
  8
LC-005-002-----0
  6
CONTINUOUS
 62
     2
  5
4B2
 10
996.936577
 20
49.581459
 30
0.0
 11
996.259531
 21
50.258505
 31
0.0
  0
ENDBLK
  8
0
  5
4B3
  0
BLOCK
  8
0
  5
4B5
  2
*X23
 70
    65
 10
801.729713
 20
-73.123176
 30
0.0
  3
*X23
  0
LINE
  8
LC-005-002-----0
  6
CONTINUOUS
 62
     2
  5
4B6
 10
1013.199489
 20
197.36732
 30
0.0
 11
1012.835064
 21
197.731745
 31
0.0
  0
LINE
  8
LC-005-002-----0
  6
CONTINUOUS
 62
     2
  5
4B7
 10
1014.303405
 20
195.455283
 30
0.0
 11
1006.006584
 21
203.752104
 31
0.0
  0
LINE
  8
LC-005-002-----0
  6
CONTINUOUS
 62
     2
  5
4B8
 10
1041.701228
 20
167.249337
 30
0.0
 11
1040.493855
 21
168.45671
 31
0.0
  0
LINE
  8
LC-005-002-----0
  6
CONTINUOUS
 62
     2
  5
4B9
 10
1015.40732
 20
193.543245
 30
0.0
 11
1012.675269
 21
196.275296
 31
0.0
  0
LINE
  8
LC-005-002-----0
  6
CONTINUOUS
 62
     2
  5
4BA
 10
1010.443052
 20
198.507513
 30
0.0
 11
1003.038567
 21
205.911998
 31
0.0
  0
LINE
  8
LC-005-002-----0
  6
CONTINUOUS
 62
     2
  5
4BB
 10
1041.645288
 20
166.497155
 30
0.0
 11
1039.741673
 21
168.40077
 31
0.0
  0
LINE
  8
LC-005-002-----0
  6
CONTINUOUS
 62
     2
  5
4BC
 10
1016.511235
 20
191.631208
 30
0.0
 11
1013.779184
 21
194.363259
 31
0.0
  0
LINE
  8
LC-005-002-----0
  6
CONTINUOUS
 62
     2
  5
4BD
 10
1003.750148
 20
204.392295
 30
0.0
 11
1001.95386
 21
206.188583
 31
0.0
  0
LINE
  8
LC-005-002-----0
  6
CONTINUOUS
 62
     2
  5
4BE
 10
1041.348148
 20
165.986173
 30
0.0
 11
1038.963153
 21
168.371168
 31
0.0
  0
LINE
  8
LC-005-002-----0
  6
CONTINUOUS
 62
     2
  5
4BF
 10
1017.61515
 20
189.719171
 30
0.0
 11
1014.883099
 21
192.451222
 31
0.0
  0
LINE
  8
LC-005-002-----0
  6
CONTINUOUS
 62
     2
  5
4C0
 10
1002.212846
 20
205.121475
 30
0.0
 11
1001.095007
 21
206.239314
 31
0.0
  0
LINE
  8
LC-005-002-----0
  6
CONTINUOUS
 62
     2
  5
4C1
 10
1057.433316
 20
149.092883
 30
0.0
 11
1024.311518
 21
182.214681
 31
0.0
  0
LINE
  8
LC-005-002-----0
  6
CONTINUOUS
 62
     2
  5
4C2
 10
1018.554912
 20
187.971287
 30
0.0
 11
1015.987015
 21
190.539185
 31
0.0
  0
LINE
  8
LC-005-002-----0
  6
CONTINUOUS
 62
     2
  5
4C3
 10
1001.285945
 20
205.240254
 30
0.0
 11
1000.357283
 21
206.168916
 31
0.0
  0
LINE
  8
LC-005-002-----0
  6
CONTINUOUS
 62
     2
  5
4C4
 10
1057.354736
 20
148.363342
 30
0.0
 11
1056.335185
 21
149.382892
 31
0.0
  0
LINE
  8
LC-005-002-----0
  6
CONTINUOUS
 62
     2
  5
4C5
 10
1024.60153
 20
181.116547
 30
0.0
 11
1023.581977
 21
182.136101
 31
0.0
  0
LINE
  8
LC-005-002-----0
  6
CONTINUOUS
 62
     2
  5
4C6
 10
1018.607171
 20
187.110906
 30
0.0
 11
1017.09093
 21
188.627147
 31
0.0
  0
LINE
  8
LC-005-002-----0
  6
CONTINUOUS
 62
     2
  5
4C7
 10
1000.533572
 20
205.184505
 30
0.0
 11
999.703106
 21
206.014971
 31
0.0
  0
LINE
  8
LC-005-002-----0
  6
CONTINUOUS
 62
     2
  5
4C8
 10
1057.1084
 20
147.801556
 30
0.0
 11
1056.360444
 21
148.549511
 31
0.0
  0
LINE
  8
LC-005-002-----0
  6
CONTINUOUS
 62
     2
  5
4C9
 10
1023.768146
 20
181.141809
 30
0.0
 11
1023.030484
 21
181.879471
 31
0.0
  0
LINE
  8
LC-005-002-----0
  6
CONTINUOUS
 62
     2
  5
4CA
 10
1018.407394
 20
186.502562
 30
0.0
 11
1017.622444
 21
187.287511
 31
0.0
  0
LINE
  8
LC-005-002-----0
  6
CONTINUOUS
 62
     2
  5
4CB
 10
999.8862
 20
205.023755
 30
0.0
 11
999.114149
 21
205.795806
 31
0.0
  0
LINE
  8
LC-005-002-----0
  6
CONTINUOUS
 62
     2
  5
4CC
 10
1056.954305
 20
147.147528
 30
0.0
 11
1056.110998
 21
147.990835
 31
0.0
  0
LINE
  8
LC-005-002-----0
  6
CONTINUOUS
 62
     2
  5
4CD
 10
1023.250206
 20
180.851627
 30
0.0
 11
1022.518155
 21
181.583678
 31
0.0
  0
LINE
  8
LC-005-002-----0
  6
CONTINUOUS
 62
     2
  5
4CE
 10
1018.069397
 20
186.032437
 30
0.0
 11
1017.36209
 21
186.739743
 31
0.0
  0
LINE
  8
LC-005-002-----0
  6
CONTINUOUS
 62
     2
  5
4CF
 10
999.316552
 20
204.785281
 30
0.0
 11
998.580235
 21
205.521598
 31
0.0
  0
LINE
  8
LC-005-002-----0
  6
CONTINUOUS
 62
     2
  5
4D0
 10
1057.157376
 20
146.136335
 30
0.0
 11
1055.965967
 21
147.327744
 31
0.0
  0
LINE
  8
LC-005-002-----0
  6
CONTINUOUS
 62
     2
  5
4D1
 10
1022.737877
 20
180.555834
 30
0.0
 11
1022.005827
 21
181.287884
 31
0.0
  0
LINE
  8
LC-005-002-----0
  6
CONTINUOUS
 62
     2
  5
4D2
 10
1017.613522
 20
185.680189
 30
0.0
 11
1016.881471
 21
186.41224
 31
0.0
  0
LINE
  8
LC-005-002-----0
  6
CONTINUOUS
 62
     2
  5
4D3
 10
998.811395
 20
204.482316
 30
0.0
 11
998.095469
 21
205.198242
 31
0.0
  0
LINE
  8
LC-005-002-----0
  6
CONTINUOUS
 62
     2
  5
4D4
 10
1058.737329
 20
143.74826
 30
0.0
 11
1055.998541
 21
146.487048
 31
0.0
  0
LINE
  8
LC-005-002-----0
  6
CONTINUOUS
 62
     2
  5
4D5
 10
1022.225549
 20
180.26004
 30
0.0
 11
1021.493498
 21
180.992091
 31
0.0
  0
LINE
  8
LC-005-002-----0
  6
CONTINUOUS
 62
     2
  5
4D6
 10
1017.101193
 20
185.384396
 30
0.0
 11
1016.369142
 21
186.116447
 31
0.0
  0
LINE
  8
LC-005-002-----0
  6
CONTINUOUS
 62
     2
  5
4D7
 10
998.364132
 20
204.121457
 30
0.0
 11
997.656611
 21
204.828978
 31
0.0
  0
LINE
  8
LC-005-002-----0
  6
CONTINUOUS
 62
     2
  5
4D8
 10
1060.1947
 20
141.482767
 30
0.0
 11
1056.742299
 21
144.935168
 31
0.0
  0
LINE
  8
LC-005-002-----0
  6
CONTINUOUS
 62
     2
  5
4D9
 10
1021.71322
 20
179.964247
 30
0.0
 11
1020.981169
 21
180.696298
 31
0.0
  0
LINE
  8
LC-005-002-----0
  6
CONTINUOUS
 62
     2
  5
4DA
 10
1016.588864
 20
185.088603
 30
0.0
 11
1015.856813
 21
185.820654
 31
0.0
  0
LINE
  8
LC-005-002-----0
  6
CONTINUOUS
 62
     2
  5
4DB
 10
997.972221
 20
203.705246
 30
0.0
 11
997.262355
 21
204.415112
 31
0.0
  0
LINE
  8
LC-005-002-----0
  6
CONTINUOUS
 62
     2
  5
4DC
 10
1061.499076
 20
139.370269
 30
0.0
 11
1058.336789
 21
142.532556
 31
0.0
  0
LINE
  8
LC-005-002-----0
  6
CONTINUOUS
 62
     2
  5
4DD
 10
1021.200891
 20
179.668454
 30
0.0
 11
1020.46884
 21
180.400505
 31
0.0
  0
LINE
  8
LC-005-002-----0
  6
CONTINUOUS
 62
     2
  5
4DE
 10
1016.076535
 20
184.79281
 30
0.0
 11
1015.344484
 21
185.524861
 31
0.0
  0
LINE
  8
LC-005-002-----0
  6
CONTINUOUS
 62
     2
  5
4DF
 10
997.636363
 20
203.232981
 30
0.0
 11
996.913063
 21
203.956282
 31
0.0
  0
LINE
  8
LC-005-002-----0
  6
CONTINUOUS
 62
     2
  5
4E0
 10
1062.681563
 20
137.37966
 30
0.0
 11
1059.745524
 21
140.315699
 31
0.0
  0
LINE
  8
LC-005-002-----0
  6
CONTINUOUS
 62
     2
  5
4E1
 10
1020.688562
 20
179.372661
 30
0.0
 11
1019.956511
 21
180.104712
 31
0.0
  0
LINE
  8
LC-005-002-----0
  6
CONTINUOUS
 62
     2
  5
4E2
 10
1015.564206
 20
184.497017
 30
0.0
 11
1014.832156
 21
185.229067
 31
0.0
  0
LINE
  8
LC-005-002-----0
  6
CONTINUOUS
 62
     2
  5
4E3
 10
997.360712
 20
202.700511
 30
0.0
 11
996.61084
 21
203.450383
 31
0.0
  0
LINE
  8
LC-005-002-----0
  6
CONTINUOUS
 62
     2
  5
4E4
 10
1063.763889
 20
135.489212
 30
0.0
 11
1061.010706
 21
138.242395
 31
0.0
  0
LINE
  8
LC-005-002-----0
  6
CONTINUOUS
 62
     2
  5
4E5
 10
1020.176233
 20
179.076868
 30
0.0
 11
1019.444182
 21
179.808918
 31
0.0
  0
LINE
  8
LC-005-002-----0
  6
CONTINUOUS
 62
     2
  5
4E6
 10
1015.051878
 20
184.201223
 30
0.0
 11
1014.319827
 21
184.933274
 31
0.0
  0
LINE
  8
LC-005-002-----0
  6
CONTINUOUS
 62
     2
  5
4E7
 10
997.154305
 20
202.098796
 30
0.0
 11
996.35997
 21
202.893131
 31
0.0
  0
LINE
  8
LC-005-002-----0
  6
CONTINUOUS
 62
     2
  5
4E8
 10
1064.761946
 20
133.683033
 30
0.0
 11
1062.160529
 21
136.28445
 31
0.0
  0
LINE
  8
LC-005-002-----0
  6
CONTINUOUS
 62
     2
  5
4E9
 10
1019.663904
 20
178.781074
 30
0.0
 11
1018.931854
 21
179.513125
 31
0.0
  0
LINE
  8
LC-005-002-----0
  6
CONTINUOUS
 62
     2
  5
4EA
 10
1014.539549
 20
183.90543
 30
0.0
 11
1013.807498
 21
184.637481
 31
0.0
  0
LINE
  8
LC-005-002-----0
  6
CONTINUOUS
 62
     2
  5
4EB
 10
997.03511
 20
201.409869
 30
0.0
 11
996.16795
 21
202.277029
 31
0.0
  0
LINE
  8
LC-005-002-----0
  6
CONTINUOUS
 62
     2
  5
4EC
 10
1065.687775
 20
131.949082
 30
0.0
 11
1063.21494
 21
134.421917
 31
0.0
  0
LINE
  8
LC-005-002-----0
  6
CONTINUOUS
 62
     2
  5
4ED
 10
1019.151576
 20
178.485281
 30
0.0
 11
1018.419525
 21
179.217332
 31
0.0
  0
LINE
  8
LC-005-002-----0
  6
CONTINUOUS
 62
     2
  5
4EE
 10
1014.02722
 20
183.609637
 30
0.0
 11
1013.295169
 21
184.341688
 31
0.0
  0
LINE
  8
LC-005-002-----0
  6
CONTINUOUS
 62
     2
  5
4EF
 10
997.042674
 20
200.594182
 30
0.0
 11
996.047842
 21
201.589015
 31
0.0
  0
LINE
  8
LC-005-002-----0
  6
CONTINUOUS
 62
     2
  5
4F0
 10
1066.550762
 20
130.277973
 30
0.0
 11
1064.18867
 21
132.640065
 31
0.0
  0
LINE
  8
LC-005-002-----0
  6
CONTINUOUS
 62
     2
  5
4F1
 10
1018.639247
 20
178.189488
 30
0.0
 11
1017.907196
 21
178.921539
 31
0.0
  0
LINE
  8
LC-005-002-----0
  6
CONTINUOUS
 62
     2
  5
4F2
 10
1013.514891
 20
183.313844
 30
0.0
 11
1012.78284
 21
184.045895
 31
0.0
  0
LINE
  8
LC-005-002-----0
  6
CONTINUOUS
 62
     2
  5
4F3
 10
997.300787
 20
199.527948
 30
0.0
 11
996.024233
 21
200.804502
 31
0.0
  0
LINE
  8
LC-005-002-----0
  6
CONTINUOUS
 62
     2
  5
4F4
 10
1067.358389
 20
128.662223
 30
0.0
 11
1065.092965
 21
130.927648
 31
0.0
  0
LINE
  8
LC-005-002-----0
  6
CONTINUOUS
 62
     2
  5
4F5
 10
1018.126918
 20
177.893695
 30
0.0
 11
1017.394867
 21
178.625746
 31
0.0
  0
LINE
  8
LC-005-002-----0
  6
CONTINUOUS
 62
     2
  5
4F6
 10
1013.002562
 20
183.018051
 30
0.0
 11
1012.270511
 21
183.750101
 31
0.0
  0
LINE
  8
LC-005-002-----0
  6
CONTINUOUS
 62
     2
  5
4F7
 10
998.266934
 20
197.753679
 30
0.0
 11
996.15291
 21
199.867703
 31
0.0
  0
LINE
  8
LC-005-002-----0
  6
CONTINUOUS
 62
     2
  5
4F8
 10
1068.116741
 20
127.09575
 30
0.0
 11
1065.936646
 21
129.275845
 31
0.0
  0
LINE
  8
LC-005-002-----0
  6
CONTINUOUS
 62
     2
  5
4F9
 10
1017.614589
 20
177.597902
 30
0.0
 11
1016.882538
 21
178.329953
 31
0.0
  0
LINE
  8
LC-005-002-----0
  6
CONTINUOUS
 62
     2
  5
4FA
 10
1012.490233
 20
182.722257
 30
0.0
 11
1011.758183
 21
183.454308
 31
0.0
  0
LINE
  8
LC-005-002-----0
  6
CONTINUOUS
 62
     2
  5
4FB
 10
999.370849
 20
195.841642
 30
0.0
 11
996.644386
 21
198.568105
 31
0.0
  0
LINE
  8
LC-005-002-----0
  6
CONTINUOUS
 62
     2
  5
4FC
 10
1068.830842
 20
125.573527
 30
0.0
 11
1066.726782
 21
127.677587
 31
0.0
  0
LINE
  8
LC-005-002-----0
  6
CONTINUOUS
 62
     2
  5
4FD
 10
1017.10226
 20
177.302109
 30
0.0
 11
1016.370209
 21
178.034159
 31
0.0
  0
LINE
  8
LC-005-002-----0
  6
CONTINUOUS
 62
     2
  5
4FE
 10
1011.977905
 20
182.426464
 30
0.0
 11
1011.245854
 21
183.158515
 31
0.0
  0
LINE
  8
LC-005-002-----0
  6
CONTINUOUS
 62
     2
  5
4FF
 10
1000.474764
 20
193.929604
 30
0.0
 11
997.742713
 21
196.661655
 31
0.0
  0
LINE
  8
LC-005-002-----0
  6
CONTINUOUS
 62
     2
  5
500
 10
1069.504899
 20
124.091348
 30
0.0
 11
1067.469144
 21
126.127103
 31
0.0
  0
LINE
  8
LC-005-002-----0
  6
CONTINUOUS
 62
     2
  5
501
 10
1016.589931
 20
177.006315
 30
0.0
 11
1015.857881
 21
177.738366
 31
0.0
  0
LINE
  8
LC-005-002-----0
  6
CONTINUOUS
 62
     2
  5
502
 10
1011.465576
 20
182.130671
 30
0.0
 11
1010.733525
 21
182.862722
 31
0.0
  0
LINE
  8
LC-005-002-----0
  6
CONTINUOUS
 62
     2
  5
503
 10
1001.099747
 20
192.496499
 30
0.0
 11
998.846629
 21
194.749618
 31
0.0
  0
LINE
  8
LC-005-002-----0
  6
CONTINUOUS
 62
     2
  5
504
 10
1070.142479
 20
122.645646
 30
0.0
 11
1068.168515
 21
124.619609
 31
0.0
  0
LINE
  8
LC-005-002-----0
  6
CONTINUOUS
 62
     2
  5
505
 10
1016.077602
 20
176.710522
 30
0.0
 11
1015.345552
 21
177.442573
 31
0.0
  0
LINE
  8
LC-005-002-----0
  6
CONTINUOUS
 62
     2
  5
506
 10
1010.953247
 20
181.834878
 30
0.0
 11
1010.221196
 21
182.566929
 31
0.0
  0
LINE
  8
LC-005-002-----0
  6
CONTINUOUS
 62
     2
  5
507
 10
1000.587418
 20
192.200706
 30
0.0
 11
999.950544
 21
192.837581
 31
0.0
  0
LINE
  8
LC-005-002-----0
  6
CONTINUOUS
 62
     2
  5
508
 10
1070.746634
 20
121.233368
 30
0.0
 11
1068.828916
 21
123.151087
 31
0.0
  0
LINE
  8
LC-005-002-----0
  6
CONTINUOUS
 62
     2
  5
509
 10
1015.565274
 20
176.414729
 30
0.0
 11
1014.833223
 21
177.14678
 31
0.0
  0
LINE
  8
LC-005-002-----0
  6
CONTINUOUS
 62
     2
  5
50A
 10
1010.440918
 20
181.539085
 30
0.0
 11
1009.708867
 21
182.271135
 31
0.0
  0
LINE
  8
LC-005-002-----0
  6
CONTINUOUS
 62
     2
  5
50B
 10
1071.320005
 20
119.851875
 30
0.0
 11
1069.45376
 21
121.718121
 31
0.0
  0
LINE
  8
LC-005-002-----0
  6
CONTINUOUS
 62
     2
  5
50C
 10
1015.052945
 20
176.118936
 30
0.0
 11
1014.320894
 21
176.850987
 31
0.0
  0
LINE
  8
LC-005-002-----0
  6
CONTINUOUS
 62
     2
  5
50D
 10
1009.928589
 20
181.243291
 30
0.0
 11
1009.196538
 21
181.975342
 31
0.0
  0
LINE
  8
LC-005-002-----0
  6
CONTINUOUS
 62
     2
  5
50E
 10
1071.864891
 20
118.498868
 30
0.0
 11
1070.04598
 21
120.317779
 31
0.0
  0
LINE
  8
LC-005-002-----0
  6
CONTINUOUS
 62
     2
  5
50F
 10
1014.540616
 20
175.823143
 30
0.0
 11
1013.808565
 21
176.555193
 31
0.0
  0
LINE
  8
LC-005-002-----0
  6
CONTINUOUS
 62
     2
  5
510
 10
1009.41626
 20
180.947498
 30
0.0
 11
1008.68421
 21
181.679549
 31
0.0
  0
LINE
  8
LC-005-002-----0
  6
CONTINUOUS
 62
     2
  5
511
 10
1072.383309
 20
117.172327
 30
0.0
 11
1070.608115
 21
118.947522
 31
0.0
  0
LINE
  8
LC-005-002-----0
  6
CONTINUOUS
 62
     2
  5
512
 10
1014.028287
 20
175.527349
 30
0.0
 11
1013.296236
 21
176.2594
 31
0.0
  0
LINE
  8
LC-005-002-----0
  6
CONTINUOUS
 62
     2
  5
513
 10
1008.903931
 20
180.651705
 30
0.0
 11
1008.171881
 21
181.383756
 31
0.0
  0
LINE
  8
LC-005-002-----0
  6
CONTINUOUS
 62
     2
  5
514
 10
1072.877044
 20
115.87047
 30
0.0
 11
1071.142381
 21
117.605134
 31
0.0
  0
LINE
  8
LC-005-002-----0
  6
CONTINUOUS
 62
     2
  5
515
 10
1013.515958
 20
175.231556
 30
0.0
 11
1012.783907
 21
175.963607
 31
0.0
  0
LINE
  8
LC-005-002-----0
  6
CONTINUOUS
 62
     2
  5
516
 10
1008.748581
 20
179.998933
 30
0.0
 11
1007.714063
 21
181.033451
 31
0.0
  0
LINE
  8
LC-005-002-----0
  6
CONTINUOUS
 62
     2
  5
517
 10
1073.34768
 20
114.591712
 30
0.0
 11
1071.650727
 21
116.288665
 31
0.0
  0
LINE
  8
LC-005-002-----0
  6
CONTINUOUS
 62
     2
  5
518
 10
1013.003629
 20
174.935763
 30
0.0
 11
1012.271579
 21
175.667814
 31
0.0
  0
LINE
  8
LC-005-002-----0
  6
CONTINUOUS
 62
     2
  5
519
 10
1009.852496
 20
178.086896
 30
0.0
 11
1007.504849
 21
180.434544
 31
0.0
  0
LINE
  8
LC-005-002-----0
  6
CONTINUOUS
 62
     2
  5
51A
 10
1073.796634
 20
113.334637
 30
0.0
 11
1072.134878
 21
114.996392
 31
0.0
  0
LINE
  8
LC-005-002-----0
  6
CONTINUOUS
 62
     2
  5
51B
 10
1012.491301
 20
174.63997
 30
0.0
 11
1011.75925
 21
175.372021
 31
0.0
  0
LINE
  8
LC-005-002-----0
  6
CONTINUOUS
 62
     2
  5
51C
 10
1010.956411
 20
176.174859
 30
0.0
 11
1008.224361
 21
178.90691
 31
0.0
  0
LINE
  8
LC-005-002-----0
  6
CONTINUOUS
 62
     2
  5
51D
 10
1074.225176
 20
112.097973
 30
0.0
 11
1072.596369
 21
113.726779
 31
0.0
  0
LINE
  8
LC-005-002-----0
  6
CONTINUOUS
 62
     2
  5
51E
 10
1011.978645
 20
174.344504
 30
0.0
 11
1009.328276
 21
176.994872
 31
0.0
  0
LINE
  8
LC-005-002-----0
  6
CONTINUOUS
 62
     2
  5
51F
 10
1074.634453
 20
110.880573
 30
0.0
 11
1073.036572
 21
112.478454
 31
0.0
  0
LINE
  8
LC-005-002-----0
  6
CONTINUOUS
 62
     2
  5
520
 10
1011.259356
 20
174.25567
 30
0.0
 11
1010.432191
 21
175.082835
 31
0.0
  0
LINE
  8
LC-005-002-----0
  6
CONTINUOUS
 62
     2
  5
521
 10
1075.025505
 20
109.681399
 30
0.0
 11
1073.456723
 21
111.250181
 31
0.0
  0
LINE
  8
LC-005-002-----0
  6
CONTINUOUS
 62
     2
  5
522
 10
1075.399277
 20
108.499505
 30
0.0
 11
1073.857935
 21
110.040847
 31
0.0
  0
LINE
  8
LC-005-002-----0
  6
CONTINUOUS
 62
     2
  5
523
 10
1075.756629
 20
107.334031
 30
0.0
 11
1074.24122
 21
108.84944
 31
0.0
  0
LINE
  8
LC-005-002-----0
  6
CONTINUOUS
 62
     2
  5
524
 10
1076.098352
 20
106.184186
 30
0.0
 11
1074.607497
 21
107.675041
 31
0.0
  0
LINE
  8
LC-005-002-----0
  6
CONTINUOUS
 62
     2
  5
525
 10
1076.42517
 20
105.049246
 30
0.0
 11
1074.957606
 21
106.51681
 31
0.0
  0
LINE
  8
LC-005-002-----0
  6
CONTINUOUS
 62
     2
  5
526
 10
1076.737749
 20
103.928545
 30
0.0
 11
1075.292317
 21
105.373977
 31
0.0
  0
LINE
  8
LC-005-002-----0
  6
CONTINUOUS
 62
     2
  5
527
 10
1077.036707
 20
102.821465
 30
0.0
 11
1075.612337
 21
104.245835
 31
0.0
  0
LINE
  8
LC-005-002-----0
  6
CONTINUOUS
 62
     2
  5
528
 10
1077.322614
 20
101.727436
 30
0.0
 11
1075.918318
 21
103.131732
 31
0.0
  0
LINE
  8
LC-005-002-----0
  6
CONTINUOUS
 62
     2
  5
529
 10
1077.595998
 20
100.64593
 30
0.0
 11
1076.210861
 21
102.031067
 31
0.0
  0
LINE
  8
LC-005-002-----0
  6
CONTINUOUS
 62
     2
  5
52A
 10
1077.857352
 20
99.576454
 30
0.0
 11
1076.490525
 21
100.943281
 31
0.0
  0
LINE
  8
LC-005-002-----0
  6
CONTINUOUS
 62
     2
  5
52B
 10
1078.107135
 20
98.518549
 30
0.0
 11
1076.757828
 21
99.867856
 31
0.0
  0
LINE
  8
LC-005-002-----0
  6
CONTINUOUS
 62
     2
  5
52C
 10
1078.345774
 20
97.471788
 30
0.0
 11
1077.013251
 21
98.804311
 31
0.0
  0
LINE
  8
LC-005-002-----0
  6
CONTINUOUS
 62
     2
  5
52D
 10
1078.57367
 20
96.43577
 30
0.0
 11
1077.257243
 21
97.752197
 31
0.0
  0
LINE
  8
LC-005-002-----0
  6
CONTINUOUS
 62
     2
  5
52E
 10
1078.791199
 20
95.410119
 30
0.0
 11
1077.490224
 21
96.711094
 31
0.0
  0
LINE
  8
LC-005-002-----0
  6
CONTINUOUS
 62
     2
  5
52F
 10
1078.998713
 20
94.394483
 30
0.0
 11
1077.712587
 21
95.680609
 31
0.0
  0
LINE
  8
LC-005-002-----0
  6
CONTINUOUS
 62
     2
  5
530
 10
1079.196543
 20
93.388531
 30
0.0
 11
1077.924699
 21
94.660374
 31
0.0
  0
LINE
  8
LC-005-002-----0
  6
CONTINUOUS
 62
     2
  5
531
 10
1079.385
 20
92.391951
 30
0.0
 11
1078.126907
 21
93.650044
 31
0.0
  0
LINE
  8
LC-005-002-----0
  6
CONTINUOUS
 62
     2
  5
532
 10
1079.56438
 20
91.404449
 30
0.0
 11
1078.319536
 21
92.649293
 31
0.0
  0
LINE
  8
LC-005-002-----0
  6
CONTINUOUS
 62
     2
  5
533
 10
1079.734959
 20
90.425748
 30
0.0
 11
1078.502892
 21
91.657816
 31
0.0
  0
LINE
  8
LC-005-002-----0
  6
CONTINUOUS
 62
     2
  5
534
 10
1079.897001
 20
89.455585
 30
0.0
 11
1078.677263
 21
90.675323
 31
0.0
  0
LINE
  8
LC-005-002-----0
  6
CONTINUOUS
 62
     2
  5
535
 10
1080.050753
 20
88.493711
 30
0.0
 11
1078.842923
 21
89.701541
 31
0.0
  0
LINE
  8
LC-005-002-----0
  6
CONTINUOUS
 62
     2
  5
536
 10
1080.196451
 20
87.53989
 30
0.0
 11
1079.000129
 21
88.736212
 31
0.0
  0
LINE
  8
LC-005-002-----0
  6
CONTINUOUS
 62
     2
  5
537
 10
1080.334319
 20
86.593901
 30
0.0
 11
1079.149126
 21
87.779093
 31
0.0
  0
LINE
  8
LC-005-002-----0
  6
CONTINUOUS
 62
     2
  5
538
 10
1080.464568
 20
85.655529
 30
0.0
 11
1079.290146
 21
86.829952
 31
0.0
  0
LINE
  8
LC-005-002-----0
  6
CONTINUOUS
 62
     2
  5
539
 10
1080.587402
 20
84.724574
 30
0.0
 11
1079.423408
 21
85.888568
 31
0.0
  0
LINE
  8
LC-005-002-----0
  6
CONTINUOUS
 62
     2
  5
53A
 10
1080.703011
 20
83.800843
 30
0.0
 11
1079.549121
 21
84.954732
 31
0.0
  0
LINE
  8
LC-005-002-----0
  6
CONTINUOUS
 62
     2
  5
53B
 10
1080.811401
 20
82.884331
 30
0.0
 11
1079.667484
 21
84.028247
 31
0.0
  0
LINE
  8
LC-005-002-----0
  6
CONTINUOUS
 62
     2
  5
53C
 10
1080.814844
 20
82.072766
 30
0.0
 11
1079.778686
 21
83.108923
 31
0.0
  0
LINE
  8
LC-005-002-----0
  6
CONTINUOUS
 62
     2
  5
53D
 10
1080.687981
 20
81.391506
 30
0.0
 11
1079.826526
 21
82.252962
 31
0.0
  0
LINE
  8
LC-005-002-----0
  6
CONTINUOUS
 62
     2
  5
53E
 10
1080.47202
 20
80.799345
 30
0.0
 11
1079.698965
 21
81.5724
 31
0.0
  0
LINE
  8
LC-005-002-----0
  6
CONTINUOUS
 62
     2
  5
53F
 10
1080.185188
 20
80.278055
 30
0.0
 11
1079.457066
 21
81.006177
 31
0.0
  0
LINE
  8
LC-005-002-----0
  6
CONTINUOUS
 62
     2
  5
540
 10
1079.836329
 20
79.818792
 30
0.0
 11
1079.127309
 21
80.527812
 31
0.0
  0
LINE
  8
LC-005-002-----0
  6
CONTINUOUS
 62
     2
  5
541
 10
1079.429089
 20
79.41791
 30
0.0
 11
1078.719
 21
80.127999
 31
0.0
  0
LINE
  8
LC-005-002-----0
  6
CONTINUOUS
 62
     2
  5
542
 10
1078.963265
 20
79.075612
 30
0.0
 11
1078.233305
 21
79.805572
 31
0.0
  0
LINE
  8
LC-005-002-----0
  6
CONTINUOUS
 62
     2
  5
543
 10
1078.453027
 20
78.777728
 30
0.0
 11
1077.720976
 21
79.509779
 31
0.0
  0
LINE
  8
LC-005-002-----0
  6
CONTINUOUS
 62
     2
  5
544
 10
1077.940698
 20
78.481935
 30
0.0
 11
1077.208648
 21
79.213985
 31
0.0
  0
LINE
  8
LC-005-002-----0
  6
CONTINUOUS
 62
     2
  5
545
 10
1077.428369
 20
78.186141
 30
0.0
 11
1076.696319
 21
78.918192
 31
0.0
  0
LINE
  8
LC-005-002-----0
  6
CONTINUOUS
 62
     2
  5
546
 10
1076.916041
 20
77.890348
 30
0.0
 11
1076.18399
 21
78.622399
 31
0.0
  0
LINE
  8
LC-005-002-----0
  6
CONTINUOUS
 62
     2
  5
547
 10
1076.403712
 20
77.594555
 30
0.0
 11
1075.671661
 21
78.326606
 31
0.0
  0
LINE
  8
LC-005-002-----0
  6
CONTINUOUS
 62
     2
  5
548
 10
1075.891383
 20
77.298762
 30
0.0
 11
1075.159332
 21
78.030813
 31
0.0
  0
LINE
  8
LC-005-002-----0
  6
CONTINUOUS
 62
     2
  5
549
 10
1075.379054
 20
77.002969
 30
0.0
 11
1074.647003
 21
77.73502
 31
0.0
  0
LINE
  8
LC-005-002-----0
  6
CONTINUOUS
 62
     2
  5
54A
 10
1074.866725
 20
76.707176
 30
0.0
 11
1074.134674
 21
77.439226
 31
0.0
  0
LINE
  8
LC-005-002-----0
  6
CONTINUOUS
 62
     2
  5
54B
 10
1074.354396
 20
76.411382
 30
0.0
 11
1073.622346
 21
77.143433
 31
0.0
  0
LINE
  8
LC-005-002-----0
  6
CONTINUOUS
 62
     2
  5
54C
 10
1073.842068
 20
76.115589
 30
0.0
 11
1073.110017
 21
76.84764
 31
0.0
  0
LINE
  8
LC-005-002-----0
  6
CONTINUOUS
 62
     2
  5
54D
 10
1073.329739
 20
75.819796
 30
0.0
 11
1072.597688
 21
76.551847
 31
0.0
  0
LINE
  8
LC-005-002-----0
  6
CONTINUOUS
 62
     2
  5
54E
 10
1072.81741
 20
75.524003
 30
0.0
 11
1072.085359
 21
76.256054
 31
0.0
  0
LINE
  8
LC-005-002-----0
  6
CONTINUOUS
 62
     2
  5
54F
 10
1072.305081
 20
75.22821
 30
0.0
 11
1071.57303
 21
75.96026
 31
0.0
  0
LINE
  8
LC-005-002-----0
  6
CONTINUOUS
 62
     2
  5
550
 10
1071.792752
 20
74.932416
 30
0.0
 11
1071.060701
 21
75.664467
 31
0.0
  0
LINE
  8
LC-005-002-----0
  6
CONTINUOUS
 62
     2
  5
551
 10
1071.280423
 20
74.636623
 30
0.0
 11
1070.548373
 21
75.368674
 31
0.0
  0
LINE
  8
LC-005-002-----0
  6
CONTINUOUS
 62
     2
  5
552
 10
1075.89245
 20
69.216474
 30
0.0
 11
1075.160399
 21
69.948525
 31
0.0
  0
LINE
  8
LC-005-002-----0
  6
CONTINUOUS
 62
     2
  5
553
 10
1070.768095
 20
74.34083
 30
0.0
 11
1070.036044
 21
75.072881
 31
0.0
  0
LINE
  8
LC-005-002-----0
  6
CONTINUOUS
 62
     2
  5
554
 10
1075.380121
 20
68.920681
 30
0.0
 11
1074.648071
 21
69.652732
 31
0.0
  0
LINE
  8
LC-005-002-----0
  6
CONTINUOUS
 62
     2
  5
555
 10
1070.255766
 20
74.045037
 30
0.0
 11
1069.523715
 21
74.777088
 31
0.0
  0
LINE
  8
LC-005-002-----0
  6
CONTINUOUS
 62
     2
  5
556
 10
1074.867793
 20
68.624888
 30
0.0
 11
1074.135742
 21
69.356939
 31
0.0
  0
LINE
  8
LC-005-002-----0
  6
CONTINUOUS
 62
     2
  5
557
 10
1070.567834
 20
72.924847
 30
0.0
 11
1069.122256
 21
74.370424
 31
0.0
  0
LINE
  8
LC-005-002-----0
  6
CONTINUOUS
 62
     2
  5
558
 10
1074.355464
 20
68.329095
 30
0.0
 11
1073.623413
 21
69.061146
 31
0.0
  0
LINE
  8
LC-005-002-----0
  6
CONTINUOUS
 62
     2
  5
559
 10
1071.671749
 20
71.012809
 30
0.0
 11
1069.037242
 21
73.647316
 31
0.0
  0
LINE
  8
LC-005-002-----0
  6
CONTINUOUS
 62
     2
  5
55A
 10
1073.843135
 20
68.033302
 30
0.0
 11
1073.111084
 21
68.765352
 31
0.0
  0
LINE
  8
LC-005-002-----0
  6
CONTINUOUS
 62
     2
  5
55B
 10
1072.775664
 20
69.100772
 30
0.0
 11
1070.043614
 21
71.832823
 31
0.0
  0
LINE
  8
LC-005-002-----0
  6
CONTINUOUS
 62
     2
  5
55C
 10
1073.315005
 20
67.75331
 30
0.0
 11
1071.147529
 21
69.920786
 31
0.0
  0
ENDBLK
  8
0
  5
55D
  0
BLOCK
  8
0
  5
55F
  2
*D24
 70
    65
 10
0.0
 20
0.0
 30
0.0
  3
*D24
  0
LINE
  8
LC-003-003-MTH-0
  6
CONTINUOUS
  5
560
 10
1010.220894
 20
35.064404
 30
0.0
 11
1349.6
 21
35.064404
 31
0.0
  0
LINE
  8
LC-003-003-MTH-0
  6
CONTINUOUS
  5
561
 10
1034.525951
 20
352.94609
 30
0.0
 11
1349.6
 21
352.94609
 31
0.0
  0
LINE
  8
LC-004-003-MTG-0
  6
CONTINUOUS
  5
562
 10
1332.8
 20
35.064404
 30
0.0
 11
1332.8
 21
352.94609
 31
0.0
  0
LINE
  8
LC-002-003-----0
  6
CONTINUOUS
  5
563
 10
1329.145267
 20
62.82486
 30
0.0
 11
1332.8
 21
35.064404
 31
0.0
  0
LINE
  8
LC-002-003-----0
  6
CONTINUOUS
  5
564
 10
1332.8
 20
35.064404
 30
0.0
 11
1336.454733
 21
62.82486
 31
0.0
  0
LINE
  8
LC-002-003-----0
  6
CONTINUOUS
  5
565
 10
1336.454733
 20
62.82486
 30
0.0
 11
1329.145267
 21
62.82486
 31
0.0
  0
LINE
  8
LC-002-003-----0
  6
CONTINUOUS
  5
566
 10
1330.095497
 20
62.887142
 30
0.0
 11
1332.8
 21
42.344404
 31
0.0
  0
LINE
  8
LC-002-003-----0
  6
CONTINUOUS
  5
567
 10
1332.8
 20
42.344404
 30
0.0
 11
1335.504503
 21
62.887142
 31
0.0
  0
LINE
  8
LC-002-003-----0
  6
CONTINUOUS
  5
568
 10
1331.045728
 20
62.949423
 30
0.0
 11
1332.8
 21
49.624404
 31
0.0
  0
LINE
  8
LC-002-003-----0
  6
CONTINUOUS
  5
569
 10
1332.8
 20
49.624404
 30
0.0
 11
1334.554272
 21
62.949423
 31
0.0
  0
LINE
  8
LC-002-003-----0
  6
CONTINUOUS
  5
56A
 10
1331.995959
 20
63.011704
 30
0.0
 11
1332.8
 21
56.904404
 31
0.0
  0
LINE
  8
LC-002-003-----0
  6
CONTINUOUS
  5
56B
 10
1332.8
 20
56.904404
 30
0.0
 11
1333.604041
 21
63.011704
 31
0.0
  0
LINE
  8
LC-002-003-----0
  6
CONTINUOUS
  5
56C
 10
1336.454733
 20
325.185634
 30
0.0
 11
1332.8
 21
352.94609
 31
0.0
  0
LINE
  8
LC-002-003-----0
  6
CONTINUOUS
  5
56D
 10
1332.8
 20
352.94609
 30
0.0
 11
1329.145267
 21
325.185634
 31
0.0
  0
LINE
  8
LC-002-003-----0
  6
CONTINUOUS
  5
56E
 10
1329.145267
 20
325.185634
 30
0.0
 11
1336.454733
 21
325.185634
 31
0.0
  0
LINE
  8
LC-002-003-----0
  6
CONTINUOUS
  5
56F
 10
1335.504503
 20
325.123352
 30
0.0
 11
1332.8
 21
345.66609
 31
0.0
  0
LINE
  8
LC-002-003-----0
  6
CONTINUOUS
  5
570
 10
1332.8
 20
345.66609
 30
0.0
 11
1330.095497
 21
325.123352
 31
0.0
  0
LINE
  8
LC-002-003-----0
  6
CONTINUOUS
  5
571
 10
1334.554272
 20
325.061071
 30
0.0
 11
1332.8
 21
338.38609
 31
0.0
  0
LINE
  8
LC-002-003-----0
  6
CONTINUOUS
  5
572
 10
1332.8
 20
338.38609
 30
0.0
 11
1331.045728
 21
325.061071
 31
0.0
  0
LINE
  8
LC-002-003-----0
  6
CONTINUOUS
  5
573
 10
1333.604041
 20
324.998789
 30
0.0
 11
1332.8
 21
331.10609
 31
0.0
  0
LINE
  8
LC-002-003-----0
  6
CONTINUOUS
  5
574
 10
1332.8
 20
331.10609
 30
0.0
 11
1331.995959
 21
324.998789
 31
0.0
  0
TEXT
  8
LC-002-003-----0
  6
CONTINUOUS
 62
     8
  5
575
 10
1324.972446
 20
155.154075
 30
0.0
 40
28.0
  1
220-320
 50
90.0
 41
0.9
 51
15.0
  7
LC-TXTSTYLE-150-400-0-0-A0
 72
     1
 11
1324.972446
 21
213.228
 31
0.0
  0
ENDBLK
  8
0
  5
576
  0
BLOCK
  8
0
  5
578
  2
*D25
 70
    65
 10
0.0
 20
0.0
 30
0.0
  3
*D25
  0
LINE
  8
LC-003-003-MTH-0
  6
CONTINUOUS
  5
579
 10
1152.553263
 20
96.543253
 30
0.0
 11
1232.0
 21
96.543253
 31
0.0
  0
LINE
  8
LC-003-003-MTH-0
  6
CONTINUOUS
  5
57A
 10
984.454396
 20
110.91367
 30
0.0
 11
1232.0
 21
110.91367
 31
0.0
  0
LINE
  8
LC-002-003-----0
  6
CONTINUOUS
  5
57B
 10
1218.854733
 20
68.782797
 30
0.0
 11
1215.2
 21
96.543253
 31
0.0
  0
LINE
  8
LC-002-003-----0
  6
CONTINUOUS
  5
57C
 10
1215.2
 20
96.543253
 30
0.0
 11
1211.545267
 21
68.782797
 31
0.0
  0
LINE
  8
LC-002-003-----0
  6
CONTINUOUS
  5
57D
 10
1211.545267
 20
68.782797
 30
0.0
 11
1218.854733
 21
68.782797
 31
0.0
  0
LINE
  8
LC-002-003-----0
  6
CONTINUOUS
  5
57E
 10
1217.904503
 20
68.720516
 30
0.0
 11
1215.2
 21
89.263253
 31
0.0
  0
LINE
  8
LC-002-003-----0
  6
CONTINUOUS
  5
57F
 10
1215.2
 20
89.263253
 30
0.0
 11
1212.495497
 21
68.720516
 31
0.0
  0
LINE
  8
LC-002-003-----0
  6
CONTINUOUS
  5
580
 10
1216.954272
 20
68.658234
 30
0.0
 11
1215.2
 21
81.983253
 31
0.0
  0
LINE
  8
LC-002-003-----0
  6
CONTINUOUS
  5
581
 10
1215.2
 20
81.983253
 30
0.0
 11
1213.445728
 21
68.658234
 31
0.0
  0
LINE
  8
LC-002-003-----0
  6
CONTINUOUS
  5
582
 10
1216.004041
 20
68.595953
 30
0.0
 11
1215.2
 21
74.703253
 31
0.0
  0
LINE
  8
LC-002-003-----0
  6
CONTINUOUS
  5
583
 10
1215.2
 20
74.703253
 30
0.0
 11
1214.395959
 21
68.595953
 31
0.0
  0
LINE
  8
LC-002-003-----0
  6
CONTINUOUS
  5
584
 10
1211.545267
 20
138.674127
 30
0.0
 11
1215.2
 21
110.91367
 31
0.0
  0
LINE
  8
LC-002-003-----0
  6
CONTINUOUS
  5
585
 10
1215.2
 20
110.91367
 30
0.0
 11
1218.854733
 21
138.674127
 31
0.0
  0
LINE
  8
LC-002-003-----0
  6
CONTINUOUS
  5
586
 10
1218.854733
 20
138.674127
 30
0.0
 11
1211.545267
 21
138.674127
 31
0.0
  0
LINE
  8
LC-002-003-----0
  6
CONTINUOUS
  5
587
 10
1212.495497
 20
138.736408
 30
0.0
 11
1215.2
 21
118.19367
 31
0.0
  0
LINE
  8
LC-002-003-----0
  6
CONTINUOUS
  5
588
 10
1215.2
 20
118.19367
 30
0.0
 11
1217.904503
 21
138.736408
 31
0.0
  0
LINE
  8
LC-002-003-----0
  6
CONTINUOUS
  5
589
 10
1213.445728
 20
138.798689
 30
0.0
 11
1215.2
 21
125.47367
 31
0.0
  0
LINE
  8
LC-002-003-----0
  6
CONTINUOUS
  5
58A
 10
1215.2
 20
125.47367
 30
0.0
 11
1216.954272
 21
138.798689
 31
0.0
  0
LINE
  8
LC-002-003-----0
  6
CONTINUOUS
  5
58B
 10
1214.395959
 20
138.860971
 30
0.0
 11
1215.2
 21
132.75367
 31
0.0
  0
LINE
  8
LC-002-003-----0
  6
CONTINUOUS
  5
58C
 10
1215.2
 20
132.75367
 30
0.0
 11
1216.004041
 21
138.860971
 31
0.0
  0
LINE
  8
LC-004-003-MTG-0
  6
CONTINUOUS
  5
58D
 10
1215.2
 20
57.343253
 30
0.0
 11
1215.2
 21
214.54239
 31
0.0
  0
TEXT
  8
LC-002-003-----0
  6
CONTINUOUS
 62
     8
  5
58E
 10
1207.372446
 20
163.13345
 30
0.0
 40
28.0
  1
14,5
 50
90.0
 41
0.7
 51
15.0
  7
LC-TXTSTYLE-150-400-0-0-A0
  0
ENDBLK
  8
0
  5
58F
  0
ENDSEC
  0
SECTION
  2
ENTITIES
  0
VIEWPORT
  8
LC-000
  5
7F6
 67
     1
 68
     1
 10
420.0
 20
297.0
 30
0.0
 40
840.0
 41
594.0
 69
     1
1001
ACAD
1000
MVIEW
1002
{
1070
    16
1010
0.0
1020
0.0
1030
0.0
1010
0.0
1020
0.0
1030
1.0
1040
0.0
1040
594.0
1040
420.0
1040
297.0
1040
50.0
1040
0.0
1040
0.0
1070
     0
1070
   100
1070
     1
1070
     1
1070
     0
1070
     0
1070
     0
1070
     0
1040
0.0
1040
0.0
1040
0.0
1040
1.0
1040
1.0
1040
0.0
1040
0.0
1070
     0
1002
{
1002
}
1002
}
  0
VIEWPORT
  8
0
  5
7F7
 67
     1
 68
     1
 10
0.0
 20
0.0
 30
0.0
 40
0.0
 41
0.0
 69
     1
1001
ACAD
1000
MVIEW
1002
{
1070
    16
1010
0.0
1020
0.0
1030
0.0
1010
0.0
1020
0.0
1030
1.0
1040
0.0
1040
594.0
1040
0.0
1040
0.0
1040
50.0
1040
0.0
1040
0.0
1070
     0
1070
   100
1070
     0
1070
     1
1070
     0
1070
     0
1070
     0
1070
     0
1040
0.0
1040
0.0
1040
0.0
1040
0.5
1040
0.5
1040
0.5
1040
0.5
1070
     0
1002
{
1002
}
1002
}
  0
DIMENSION
  8
LC-002-003-----0
  6
CONTINUOUS
  5
590
  2
*D0
 10
1071.51971
 20
0.0
 30
0.0
 11
1071.51971
 21
0.0
 31
0.0
  1
302
 13
1223.26971
 23
150.190382
 33
0.0
 14
919.76971
 24
110.913667
 34
0.0
  3
LC-DIM-L-0140-03-02
  0
INSERT
  8
LC-007-005-----0
  6
CONTINUOUS
  5
591
  2
*X1
 10
985.691329
 20
39.064404
 30
0.0
  0
DIMENSION
  8
LC-002-003-----0
  6
CONTINUOUS
  5
592
  2
*D2
 10
901.6
 20
110.913668
 30
0.0
 11
901.6
 21
110.913668
 31
0.0
  1
DN100
 13
938.769316
 23
166.113672
 33
0.0
 14
938.769321
 24
55.713664
 34
0.0
 50
90.0
  3
LC-DIM-L-0140-03-02
  0
INSERT
  8
LC-007-005-----0
  6
CONTINUOUS
  5
593
  2
*X3
 10
919.76971
 20
35.064404
 30
0.0
  0
INSERT
  8
LC-007-005-----0
  6
CONTINUOUS
  5
594
  2
*X4
 10
1153.465101
 20
148.843041
 30
0.0
  0
DIMENSION
  8
LC-002-003-----0
  6
CONTINUOUS
  5
595
  2
*D5
 10
1293.6
 20
96.543253
 30
0.0
 11
1293.6
 21
96.543253
 31
0.0
  1
DN100
 13
1218.26971
 23
41.543253
 33
0.0
 14
1218.26971
 24
151.543253
 34
0.0
 50
90.0
  3
LC-DIM-L-0140-03-02
  0
INSERT
  8
LC-007-005-----0
  6
CONTINUOUS
  5
596
  2
*X6
 10
919.76971
 20
163.056727
 30
0.0
  0
INSERT
  8
LC-007-005-----0
  6
CONTINUOUS
  5
597
  2
*X7
 10
929.869316
 20
49.385897
 30
0.0
  0
INSERT
  8
LC-007-005-----0
  6
CONTINUOUS
  5
598
  2
*X8
 10
929.869316
 20
164.934342
 30
0.0
  0
INSERT
  8
LC-007-005-----0
  6
CONTINUOUS
  5
599
  2
*X9
 10
1012.125951
 20
315.44609
 30
0.0
  0
INSERT
  8
LC-005-002-----0
  6
CONTINUOUS
 62
     2
  5
59A
  2
*X10
 10
1031.725951
 20
333.94609
 30
0.0
  0
INSERT
  8
LC-007-005-----0
  6
CONTINUOUS
  5
59B
  2
*X11
 10
1025.625951
 20
324.82496
 30
0.0
  0
INSERT
  8
LC-007-005-----0
  6
CONTINUOUS
  5
59C
  2
*X12
 10
973.606083
 20
206.560129
 30
0.0
  0
INSERT
  8
LC-007-005-----0
  6
CONTINUOUS
  5
59D
  2
*X13
 10
1034.106078
 20
206.560129
 30
0.0
  0
INSERT
  8
LC-007-005-----0
  6
CONTINUOUS
  5
59E
  2
*X14
 10
1021.856078
 20
228.060129
 30
0.0
  0
INSERT
  8
LC-007-005-----0
  6
CONTINUOUS
  5
59F
  2
*X15
 10
1034.006078
 20
228.060129
 30
0.0
  0
INSERT
  8
LC-007-005-----0
  6
CONTINUOUS
  5
5A0
  2
*X16
 10
976.625954
 20
215.560129
 30
0.0
  0
INSERT
  8
LC-005-002-----0
  6
CONTINUOUS
 62
     2
  5
5A1
  2
*X17
 10
983.63441
 20
183.968227
 30
0.0
  0
INSERT
  8
LC-005-002-----0
  6
CONTINUOUS
 62
     2
  5
5A2
  2
*X18
 10
986.498022
 20
38.755133
 30
0.0
  0
INSERT
  8
LC-005-002-----0
  6
CONTINUOUS
 62
     2
  5
5A3
  2
*X19
 10
982.291771
 20
176.694937
 30
0.0
  0
INSERT
  8
LC-005-002-----0
  6
CONTINUOUS
 62
     2
  5
5A4
  2
*X20
 10
984.579781
 20
41.682958
 30
0.0
  0
INSERT
  8
LC-005-002-----0
  6
CONTINUOUS
 62
     2
  5
5A5
  2
*X21
 10
909.210857
 20
-77.652025
 30
0.0
  0
INSERT
  8
LC-005-002-----0
  6
CONTINUOUS
 62
     2
  5
5A6
  2
*X22
 10
742.617765
 20
-25.404038
 30
0.0
  0
INSERT
  8
LC-005-002-----0
  6
CONTINUOUS
 62
     2
  5
5A7
  2
*X23
 10
801.729713
 20
-73.123176
 30
0.0
  0
DIMENSION
  8
LC-002-003-----0
  6
CONTINUOUS
  5
5A8
  2
*D24
 10
1332.8
 20
208.87984
 30
0.0
 11
1332.8
 21
208.87984
 31
0.0
  1
220-320
 13
1010.220894
 23
35.064404
 33
0.0
 14
1034.525951
 24
352.94609
 34
0.0
 50
90.0
  3
LC-DIM-L-0140-02-02
  0
DIMENSION
  8
LC-002-003-----0
  6
CONTINUOUS
  5
5A9
  2
*D25
 10
1215.2
 20
182.74384
 30
0.0
 11
1215.2
 21
182.74384
 31
0.0
  1
14,5
 13
1152.553263
 23
96.543253
 33
0.0
 14
984.454396
 24
110.91367
 34
0.0
 50
90.0
  3
LC-DIM-L-0140-02-02
  0
LINE
  8
LC-005-002-----0
  6
CONTINUOUS
  5
5AA
 10
983.273661
 20
178.557945
 30
0.0
 11
985.363815
 21
58.813134
 31
0.0
  0
LINE
  8
LC-006-006-MLN-0
  6
DASHDOT
  5
5AE
 10
1233.26971
 20
96.543253
 30
0.0
 11
1142.553263
 21
96.543253
 31
0.0
  0
LINE
  8
LC-005-002-----0
  6
CONTINUOUS
  5
5AF
 10
1011.209095
 20
214.060129
 30
0.0
 11
1011.209095
 21
206.521667
 31
0.0
  0
LINE
  8
LC-008-001-----0
  6
CONTINUOUS
  5
5B1
 10
1151.873356
 20
215.561813
 30
0.0
 11
1154.628332
 21
215.561869
 31
0.0
  0
LINE
  8
LC-006-006-MLN-0
  6
DASHDOT
  5
5B2
 10
1259000390.690425
 20
17047160.797563
 30
0.0
 11
1259000390.690425
 21
-17047372.630085
 31
0.0
  0
ARC
  8
LC-009-100-D01-0
  6
CONTINUOUS
  5
5B4
 10
986.691227
 20
40.064404
 30
0.0
 40
1.0
 50
181.0
 51
270.0
  0
LINE
  8
LC-006-006-MLN-0
  6
DASHDOT
  5
5B5
 10
909.76971
 20
110.913667
 30
0.0
 11
994.454396
 21
110.913671
 31
0.0
  0
ARC
  8
LC-009-100-D01-0
  6
CONTINUOUS
  5
5B6
 10
1007.209095
 20
40.064404
 30
0.0
 40
1.0
 50
270.0
 51
0.0
  0
LINE
  8
LC-005-002-----0
  6
CONTINUOUS
  5
5B7
 10
1158.770075
 20
151.543253
 30
0.0
 11
1218.26971
 21
151.543253
 31
0.0
  0
LINE
  8
LC-005-002-----0
  6
CONTINUOUS
  5
5B8
 10
1156.856448
 20
41.543253
 30
0.0
 11
1218.26971
 21
41.543253
 31
0.0
  0
LINE
  8
LC-005-002-----0
  6
CONTINUOUS
  5
5B9
 10
1218.26971
 20
151.543253
 30
0.0
 11
1223.26971
 21
150.203507
 31
0.0
  0
LINE
  8
LC-005-002-----0
  6
CONTINUOUS
  5
5BA
 10
1218.26971
 20
41.543253
 30
0.0
 11
1223.26971
 21
42.882999
 31
0.0
  0
LINE
  8
LC-005-002-----0
  6
CONTINUOUS
  5
5BB
 10
925.069309
 20
167.413668
 30
0.0
 11
925.069309
 21
54.413668
 31
0.0
  0
LINE
  8
LC-005-002-----0
  6
CONTINUOUS
  5
5BC
 10
981.030796
 20
163.21367
 30
0.0
 11
983.541496
 21
163.21367
 31
0.0
  0
LINE
  8
LC-005-002-----0
  6
CONTINUOUS
  5
5BD
 10
981.030796
 20
58.61367
 30
0.0
 11
985.367296
 21
58.613671
 31
0.0
  0
LINE
  8
LC-005-002-----0
  6
CONTINUOUS
  5
5BE
 10
975.030796
 20
166.11367
 30
0.0
 11
938.769316
 21
166.113668
 31
0.0
  0
LINE
  8
LC-005-002-----0
  6
CONTINUOUS
  5
5BF
 10
920.14913
 20
51.632298
 30
0.0
 11
923.269715
 21
51.413667
 31
0.0
  0
LINE
  8
LC-005-002-----0
  6
CONTINUOUS
  5
5C0
 10
920.232021
 20
170.200845
 30
0.0
 11
923.26971
 21
170.413667
 31
0.0
  0
LINE
  8
LC-005-002-----0
  6
CONTINUOUS
  5
5C1
 10
925.061777
 20
54.414103
 30
0.0
 11
919.769715
 21
54.71956
 31
0.0
  0
LINE
  8
LC-005-002-----0
  6
CONTINUOUS
  5
5C2
 10
925.069309
 20
167.413668
 30
0.0
 11
919.76971
 21
167.107774
 31
0.0
  0
ARC
  8
LC-011-001-RND-0
  6
CONTINUOUS
  5
5C4
 10
1155.356589
 20
41.563854
 30
0.0
 40
1.5
 50
269.999681
 51
359.213086
  0
LINE
  8
LC-012-100-D03-0
  6
CONTINUOUS
  5
5C6
 10
961.53297
 20
170.360118
 30
0.0
 11
943.53297
 21
170.360118
 31
0.0
  0
LINE
  8
LC-005-002-----0
  6
CONTINUOUS
  5
5C7
 10
961.53297
 20
170.360118
 30
0.0
 11
961.53297
 21
171.860118
 31
0.0
  0
LINE
  8
LC-005-002-----0
  6
CONTINUOUS
  5
5C8
 10
964.53297
 20
170.360118
 30
0.0
 11
964.53297
 21
171.860118
 31
0.0
  0
LINE
  8
LC-005-002-----0
  6
CONTINUOUS
  5
5C9
 10
961.532975
 20
51.46722
 30
0.0
 11
961.532976
 21
49.967221
 31
0.0
  0
ARC
  8
LC-005-002-----0
  6
CONTINUOUS
  5
5CA
 10
963.03297
 20
171.860118
 30
0.0
 40
1.5
 50
0.0
 51
180.0
  0
LINE
  8
LC-005-002-----0
  6
CONTINUOUS
  5
5CB
 10
964.532975
 20
51.467221
 30
0.0
 11
964.532976
 21
49.967221
 31
0.0
  0
ARC
  8
LC-005-002-----0
  6
CONTINUOUS
  5
5CC
 10
963.032976
 20
49.967221
 30
0.0
 40
1.5
 50
180.000006
 51
0.000006
  0
LINE
  8
LC-012-100-D03-0
  6
CONTINUOUS
  5
5CD
 10
961.532975
 20
51.467223
 30
0.0
 11
943.53297
 21
51.467222
 31
0.0
  0
LINE
  8
LC-005-002-----0
  6
CONTINUOUS
  5
5CE
 10
1036.459095
 20
82.18474
 30
0.0
 11
1033.459095
 21
82.18474
 31
0.0
  0
LINE
  8
LC-005-002-----0
  6
CONTINUOUS
  5
5CF
 10
980.732345
 20
37.994656
 30
0.0
 11
941.083197
 21
47.21699
 31
0.0
  0
LINE
  8
LC-005-002-----0
  6
CONTINUOUS
  5
5D0
 10
978.882924
 20
215.560129
 30
0.0
 11
979.382924
 21
224.060779
 31
0.0
  0
LINE
  8
LC-005-002-----0
  6
CONTINUOUS
  5
5D1
 10
1158.373194
 20
215.561945
 30
0.0
 11
1157.873022
 21
224.062585
 31
0.0
  0
LINE
  8
LC-005-002-----0
  6
CONTINUOUS
  5
5D2
 10
1153.464738
 20
148.843041
 30
0.0
 11
1223.26971
 21
148.843041
 31
0.0
  0
LINE
  8
LC-005-002-----0
  6
CONTINUOUS
  5
5D3
 10
1151.641781
 20
44.243477
 30
0.0
 11
1223.26971
 21
44.243041
 31
0.0
  0
LINE
  8
LC-005-002-----0
  6
CONTINUOUS
  5
5D4
 10
1009.709095
 20
215.560129
 30
0.0
 11
1009.709095
 21
215.560129
 31
0.0
  0
ARC
  8
LC-013-002-RND-0
  6
CONTINUOUS
  5
5D6
 10
1009.709095
 20
214.060129
 30
0.0
 40
1.5
 50
90.0
 51
180.0
  0
ARC
  8
LC-013-002-RND-0
  6
CONTINUOUS
  5
5D7
 10
1009.709095
 20
214.060129
 30
0.0
 40
1.5
 50
0.0
 51
90.0
  0
LINE
  8
LC-005-002-----0
  6
CONTINUOUS
  5
5D8
 10
1008.209095
 20
43.070549
 30
0.0
 11
1008.209095
 21
40.064404
 31
0.0
  0
LINE
  8
LC-009-100-D01-0
  6
CONTINUOUS
  5
5D9
 10
981.030796
 20
58.813134
 30
0.0
 11
981.030796
 21
164.505976
 31
0.0
  0
LINE
  8
LC-009-100-D01-0
  6
CONTINUOUS
  5
5DA
 10
1151.641781
 20
44.263868
 30
0.0
 11
1154.776528
 21
224.061872
 31
0.0
  0
LINE
  8
LC-009-100-D01-0
  6
CONTINUOUS
  5
5DB
 10
938.769316
 20
55.713668
 30
0.0
 11
938.769316
 21
51.701869
 31
0.0
  0
LINE
  8
LC-012-100-D03-0
  6
CONTINUOUS
  5
5DC
 10
1223.26971
 20
150.203507
 30
0.0
 11
1223.26971
 21
44.263432
 31
0.0
  0
LINE
  8
LC-012-100-D03-0
  6
CONTINUOUS
  5
5DD
 10
978.421894
 20
170.360117
 30
0.0
 11
977.632924
 21
215.560129
 31
0.0
  0
LINE
  8
LC-009-100-D01-0
  6
CONTINUOUS
  5
5DE
 10
985.363814
 20
58.813134
 30
0.0
 11
985.691379
 21
40.046952
 31
0.0
  0
LINE
  8
LC-009-100-D01-0
  6
CONTINUOUS
  5
5DF
 10
1151.638308
 20
44.064649
 30
0.0
 11
1151.641781
 21
44.263868
 31
0.0
  0
LINE
  8
LC-005-002-----0
  6
CONTINUOUS
  5
5E0
 10
982.479418
 20
224.060129
 30
0.0
 11
983.273661
 21
178.557945
 31
0.0
  0
LINE
  8
LC-012-100-D03-0
  6
CONTINUOUS
  5
5E1
 10
1012.706147
 20
40.064649
 30
0.0
 11
1155.356581
 21
40.063854
 31
0.0
  0
LINE
  8
LC-009-100-D01-0
  6
CONTINUOUS
  5
5E2
 10
1009.203195
 20
44.064649
 30
0.0
 11
1151.638308
 21
44.064649
 31
0.0
  0
ARC
  8
LC-009-100-D01-0
  6
CONTINUOUS
  5
5E3
 10
1009.203195
 20
43.070549
 30
0.0
 40
0.9941
 50
90.0
 51
180.0
  0
ARC
  8
LC-012-100-D03-0
  6
CONTINUOUS
  5
5E4
 10
1010.220894
 20
37.052604
 30
0.0
 40
1.9882
 50
270.0
 51
0.0
  0
ARC
  8
LC-012-100-D03-0
  6
CONTINUOUS
  5
5E5
 10
1012.706145
 20
39.567599
 30
0.0
 40
0.49705
 50
89.99968
 51
180.0
  0
LINE
  8
LC-012-100-D03-0
  6
CONTINUOUS
  5
5E6
 10
1012.209095
 20
37.052604
 30
0.0
 11
1012.209095
 21
39.567599
 31
0.0
  0
LINE
  8
LC-012-100-D03-0
  6
CONTINUOUS
  5
5E7
 10
983.714191
 20
35.064404
 30
0.0
 11
1010.220894
 21
35.064404
 31
0.0
  0
LINE
  8
LC-005-002-----0
  6
CONTINUOUS
  5
5E8
 10
1008.209095
 20
214.060129
 30
0.0
 11
1008.209095
 21
206.43793
 31
0.0
  0
LINE
  8
LC-009-100-D01-0
  6
CONTINUOUS
  5
5E9
 10
986.691227
 20
39.064404
 30
0.0
 11
1007.209095
 21
39.064404
 31
0.0
  0
LINE
  8
LC-008-001-----0
  6
CONTINUOUS
  5
5EA
 10
984.83943
 20
215.560129
 30
0.0
 11
982.627786
 21
215.560129
 31
0.0
  0
LINE
  8
LC-012-100-D03-0
  6
CONTINUOUS
  5
5EB
 10
979.382885
 20
224.060129
 30
0.0
 11
982.479418
 21
224.060129
 31
0.0
  0
LINE
  8
LC-012-100-D03-0
  6
CONTINUOUS
  5
5EC
 10
980.732345
 20
37.994656
 30
0.0
 11
980.49718
 21
51.467223
 31
0.0
  0
LINE
  8
LC-008-001-----0
  6
CONTINUOUS
  5
5ED
 10
1158.770075
 20
151.543253
 30
0.0
 11
1159.883778
 21
215.561975
 31
0.0
  0
ARC
  8
LC-012-100-D03-0
  6
CONTINUOUS
  5
5EE
 10
983.714191
 20
38.046705
 30
0.0
 40
2.9823
 50
181.000001
 51
270.0
  0
ARC
  8
LC-012-100-D03-0
  6
CONTINUOUS
  5
5EF
 10
928.240211
 20
51.057354
 30
0.0
 40
4.970501
 50
180.0
 51
267.000005
  0
LINE
  8
LC-012-100-D03-0
  6
CONTINUOUS
  5
5F0
 10
940.068868
 20
45.460119
 30
0.0
 11
943.53297
 21
51.46012
 31
0.0
  0
LINE
  8
LC-012-100-D03-0
  6
CONTINUOUS
  5
5F1
 10
940.068868
 20
45.460119
 30
0.0
 11
927.980075
 21
46.093665
 31
0.0
  0
LINE
  8
LC-009-100-D01-0
  6
CONTINUOUS
  5
5F2
 10
938.769316
 20
118.663668
 30
0.0
 11
938.769316
 21
170.125472
 31
0.0
  0
LINE
  8
LC-009-100-D01-0
  6
CONTINUOUS
  5
5F3
 10
938.769316
 20
118.663668
 30
0.0
 11
938.769316
 21
55.713668
 31
0.0
  0
ARC
  8
LC-009-100-D01-0
  6
CONTINUOUS
  5
5F4
 10
936.781116
 20
51.694766
 30
0.0
 40
1.9882
 50
270.000017
 51
0.0
  0
LINE
  8
LC-009-100-D01-0
  6
CONTINUOUS
  5
5F5
 10
936.781116
 20
49.706566
 30
0.0
 11
929.38152
 21
50.09436
 31
0.0
  0
LINE
  8
LC-009-100-D01-0
  6
CONTINUOUS
  5
5F6
 10
929.38152
 20
50.09436
 30
0.0
 11
925.061777
 21
54.414103
 31
0.0
  0
LINE
  8
LC-012-100-D03-0
  6
CONTINUOUS
  5
5F7
 10
919.76971
 20
52.115228
 30
0.0
 11
919.76971
 21
54.712464
 31
0.0
  0
ARC
  8
LC-012-100-D03-0
  6
CONTINUOUS
  5
5F8
 10
920.26676
 20
52.115228
 30
0.0
 40
0.49705
 50
180.0
 51
256.310779
  0
LINE
  8
LC-012-100-D03-0
  6
CONTINUOUS
  5
5F9
 10
923.26971
 20
51.057354
 30
0.0
 11
923.26971
 21
51.413668
 31
0.0
  0
ARC
  8
LC-009-100-D01-0
  6
CONTINUOUS
  5
5FA
 10
936.781116
 20
170.125472
 30
0.0
 40
1.9882
 50
0.0
 51
89.999983
  0
LINE
  8
LC-012-100-D03-0
  6
CONTINUOUS
  5
5FB
 10
940.068868
 20
176.360119
 30
0.0
 11
927.976779
 21
175.726401
 31
0.0
  0
LINE
  8
LC-012-100-D03-0
  6
CONTINUOUS
  5
5FC
 10
940.068868
 20
176.360119
 30
0.0
 11
943.53297
 21
170.360118
 31
0.0
  0
LINE
  8
LC-009-100-D01-0
  6
CONTINUOUS
  5
5FD
 10
936.781116
 20
172.113672
 30
0.0
 11
929.38152
 21
171.725878
 31
0.0
  0
LINE
  8
LC-009-100-D01-0
  6
CONTINUOUS
  5
5FE
 10
929.38152
 20
171.725878
 30
0.0
 11
925.069309
 21
167.413668
 31
0.0
  0
LINE
  8
LC-012-100-D03-0
  6
CONTINUOUS
  5
5FF
 10
919.76971
 20
169.70501
 30
0.0
 11
919.76971
 21
167.107774
 31
0.0
  0
ARC
  8
LC-012-100-D03-0
  6
CONTINUOUS
  5
600
 10
920.26676
 20
169.70501
 30
0.0
 40
0.49705
 50
94.007635
 51
180.0
  0
LINE
  8
LC-012-100-D03-0
  6
CONTINUOUS
  5
601
 10
923.26971
 20
170.762885
 30
0.0
 11
923.26971
 21
170.413667
 31
0.0
  0
ARC
  8
LC-012-100-D03-0
  6
CONTINUOUS
  5
602
 10
928.240211
 20
170.762885
 30
0.0
 40
4.970501
 50
92.999995
 51
180.0
  0
LINE
  8
LC-009-100-D01-0
  6
CONTINUOUS
  5
603
 10
981.030796
 20
57.324221
 30
0.0
 11
981.030796
 21
58.813134
 31
0.0
  0
LINE
  8
LC-009-100-D01-0
  6
CONTINUOUS
  5
604
 10
975.030796
 20
55.706568
 30
0.0
 11
981.030796
 21
57.314262
 31
0.0
  0
LINE
  8
LC-009-100-D01-0
  6
CONTINUOUS
  5
605
 10
975.030796
 20
166.11367
 30
0.0
 11
981.030796
 21
164.505976
 31
0.0
  0
LINE
  8
LC-012-100-D03-0
  6
CONTINUOUS
  5
606
 10
980.49718
 20
51.467223
 30
0.0
 11
964.532975
 21
51.467223
 31
0.0
  0
LINE
  8
LC-009-100-D01-0
  6
CONTINUOUS
  5
607
 10
975.030796
 20
55.71367
 30
0.0
 11
938.769316
 21
55.713668
 31
0.0
  0
LINE
  8
LC-012-100-D03-0
  6
CONTINUOUS
  5
608
 10
978.421894
 20
170.360117
 30
0.0
 11
964.53297
 21
170.360118
 31
0.0
  0
LINE
  8
LC-009-100-D01-0
  6
CONTINUOUS
  5
609
 10
975.030796
 20
166.11367
 30
0.0
 11
938.769316
 21
166.113672
 31
0.0
  0
LINE
  8
LC-012-100-D03-0
  6
CONTINUOUS
  5
60A
 10
919.76971
 20
167.107774
 30
0.0
 11
919.76971
 21
54.712464
 31
0.0
  0
LINE
  8
LC-012-100-D03-0
  6
CONTINUOUS
  5
60B
 10
1223.26971
 20
42.882999
 30
0.0
 11
1223.26971
 21
44.263432
 31
0.0
  0
ARC
  8
LC-013-002-RND-0
  6
CONTINUOUS
  5
60C
 10
938.269316
 20
52.79002
 30
0.0
 40
0.5
 50
0.0
 51
100.0
  0
ARC
  8
LC-013-002-RND-0
  6
CONTINUOUS
  5
60D
 10
935.6039
 20
53.743423
 30
0.0
 40
0.3
 50
165.0
 51
210.0
  0
ARC
  8
LC-013-002-RND-0
  6
CONTINUOUS
  5
60E
 10
935.924092
 20
53.188835
 30
0.0
 40
0.3
 50
210.0
 51
280.0
  0
LINE
  8
LC-005-002-----0
  6
CONTINUOUS
  5
60F
 10
934.173461
 20
49.985897
 30
0.0
 11
934.96517
 21
49.985897
 31
0.0
  0
LINE
  8
LC-005-002-----0
  6
CONTINUOUS
  5
610
 10
935.664284
 20
53.038835
 30
0.0
 11
935.344093
 21
53.593423
 31
0.0
  0
ARC
  8
LC-005-002-----0
  6
CONTINUOUS
  5
611
 10
933.769316
 20
49.485897
 30
0.0
 40
0.1
 50
210.0
 51
330.0
  0
LINE
  8
LC-005-002-----0
  6
CONTINUOUS
  5
612
 10
935.295172
 20
56.823474
 30
0.0
 11
930.720299
 21
54.18217
 31
0.0
  0
LINE
  8
LC-005-002-----0
  6
CONTINUOUS
  5
613
 10
935.978184
 20
56.29938
 30
0.0
 11
935.314123
 21
53.821069
 31
0.0
  0
ARC
  8
LC-005-002-----0
  6
CONTINUOUS
  5
614
 10
935.528135
 20
56.419971
 30
0.0
 40
0.465926
 50
345.0
 51
120.0
  0
LINE
  8
LC-005-002-----0
  6
CONTINUOUS
  5
615
 10
933.682713
 20
49.435897
 30
0.0
 11
933.36517
 21
49.985897
 31
0.0
  0
LINE
  8
LC-005-002-----0
  6
CONTINUOUS
  5
616
 10
930.511448
 20
50.643876
 30
0.0
 11
929.971957
 21
52.126118
 31
0.0
  0
ARC
  8
LC-005-002-----0
  6
CONTINUOUS
  5
617
 10
931.571282
 20
52.708224
 30
0.0
 40
1.701966
 50
120.0
 51
200.0
  0
LINE
  8
LC-005-002-----0
  6
CONTINUOUS
  5
618
 10
933.855918
 20
49.435897
 30
0.0
 11
934.173461
 21
49.985897
 31
0.0
  0
ARC
  8
LC-005-002-----0
  6
CONTINUOUS
  5
619
 10
935.369316
 20
49.485897
 30
0.0
 40
0.1
 50
210.0
 51
330.0
  0
LINE
  8
LC-005-002-----0
  6
CONTINUOUS
  5
61A
 10
938.182491
 20
53.282424
 30
0.0
 11
935.976186
 21
52.893393
 31
0.0
  0
ARC
  8
LC-013-002-RND-0
  6
CONTINUOUS
  5
61B
 10
938.269316
 20
169.030219
 30
0.0
 40
0.5
 50
260.0
 51
0.0
  0
ARC
  8
LC-013-002-RND-0
  6
CONTINUOUS
  5
61C
 10
935.6039
 20
168.076815
 30
0.0
 40
0.3
 50
150.0
 51
195.0
  0
ARC
  8
LC-013-002-RND-0
  6
CONTINUOUS
  5
61D
 10
935.924092
 20
168.631403
 30
0.0
 40
0.3
 50
80.0
 51
150.0
  0
LINE
  8
LC-005-002-----0
  6
CONTINUOUS
  5
61E
 10
934.173461
 20
171.834342
 30
0.0
 11
934.96517
 21
171.834342
 31
0.0
  0
LINE
  8
LC-005-002-----0
  6
CONTINUOUS
  5
61F
 10
935.282713
 20
49.435897
 30
0.0
 11
934.96517
 21
49.985897
 31
0.0
  0
LINE
  8
LC-005-002-----0
  6
CONTINUOUS
  5
620
 10
938.769316
 20
51.985897
 30
0.0
 11
938.56237
 21
50.812248
 31
0.0
  0
LINE
  8
LC-005-002-----0
  6
CONTINUOUS
  5
621
 10
931.451141
 20
49.985897
 30
0.0
 11
931.822905
 21
49.985897
 31
0.0
  0
ARC
  8
LC-013-002-RND-0
  6
CONTINUOUS
  5
622
 10
931.451141
 20
50.985897
 30
0.0
 40
1.0
 50
200.0
 51
270.0
  0
ARC
  8
LC-013-002-RND-0
  6
CONTINUOUS
  5
623
 10
937.577562
 20
50.985897
 30
0.0
 40
1.0
 50
270.0
 51
350.0
  0
LINE
  8
LC-005-002-----0
  6
CONTINUOUS
  5
624
 10
938.769316
 20
51.985897
 30
0.0
 11
938.769316
 21
52.79002
 31
0.0
  0
LINE
  8
LC-005-002-----0
  6
CONTINUOUS
  5
625
 10
935.455918
 20
49.435897
 30
0.0
 11
935.773461
 21
49.985897
 31
0.0
  0
ARC
  8
LC-005-002-----0
  6
CONTINUOUS
  5
626
 10
936.969316
 20
49.485897
 30
0.0
 40
0.1
 50
210.0
 51
330.0
  0
LINE
  8
LC-005-002-----0
  6
CONTINUOUS
  5
627
 10
936.882713
 20
49.435897
 30
0.0
 11
936.56517
 21
49.985897
 31
0.0
  0
LINE
  8
LC-005-002-----0
  6
CONTINUOUS
  5
628
 10
937.055918
 20
49.435897
 30
0.0
 11
937.373461
 21
49.985897
 31
0.0
  0
LINE
  8
LC-005-002-----0
  6
CONTINUOUS
  5
629
 10
935.773461
 20
49.985897
 30
0.0
 11
936.56517
 21
49.985897
 31
0.0
  0
LINE
  8
LC-005-002-----0
  6
CONTINUOUS
  5
62A
 10
937.373461
 20
49.985897
 30
0.0
 11
937.577562
 21
49.985897
 31
0.0
  0
ARC
  8
LC-005-002-----0
  6
CONTINUOUS
  5
62B
 10
932.169316
 20
49.585897
 30
0.0
 40
0.1
 50
210.0
 51
330.0
  0
LINE
  8
LC-005-002-----0
  6
CONTINUOUS
  5
62C
 10
932.082713
 20
49.535897
 30
0.0
 11
931.822905
 21
49.985897
 31
0.0
  0
LINE
  8
LC-005-002-----0
  6
CONTINUOUS
  5
62D
 10
932.255918
 20
49.535897
 30
0.0
 11
932.515726
 21
49.985897
 31
0.0
  0
LINE
  8
LC-005-002-----0
  6
CONTINUOUS
  5
62E
 10
932.515726
 20
49.985897
 30
0.0
 11
933.36517
 21
49.985897
 31
0.0
  0
LINE
  8
LC-005-002-----0
  6
CONTINUOUS
  5
62F
 10
935.664284
 20
168.781403
 30
0.0
 11
935.344093
 21
168.226815
 31
0.0
  0
ARC
  8
LC-005-002-----0
  6
CONTINUOUS
  5
630
 10
933.769316
 20
172.334342
 30
0.0
 40
0.1
 50
30.0
 51
150.0
  0
LINE
  8
LC-005-002-----0
  6
CONTINUOUS
  5
631
 10
935.295172
 20
164.996764
 30
0.0
 11
930.720299
 21
167.638068
 31
0.0
  0
LINE
  8
LC-005-002-----0
  6
CONTINUOUS
  5
632
 10
935.978184
 20
165.520858
 30
0.0
 11
935.314123
 21
167.99917
 31
0.0
  0
ARC
  8
LC-005-002-----0
  6
CONTINUOUS
  5
633
 10
935.528135
 20
165.400268
 30
0.0
 40
0.465926
 50
240.0
 51
15.0
  0
LINE
  8
LC-005-002-----0
  6
CONTINUOUS
  5
634
 10
933.682713
 20
172.384342
 30
0.0
 11
933.36517
 21
171.834342
 31
0.0
  0
LINE
  8
LC-005-002-----0
  6
CONTINUOUS
  5
635
 10
930.511448
 20
171.176362
 30
0.0
 11
929.971957
 21
169.694121
 31
0.0
  0
ARC
  8
LC-005-002-----0
  6
CONTINUOUS
  5
636
 10
931.571282
 20
169.112014
 30
0.0
 40
1.701966
 50
160.0
 51
240.0
  0
LINE
  8
LC-005-002-----0
  6
CONTINUOUS
  5
637
 10
933.855918
 20
172.384342
 30
0.0
 11
934.173461
 21
171.834342
 31
0.0
  0
ARC
  8
LC-005-002-----0
  6
CONTINUOUS
  5
638
 10
935.369316
 20
172.334342
 30
0.0
 40
0.1
 50
30.0
 51
150.0
  0
LINE
  8
LC-005-002-----0
  6
CONTINUOUS
  5
639
 10
938.182491
 20
168.537815
 30
0.0
 11
935.976186
 21
168.926846
 31
0.0
  0
LINE
  8
LC-005-002-----0
  6
CONTINUOUS
  5
63A
 10
935.282713
 20
172.384342
 30
0.0
 11
934.96517
 21
171.834342
 31
0.0
  0
LINE
  8
LC-005-002-----0
  6
CONTINUOUS
  5
63B
 10
938.769316
 20
169.834342
 30
0.0
 11
938.56237
 21
171.00799
 31
0.0
  0
LINE
  8
LC-005-002-----0
  6
CONTINUOUS
  5
63C
 10
931.451141
 20
171.834342
 30
0.0
 11
931.822905
 21
171.834342
 31
0.0
  0
ARC
  8
LC-013-002-RND-0
  6
CONTINUOUS
  5
63D
 10
931.451141
 20
170.834342
 30
0.0
 40
1.0
 50
90.0
 51
160.0
  0
ARC
  8
LC-013-002-RND-0
  6
CONTINUOUS
  5
63E
 10
937.577562
 20
170.834342
 30
0.0
 40
1.0
 50
10.0
 51
90.0
  0
LINE
  8
LC-005-002-----0
  6
CONTINUOUS
  5
63F
 10
938.769316
 20
169.834342
 30
0.0
 11
938.769316
 21
169.030219
 31
0.0
  0
LINE
  8
LC-005-002-----0
  6
CONTINUOUS
  5
640
 10
935.455918
 20
172.384342
 30
0.0
 11
935.773461
 21
171.834342
 31
0.0
  0
ARC
  8
LC-005-002-----0
  6
CONTINUOUS
  5
641
 10
936.969316
 20
172.334342
 30
0.0
 40
0.1
 50
30.0
 51
150.0
  0
LINE
  8
LC-005-002-----0
  6
CONTINUOUS
  5
642
 10
936.882713
 20
172.384342
 30
0.0
 11
936.56517
 21
171.834342
 31
0.0
  0
LINE
  8
LC-005-002-----0
  6
CONTINUOUS
  5
643
 10
937.055918
 20
172.384342
 30
0.0
 11
937.373461
 21
171.834342
 31
0.0
  0
LINE
  8
LC-005-002-----0
  6
CONTINUOUS
  5
644
 10
935.773461
 20
171.834342
 30
0.0
 11
936.56517
 21
171.834342
 31
0.0
  0
LINE
  8
LC-005-002-----0
  6
CONTINUOUS
  5
645
 10
937.373461
 20
171.834342
 30
0.0
 11
937.577562
 21
171.834342
 31
0.0
  0
ARC
  8
LC-005-002-----0
  6
CONTINUOUS
  5
646
 10
932.169316
 20
172.234342
 30
0.0
 40
0.1
 50
30.0
 51
150.0
  0
LINE
  8
LC-005-002-----0
  6
CONTINUOUS
  5
647
 10
932.082713
 20
172.284342
 30
0.0
 11
931.822905
 21
171.834342
 31
0.0
  0
LINE
  8
LC-005-002-----0
  6
CONTINUOUS
  5
648
 10
932.255918
 20
172.284342
 30
0.0
 11
932.515726
 21
171.834342
 31
0.0
  0
LINE
  8
LC-005-002-----0
  6
CONTINUOUS
  5
649
 10
932.515726
 20
171.834342
 30
0.0
 11
933.36517
 21
171.834342
 31
0.0
  0
LINE
  8
LC-005-002-----0
  6
CONTINUOUS
  5
64A
 10
1025.625951
 20
334.44609
 30
0.0
 11
1024.125951
 21
334.44609
 31
0.0
  0
LINE
  8
LC-005-002-----0
  6
CONTINUOUS
  5
64B
 10
1014.125951
 20
352.94609
 30
0.0
 11
1035.125951
 21
352.94609
 31
0.0
  0
LINE
  8
LC-005-002-----0
  6
CONTINUOUS
  5
64C
 10
1037.125951
 20
350.94609
 30
0.0
 11
1037.125951
 21
344.92821
 31
0.0
  0
LINE
  8
LC-005-002-----0
  6
CONTINUOUS
  5
64D
 10
1035.125951
 20
334.44609
 30
0.0
 11
1033.625951
 21
334.44609
 31
0.0
  0
LINE
  8
LC-005-002-----0
  6
CONTINUOUS
  5
64E
 10
1022.125951
 20
332.44609
 30
0.0
 11
1022.125951
 21
317.44609
 31
0.0
  0
LINE
  8
LC-005-002-----0
  6
CONTINUOUS
  5
64F
 10
1020.125951
 20
315.44609
 30
0.0
 11
1014.125951
 21
315.44609
 31
0.0
  0
LINE
  8
LC-005-002-----0
  6
CONTINUOUS
  5
650
 10
1012.125951
 20
317.44609
 30
0.0
 11
1012.125951
 21
350.94609
 31
0.0
  0
ARC
  8
LC-005-002-----0
  6
CONTINUOUS
  5
651
 10
1040.125951
 20
344.92821
 30
0.0
 40
3.0
 50
180.0
 51
265.903956
  0
LINE
  8
LC-005-002-----0
  6
CONTINUOUS
  5
652
 10
1037.125951
 20
337.94609
 30
0.0
 11
1037.125951
 21
336.44609
 31
0.0
  0
ARC
  8
LC-005-002-----0
  6
CONTINUOUS
  5
653
 10
1041.310613
 20
335.463769
 30
0.0
 40
0.5
 50
124.163315
 51
209.955798
  0
ARC
  8
LC-005-002-----0
  6
CONTINUOUS
  5
654
 10
1041.560856
 20
335.02956
 30
0.0
 40
0.5
 50
209.955798
 51
303.56138
  0
ARC
  8
LC-005-002-----0
  6
CONTINUOUS
  5
655
 10
1035.125951
 20
350.94609
 30
0.0
 40
2.0
 50
0.0
 51
90.0
  0
ARC
  8
LC-005-002-----0
  6
CONTINUOUS
  5
656
 10
1014.125951
 20
350.94609
 30
0.0
 40
2.0
 50
90.0
 51
180.0
  0
ARC
  8
LC-005-002-----0
  6
CONTINUOUS
  5
657
 10
1014.125951
 20
317.44609
 30
0.0
 40
2.0
 50
180.0
 51
270.0
  0
ARC
  8
LC-005-002-----0
  6
CONTINUOUS
  5
658
 10
1020.125951
 20
317.44609
 30
0.0
 40
2.0
 50
270.0
 51
0.0
  0
ARC
  8
LC-005-002-----0
  6
CONTINUOUS
  5
659
 10
1024.125951
 20
332.44609
 30
0.0
 40
2.0
 50
90.0
 51
180.0
  0
ARC
  8
LC-005-002-----0
  6
CONTINUOUS
  5
65A
 10
1035.125951
 20
336.44609
 30
0.0
 40
2.0
 50
270.0
 51
0.0
  0
ARC
  8
LC-005-002-----0
  6
CONTINUOUS
  5
65B
 10
1039.625951
 20
337.94609
 30
0.0
 40
4.0
 50
303.56138
 51
85.903956
  0
LINE
  8
LC-005-002-----0
  6
CONTINUOUS
  5
65C
 10
1033.625951
 20
334.44609
 30
0.0
 11
1033.625951
 21
344.44609
 31
0.0
  0
LINE
  8
LC-005-002-----0
  6
CONTINUOUS
  5
65D
 10
1031.725951
 20
344.44609
 30
0.0
 11
1031.725951
 21
349.34609
 31
0.0
  0
LINE
  8
LC-005-002-----0
  6
CONTINUOUS
  5
65E
 10
1027.525951
 20
344.44609
 30
0.0
 11
1027.525951
 21
349.34609
 31
0.0
  0
LINE
  8
LC-005-002-----0
  6
CONTINUOUS
  5
65F
 10
1024.725951
 20
352.14609
 30
0.0
 11
1034.525951
 21
352.14609
 31
0.0
  0
LINE
  8
LC-005-002-----0
  6
CONTINUOUS
  5
660
 10
1034.525951
 20
352.14609
 30
0.0
 11
1034.525951
 21
352.94609
 31
0.0
  0
LINE
  8
LC-005-002-----0
  6
CONTINUOUS
  5
661
 10
1024.725951
 20
352.14609
 30
0.0
 11
1024.725951
 21
352.94609
 31
0.0
  0
LINE
  8
LC-005-002-----0
  6
CONTINUOUS
  5
662
 10
1024.725951
 20
352.14609
 30
0.0
 11
1027.525951
 21
349.34609
 31
0.0
  0
LINE
  8
LC-005-002-----0
  6
CONTINUOUS
  5
663
 10
1034.525951
 20
352.14609
 30
0.0
 11
1031.725951
 21
349.34609
 31
0.0
  0
LINE
  8
LC-005-002-----0
  6
CONTINUOUS
  5
664
 10
1027.525951
 20
349.34609
 30
0.0
 11
1031.725951
 21
349.34609
 31
0.0
  0
ARC
  8
LC-005-002-----0
  6
CONTINUOUS
  5
665
 10
1039.625951
 20
337.94609
 30
0.0
 40
2.5
 50
304.163315
 51
180.0
  0
LINE
  8
LC-005-002-----0
  6
CONTINUOUS
  5
666
 10
1040.877407
 20
335.214103
 30
0.0
 11
1041.127651
 21
334.779895
 31
0.0
  0
LINE
  8
LC-005-002-----0
  6
CONTINUOUS
  5
667
 10
1025.625951
 20
334.44609
 30
0.0
 11
1025.625951
 21
344.44609
 31
0.0
  0
LINE
  8
LC-005-002-----0
  6
CONTINUOUS
  5
668
 10
1025.625951
 20
344.44609
 30
0.0
 11
1033.625951
 21
344.44609
 31
0.0
  0
LINE
  8
LC-005-002-----0
  6
CONTINUOUS
  5
669
 10
1027.625951
 20
349.34609
 30
0.0
 11
1027.625951
 21
334.84625
 31
0.0
  0
LINE
  8
LC-005-002-----0
  6
CONTINUOUS
  5
66A
 10
1031.625951
 20
349.34609
 30
0.0
 11
1031.625951
 21
334.84625
 31
0.0
  0
LINE
  8
LC-005-002-----0
  6
CONTINUOUS
  5
66B
 10
1031.125951
 20
334.34625
 30
0.0
 11
1028.125951
 21
334.34625
 31
0.0
  0
LINE
  8
LC-005-002-----0
  6
CONTINUOUS
  5
66C
 10
1027.625951
 20
334.84625
 30
0.0
 11
1028.125951
 21
334.34625
 31
0.0
  0
LINE
  8
LC-005-002-----0
  6
CONTINUOUS
  5
66D
 10
1031.625951
 20
334.84625
 30
0.0
 11
1031.125951
 21
334.34625
 31
0.0
  0
LINE
  8
LC-005-002-----0
  6
CONTINUOUS
  5
66E
 10
1027.625951
 20
334.84625
 30
0.0
 11
1031.625951
 21
334.84625
 31
0.0
  0
LINE
  8
LC-005-002-----0
  6
CONTINUOUS
  5
66F
 10
1028.125951
 20
334.34625
 30
0.0
 11
1028.125951
 21
349.34609
 31
0.0
  0
LINE
  8
LC-005-002-----0
  6
CONTINUOUS
  5
670
 10
1031.125951
 20
334.34625
 30
0.0
 11
1031.125951
 21
349.34609
 31
0.0
  0
LINE
  8
LC-005-002-----0
  6
CONTINUOUS
 62
     5
  5
671
 10
1027.625951
 20
349.34609
 30
0.0
 11
1031.625951
 21
349.34609
 31
0.0
  0
LINE
  8
LC-005-002-----0
  6
CONTINUOUS
  5
672
 10
1033.713819
 20
351.433958
 30
0.0
 11
1031.625951
 21
349.34609
 31
0.0
  0
LINE
  8
LC-005-002-----0
  6
CONTINUOUS
  5
673
 10
1025.538083
 20
351.433958
 30
0.0
 11
1027.625951
 21
349.34609
 31
0.0
  0
ARC
  8
LC-005-002-----0
  6
CONTINUOUS
  5
674
 10
1025.750215
 20
351.64609
 30
0.0
 40
0.3
 50
90.0
 51
225.0
  0
LINE
  8
LC-005-002-----0
  6
CONTINUOUS
  5
675
 10
1025.750215
 20
351.94609
 30
0.0
 11
1029.125951
 21
351.94609
 31
0.0
  0
ARC
  8
LC-005-002-----0
  6
CONTINUOUS
  5
676
 10
1033.501687
 20
351.64609
 30
0.0
 40
0.3
 50
315.0
 51
90.0
  0
LINE
  8
LC-005-002-----0
  6
CONTINUOUS
  5
677
 10
1030.125951
 20
351.94609
 30
0.0
 11
1033.501687
 21
351.94609
 31
0.0
  0
LINE
  8
LC-005-002-----0
  6
CONTINUOUS
  5
678
 10
1030.125951
 20
350.44609
 30
0.0
 11
1030.125951
 21
351.94609
 31
0.0
  0
LINE
  8
LC-005-002-----0
  6
CONTINUOUS
  5
679
 10
1029.125951
 20
350.44609
 30
0.0
 11
1029.125951
 21
351.94609
 31
0.0
  0
LINE
  8
LC-005-002-----0
  6
CONTINUOUS
  5
67A
 10
1029.125951
 20
350.44609
 30
0.0
 11
1030.125951
 21
350.44609
 31
0.0
  0
LINE
  8
LC-005-002-----0
  6
CONTINUOUS
 62
     5
  5
67B
 10
1042.625951
 20
220.44609
 30
0.0
 11
1042.625951
 21
217.44609
 31
0.0
  0
LINE
  8
LC-007-005-----0
  6
CONTINUOUS
 62
     1
  5
67C
 10
1016.625951
 20
220.44609
 30
0.0
 11
1042.625951
 21
220.44609
 31
0.0
  0
LINE
  8
LC-007-005-----0
  6
CONTINUOUS
 62
     1
  5
67D
 10
1016.625951
 20
217.44609
 30
0.0
 11
1033.425951
 21
217.44609
 31
0.0
  0
LINE
  8
LC-007-005-----0
  6
CONTINUOUS
 62
     1
  5
67E
 10
1020.109291
 20
204.44609
 30
0.0
 11
1042.109291
 21
204.44609
 31
0.0
  0
LINE
  8
LC-007-005-----0
  6
CONTINUOUS
 62
     1
  5
67F
 10
1016.625951
 20
217.44609
 30
0.0
 11
1020.109291
 21
204.44609
 31
0.0
  0
LINE
  8
LC-007-005-----0
  6
CONTINUOUS
 62
     1
  5
680
 10
1033.425951
 20
217.44609
 30
0.0
 11
1033.425951
 21
204.44609
 31
0.0
  0
LINE
  8
LC-007-005-----0
  6
CONTINUOUS
 62
     1
  5
681
 10
1036.925951
 20
217.44609
 30
0.0
 11
1036.925951
 21
204.44609
 31
0.0
  0
LINE
  8
LC-007-005-----0
  6
CONTINUOUS
 62
     1
  5
682
 10
1036.925951
 20
217.44609
 30
0.0
 11
1042.625951
 21
217.44609
 31
0.0
  0
LINE
  8
LC-007-005-----0
  6
CONTINUOUS
 62
     1
  5
683
 10
1016.625951
 20
220.44609
 30
0.0
 11
1016.625951
 21
217.44609
 31
0.0
  0
LINE
  8
LC-007-005-----0
  6
CONTINUOUS
 62
     1
  5
684
 10
1036.625951
 20
224.44609
 30
0.0
 11
1022.625951
 21
224.44609
 31
0.0
  0
LINE
  8
LC-005-002-----0
  6
CONTINUOUS
 62
     5
  5
685
 10
1027.358003
 20
344.44609
 30
0.0
 11
1031.8939
 21
344.44609
 31
0.0
  0
LINE
  8
LC-007-005-----0
  6
CONTINUOUS
 62
     1
  5
686
 10
1036.625951
 20
224.44609
 30
0.0
 11
1036.625951
 21
220.44609
 31
0.0
  0
LINE
  8
LC-007-005-----0
  6
CONTINUOUS
 62
     1
  5
687
 10
1022.625951
 20
224.44609
 30
0.0
 11
1022.625951
 21
220.44609
 31
0.0
  0
LINE
  8
LC-007-005-----0
  6
CONTINUOUS
 62
     1
  5
688
 10
1042.109291
 20
204.44609
 30
0.0
 11
1042.625951
 21
217.44609
 31
0.0
  0
LINE
  8
LC-006-006-MLN-0
  6
DASHDOT
  5
689
 10
1029.625951
 20
348.104321
 30
0.0
 11
1029.625951
 21
214.44609
 31
0.0
  0
LINE
  8
LC-005-002-----0
  6
CONTINUOUS
 62
     5
  5
68A
 10
1032.534041
 20
344.44609
 30
0.0
 11
1032.125951
 21
344.44609
 31
0.0
  0
LINE
  8
LC-005-002-----0
  6
CONTINUOUS
  5
68B
 10
1031.625951
 20
332.44609
 30
0.0
 11
1027.625951
 21
332.44609
 31
0.0
  0
LINE
  8
LC-005-002-----0
  6
CONTINUOUS
  5
68C
 10
1028.125951
 20
329.44609
 30
0.0
 11
1028.125951
 21
343.44609
 31
0.0
  0
LINE
  8
LC-005-002-----0
  6
CONTINUOUS
  5
68D
 10
1027.625951
 20
332.44609
 30
0.0
 11
1027.625951
 21
343.94609
 31
0.0
  0
LINE
  8
LC-005-002-----0
  6
CONTINUOUS
  5
68E
 10
1025.625951
 20
341.44609
 30
0.0
 11
1026.719799
 21
344.44609
 31
0.0
  0
LINE
  8
LC-005-002-----0
  6
CONTINUOUS
  5
68F
 10
1033.625951
 20
341.44609
 30
0.0
 11
1032.534041
 21
344.44609
 31
0.0
  0
LINE
  8
LC-005-002-----0
  6
CONTINUOUS
  5
690
 10
1031.625951
 20
332.44609
 30
0.0
 11
1031.625951
 21
343.94609
 31
0.0
  0
LINE
  8
LC-005-002-----0
  6
CONTINUOUS
  5
691
 10
1031.125951
 20
329.44609
 30
0.0
 11
1031.125951
 21
343.44609
 31
0.0
  0
LINE
  8
LC-005-002-----0
  6
CONTINUOUS
  5
692
 10
1031.125951
 20
329.44609
 30
0.0
 11
1028.125951
 21
329.44609
 31
0.0
  0
LINE
  8
LC-005-002-----0
  6
CONTINUOUS
 62
     5
  5
693
 10
1026.719799
 20
344.44609
 30
0.0
 11
1027.125951
 21
344.44609
 31
0.0
  0
LINE
  8
LC-005-002-----0
  6
CONTINUOUS
  5
694
 10
1028.125951
 20
329.44609
 30
0.0
 11
1029.625951
 21
328.580064
 31
0.0
  0
LINE
  8
LC-005-002-----0
  6
CONTINUOUS
  5
695
 10
1031.125951
 20
329.44609
 30
0.0
 11
1029.625951
 21
328.580064
 31
0.0
  0
LINE
  8
LC-005-002-----0
  6
CONTINUOUS
  5
696
 10
1027.125951
 20
344.44609
 30
0.0
 11
1028.125951
 21
343.44609
 31
0.0
  0
LINE
  8
LC-005-002-----0
  6
CONTINUOUS
  5
697
 10
1031.125951
 20
343.44609
 30
0.0
 11
1032.125951
 21
344.44609
 31
0.0
  0
LINE
  8
LC-005-002-----0
  6
CONTINUOUS
  5
698
 10
1031.125951
 20
343.44609
 30
0.0
 11
1028.125951
 21
343.44609
 31
0.0
  0
LINE
  8
LC-005-002-----0
  6
CONTINUOUS
  5
699
 10
1033.625951
 20
324.82496
 30
0.0
 11
1028.640417
 21
327.481975
 31
0.0
  0
LINE
  8
LC-005-002-----0
  6
CONTINUOUS
  5
69A
 10
1028.640417
 20
327.481975
 30
0.0
 11
1025.625951
 21
324.929716
 31
0.0
  0
LINE
  8
LC-005-002-----0
  6
CONTINUOUS
  5
69B
 10
1025.625951
 20
341.44609
 30
0.0
 11
1025.625951
 21
224.44609
 31
0.0
  0
LINE
  8
LC-005-002-----0
  6
CONTINUOUS
  5
69C
 10
1033.625951
 20
341.44609
 30
0.0
 11
1033.625951
 21
224.44609
 31
0.0
  0
LINE
  8
LC-005-002-----0
  6
CONTINUOUS
 62
     5
  5
69D
 10
1032.125951
 20
344.44609
 30
0.0
 11
1027.125951
 21
344.44609
 31
0.0
  0
LINE
  8
LC-005-002-----0
  6
CONTINUOUS
  5
69E
 10
1025.625951
 20
331.94609
 30
0.0
 11
1024.625951
 21
331.94609
 31
0.0
  0
ARC
  8
LC-005-002-----0
  6
CONTINUOUS
  5
69F
 10
1024.625951
 20
240.128707
 30
0.0
 40
2.0
 50
180.0
 51
270.0
  0
LINE
  8
LC-005-002-----0
  6
CONTINUOUS
 62
     5
  5
6A0
 10
1025.625951
 20
333.94609
 30
0.0
 11
1024.625951
 21
333.94609
 31
0.0
  0
LINE
  8
LC-005-002-----0
  6
CONTINUOUS
  5
6A1
 10
1022.625951
 20
331.94609
 30
0.0
 11
1022.625951
 21
240.128707
 31
0.0
  0
ARC
  8
LC-005-002-----0
  6
CONTINUOUS
  5
6A2
 10
1034.625951
 20
240.128707
 30
0.0
 40
2.0
 50
270.0
 51
0.0
  0
LINE
  8
LC-005-002-----0
  6
CONTINUOUS
  5
6A3
 10
1037.125951
 20
333.94609
 30
0.0
 11
1033.625951
 21
333.94609
 31
0.0
  0
LINE
  8
LC-005-002-----0
  6
CONTINUOUS
  5
6A4
 10
1036.625951
 20
331.94609
 30
0.0
 11
1033.625951
 21
331.94609
 31
0.0
  0
CIRCLE
  8
LC-005-002-----0
  6
CONTINUOUS
  5
6A5
 10
1039.625951
 20
337.94609
 30
0.0
 40
2.5
  0
LINE
  8
LC-005-002-----0
  6
CONTINUOUS
  5
6A6
 10
1036.625951
 20
331.94609
 30
0.0
 11
1038.887419
 21
332.143942
 31
0.0
  0
ARC
  8
LC-005-002-----0
  6
CONTINUOUS
  5
6A7
 10
1024.625951
 20
331.94609
 30
0.0
 40
2.0
 50
90.0
 51
180.0
  0
ARC
  8
LC-005-002-----0
  6
CONTINUOUS
  5
6A8
 10
1037.125951
 20
334.44609
 30
0.0
 40
0.5
 50
270.0
 51
0.0
  0
ARC
  8
LC-005-002-----0
  6
CONTINUOUS
  5
6A9
 10
1038.625951
 20
335.132526
 30
0.0
 40
3.0
 50
275.0
 51
348.405512
  0
LINE
  8
LC-005-002-----0
  6
CONTINUOUS
  5
6AA
 10
1037.625951
 20
336.44609
 30
0.0
 11
1037.625951
 21
334.44609
 31
0.0
  0
ARC
  8
LC-005-002-----0
  6
CONTINUOUS
  5
6AB
 10
1024.625951
 20
329.94609
 30
0.0
 40
2.0
 50
90.0
 51
180.0
  0
LINE
  8
LC-005-002-----0
  6
CONTINUOUS
  5
6AC
 10
1036.625951
 20
331.94609
 30
0.0
 11
1036.625951
 21
240.128707
 31
0.0
  0
LINE
  8
LC-005-002-----0
  6
CONTINUOUS
  5
6AD
 10
1041.564735
 20
334.529575
 30
0.0
 11
1041.564735
 21
336.367762
 31
0.0
  0
LINE
  8
LC-005-002-----0
  6
CONTINUOUS
  5
6AE
 10
1034.625951
 20
238.128707
 30
0.0
 11
1033.625951
 21
238.128707
 31
0.0
  0
LINE
  8
LC-005-002-----0
  6
CONTINUOUS
  5
6AF
 10
1163.106645
 20
215.560129
 30
0.0
 11
1162.66587
 21
228.182277
 31
0.0
  0
LINE
  8
LC-005-002-----0
  6
CONTINUOUS
  5
6B0
 10
973.606083
 20
215.560129
 30
0.0
 11
974.046858
 21
228.182277
 31
0.0
  0
ARC
  8
LC-005-002-----0
  6
CONTINUOUS
  5
6B1
 10
1159.168002
 20
228.060129
 30
0.0
 40
3.5
 50
2.0
 51
90.0
  0
LINE
  8
LC-005-002-----0
  6
CONTINUOUS
  5
6B2
 10
1160.106646
 20
215.560129
 30
0.0
 11
1159.739646
 21
226.060129
 31
0.0
  0
ARC
  8
LC-005-002-----0
  6
CONTINUOUS
  5
6B3
 10
977.544726
 20
228.060129
 30
0.0
 40
3.5
 50
90.0
 51
178.0
  0
LINE
  8
LC-005-002-----0
  6
CONTINUOUS
  5
6B4
 10
1156.73966
 20
226.060129
 30
0.0
 11
1159.739646
 21
226.060129
 31
0.0
  0
LINE
  8
LC-005-002-----0
  6
CONTINUOUS
  5
6B5
 10
976.606081
 20
215.560129
 30
0.0
 11
976.973081
 21
226.060129
 31
0.0
  0
LINE
  8
LC-005-002-----0
  6
CONTINUOUS
  5
6B6
 10
1151.559011
 20
206.560129
 30
0.0
 11
1151.873298
 21
215.560129
 31
0.0
  0
LINE
  8
LC-005-002-----0
  6
CONTINUOUS
  5
6B7
 10
979.981364
 20
226.060129
 30
0.0
 11
976.973081
 21
226.060129
 31
0.0
  0
ARC
  8
LC-005-002-----0
  6
CONTINUOUS
  5
6B8
 10
980.731364
 20
225.810129
 30
0.0
 40
0.75
 50
180.0
 51
0.0
  0
LINE
  8
LC-005-002-----0
  6
CONTINUOUS
  5
6B9
 10
1160.106646
 20
215.560129
 30
0.0
 11
1163.106645
 21
215.560129
 31
0.0
  0
LINE
  8
LC-005-002-----0
  6
CONTINUOUS
  5
6BA
 10
1148.999317
 20
226.060129
 30
0.0
 11
1149.680272
 21
206.560129
 31
0.0
  0
LINE
  8
LC-005-002-----0
  6
CONTINUOUS
  5
6BB
 10
1151.873298
 20
215.560129
 30
0.0
 11
1152.239966
 21
226.060129
 31
0.0
  0
LINE
  8
LC-005-002-----0
  6
CONTINUOUS
 62
     5
  5
6BC
 10
979.981364
 20
226.060129
 30
0.0
 11
979.981364
 21
225.810129
 31
0.0
  0
LINE
  8
LC-005-002-----0
  6
CONTINUOUS
  5
6BD
 10
1018.606078
 20
231.560129
 30
0.0
 11
1018.606078
 21
236.560129
 31
0.0
  0
LINE
  8
LC-005-002-----0
  6
CONTINUOUS
  5
6BE
 10
1040.606078
 20
231.560129
 30
0.0
 11
1040.606078
 21
236.560129
 31
0.0
  0
LINE
  8
LC-005-002-----0
  6
CONTINUOUS
 62
     5
  5
6BF
 10
1021.856078
 20
228.060129
 30
0.0
 11
1021.856078
 21
236.310129
 31
0.0
  0
LINE
  8
LC-005-002-----0
  6
CONTINUOUS
 62
     5
  5
6C0
 10
1037.356078
 20
228.060129
 30
0.0
 11
1037.356078
 21
236.310129
 31
0.0
  0
LINE
  8
LC-005-002-----0
  6
CONTINUOUS
  5
6C1
 10
1025.106078
 20
226.060129
 30
0.0
 11
1025.106078
 21
228.060129
 31
0.0
  0
LINE
  8
LC-005-002-----0
  6
CONTINUOUS
  5
6C2
 10
1034.106078
 20
226.060129
 30
0.0
 11
1034.106078
 21
228.060129
 31
0.0
  0
LINE
  8
LC-005-002-----0
  6
CONTINUOUS
  5
6C3
 10
1039.606078
 20
237.560129
 30
0.0
 11
1033.625951
 21
237.560129
 31
0.0
  0
LINE
  8
LC-005-002-----0
  6
CONTINUOUS
  5
6C4
 10
1037.356078
 20
228.060129
 30
0.0
 11
1033.625951
 21
228.060129
 31
0.0
  0
LINE
  8
LC-005-002-----0
  6
CONTINUOUS
  5
6C5
 10
1018.606078
 20
231.560129
 30
0.0
 11
977.544726
 21
231.560129
 31
0.0
  0
ARC
  8
LC-005-002-----0
  6
CONTINUOUS
  5
6C6
 10
1019.606078
 20
236.560129
 30
0.0
 40
1.0
 50
90.0
 51
180.0
  0
LINE
  8
LC-005-002-----0
  6
CONTINUOUS
  5
6C7
 10
985.153717
 20
206.560129
 30
0.0
 11
984.83943
 21
215.560129
 31
0.0
  0
ARC
  8
LC-005-002-----0
  6
CONTINUOUS
  5
6C8
 10
1039.606078
 20
236.560129
 30
0.0
 40
1.0
 50
0.0
 51
90.0
  0
LINE
  8
LC-005-002-----0
  6
CONTINUOUS
 62
     5
  5
6C9
 10
1038.606078
 20
237.560129
 30
0.0
 11
1037.356078
 21
236.310129
 31
0.0
  0
LINE
  8
LC-005-002-----0
  6
CONTINUOUS
  5
6CA
 10
1020.606078
 20
237.560129
 30
0.0
 11
1021.856078
 21
236.310129
 31
0.0
  0
LINE
  8
LC-005-002-----0
  6
CONTINUOUS
  5
6CB
 10
1021.856078
 20
236.310129
 30
0.0
 11
1025.625951
 21
236.310129
 31
0.0
  0
LINE
  8
LC-005-002-----0
  6
CONTINUOUS
  5
6CC
 10
1068.356364
 20
231.560129
 30
0.0
 11
1040.606078
 21
231.560129
 31
0.0
  0
LINE
  8
LC-005-002-----0
  6
CONTINUOUS
  5
6CD
 10
1068.356364
 20
226.060129
 30
0.0
 11
1033.625951
 21
226.060129
 31
0.0
  0
LINE
  8
LC-005-002-----0
  6
CONTINUOUS
  5
6CE
 10
987.032455
 20
206.560129
 30
0.0
 11
985.153717
 21
206.560129
 31
0.0
  0
LINE
  8
LC-005-002-----0
  6
CONTINUOUS
  5
6CF
 10
976.606081
 20
215.560129
 30
0.0
 11
973.606083
 21
215.560129
 31
0.0
  0
LINE
  8
LC-005-002-----0
  6
CONTINUOUS
  5
6D0
 10
987.71341
 20
226.060129
 30
0.0
 11
987.032455
 21
206.560129
 31
0.0
  0
LINE
  8
LC-005-002-----0
  6
CONTINUOUS
  5
6D1
 10
984.83943
 20
215.560129
 30
0.0
 11
984.472762
 21
226.060129
 31
0.0
  0
LINE
  8
LC-005-002-----0
  6
CONTINUOUS
 62
     5
  5
6D2
 10
981.481364
 20
226.060129
 30
0.0
 11
981.481364
 21
225.810129
 31
0.0
  0
LINE
  8
LC-005-002-----0
  6
CONTINUOUS
  5
6D3
 10
984.472762
 20
226.060129
 30
0.0
 11
981.481364
 21
226.060129
 31
0.0
  0
LINE
  8
LC-005-002-----0
  6
CONTINUOUS
  5
6D4
 10
1068.356364
 20
231.560129
 30
0.0
 11
1159.168002
 21
231.560129
 31
0.0
  0
LINE
  8
LC-005-002-----0
  6
CONTINUOUS
  5
6D5
 10
1068.356364
 20
226.060129
 30
0.0
 11
1148.999317
 21
226.060129
 31
0.0
  0
LINE
  8
LC-005-002-----0
  6
CONTINUOUS
  5
6D6
 10
1149.680272
 20
206.560129
 30
0.0
 11
1151.559011
 21
206.560129
 31
0.0
  0
ARC
  8
LC-005-002-----0
  6
CONTINUOUS
  5
6D7
 10
1155.981364
 20
225.810129
 30
0.0
 40
0.75
 50
180.0
 51
0.0
  0
LINE
  8
LC-005-002-----0
  6
CONTINUOUS
 62
     5
  5
6D8
 10
1156.731364
 20
226.060129
 30
0.0
 11
1156.731364
 21
225.810129
 31
0.0
  0
LINE
  8
LC-005-002-----0
  6
CONTINUOUS
 62
     5
  5
6D9
 10
1155.231364
 20
226.060129
 30
0.0
 11
1155.231364
 21
225.810129
 31
0.0
  0
LINE
  8
LC-005-002-----0
  6
CONTINUOUS
  5
6DA
 10
1152.239966
 20
226.060129
 30
0.0
 11
1155.231364
 21
226.060129
 31
0.0
  0
LINE
  8
LC-005-002-----0
  6
CONTINUOUS
  5
6DB
 10
1021.856078
 20
236.060129
 30
0.0
 11
1025.625951
 21
236.060129
 31
0.0
  0
LINE
  8
LC-005-002-----0
  6
CONTINUOUS
  5
6DC
 10
1025.206078
 20
236.060129
 30
0.0
 11
1025.206078
 21
228.060129
 31
0.0
  0
LINE
  8
LC-005-002-----0
  6
CONTINUOUS
 62
     5
  5
6DD
 10
1034.006078
 20
228.060129
 30
0.0
 11
1033.625951
 21
228.060129
 31
0.0
  0
LINE
  8
LC-005-002-----0
  6
CONTINUOUS
  5
6DE
 10
1021.856078
 20
228.060129
 30
0.0
 11
1021.856078
 21
236.060129
 31
0.0
  0
LINE
  8
LC-005-002-----0
  6
CONTINUOUS
  5
6DF
 10
1034.006078
 20
236.060129
 30
0.0
 11
1037.356078
 21
236.060129
 31
0.0
  0
LINE
  8
LC-005-002-----0
  6
CONTINUOUS
  5
6E0
 10
1037.356078
 20
236.060129
 30
0.0
 11
1037.356078
 21
228.060129
 31
0.0
  0
LINE
  8
LC-005-002-----0
  6
CONTINUOUS
 62
     5
  5
6E1
 10
1037.356078
 20
228.060129
 30
0.0
 11
1034.006078
 21
228.060129
 31
0.0
  0
LINE
  8
LC-005-002-----0
  6
CONTINUOUS
  5
6E2
 10
1034.006078
 20
228.060129
 30
0.0
 11
1034.006078
 21
236.060129
 31
0.0
  0
LINE
  8
LC-005-002-----0
  6
CONTINUOUS
  5
6E3
 10
1013.128345
 20
245.878707
 30
0.0
 11
1016.128345
 21
245.878707
 31
0.0
  0
ARC
  8
LC-005-002-----0
  6
CONTINUOUS
  5
6E4
 10
1013.128345
 20
246.878707
 30
0.0
 40
1.0
 50
180.0
 51
270.000058
  0
LINE
  8
LC-005-002-----0
  6
CONTINUOUS
  5
6E5
 10
1012.128345
 20
249.878707
 30
0.0
 11
1012.128345
 21
246.878707
 31
0.0
  0
ARC
  8
LC-005-002-----0
  6
CONTINUOUS
  5
6E6
 10
1016.128345
 20
246.878707
 30
0.0
 40
1.0
 50
270.000058
 51
0.0
  0
LINE
  8
LC-005-002-----0
  6
CONTINUOUS
  5
6E7
 10
1017.128345
 20
246.878707
 30
0.0
 11
1017.128345
 21
249.878707
 31
0.0
  0
ARC
  8
LC-005-002-----0
  6
CONTINUOUS
  5
6E8
 10
1016.128345
 20
249.878707
 30
0.0
 40
1.0
 50
0.0
 51
90.0
  0
LINE
  8
LC-005-002-----0
  6
CONTINUOUS
  5
6E9
 10
1016.128345
 20
250.878707
 30
0.0
 11
1013.128345
 21
250.878707
 31
0.0
  0
ARC
  8
LC-005-002-----0
  6
CONTINUOUS
  5
6EA
 10
1013.128345
 20
249.878707
 30
0.0
 40
1.0
 50
90.0
 51
179.999848
  0
ARC
  8
LC-005-002-----0
  6
CONTINUOUS
  5
6EB
 10
1010.128345
 20
249.245359
 30
0.0
 40
2.0
 50
0.0
 51
79.660109
  0
ARC
  8
LC-005-002-----0
  6
CONTINUOUS
  5
6EC
 10
1014.628345
 20
308.907553
 30
0.0
 40
66.278846
 50
253.273047
 51
276.930544
  0
ARC
  8
LC-005-002-----0
  6
CONTINUOUS
  5
6ED
 10
1026.128587
 20
285.878873
 30
0.0
 40
41.0
 50
259.65992
 51
265.09924
  0
ARC
  8
LC-005-002-----0
  6
CONTINUOUS
  5
6EE
 10
1019.128562
 20
247.512225
 30
0.0
 40
2.0
 50
179.999963
 51
259.659995
  0
ARC
  8
LC-005-002-----0
  6
CONTINUOUS
  5
6EF
 10
1019.128563
 20
249.24553
 30
0.0
 40
2.0
 50
100.339835
 51
179.999963
  0
LINE
  8
LC-005-002-----0
  6
CONTINUOUS
  5
6F0
 10
994.128345
 20
247.348475
 30
0.0
 11
994.128345
 21
249.408938
 31
0.0
  0
ARC
  8
LC-005-002-----0
  6
CONTINUOUS
  5
6F1
 10
996.128345
 20
247.348475
 30
0.0
 40
2.0
 50
180.0
 51
253.273047
  0
ARC
  8
LC-005-002-----0
  6
CONTINUOUS
  5
6F2
 10
996.128345
 20
249.408938
 30
0.0
 40
2.0
 50
106.726782
 51
180.0
  0
ARC
  8
LC-005-002-----0
  6
CONTINUOUS
  5
6F3
 10
996.128345
 20
247.512054
 30
0.0
 40
2.0
 50
180.0
 51
259.659957
  0
ARC
  8
LC-005-002-----0
  6
CONTINUOUS
  5
6F4
 10
1003.128345
 20
285.878707
 30
0.0
 40
41.0
 50
259.660109
 51
280.339949
  0
ARC
  8
LC-005-002-----0
  6
CONTINUOUS
  5
6F5
 10
996.128345
 20
249.245359
 30
0.0
 40
2.0
 50
100.339872
 51
180.0
  0
ARC
  8
LC-005-002-----0
  6
CONTINUOUS
  5
6F6
 10
1003.128345
 20
210.878707
 30
0.0
 40
41.0
 50
79.660109
 51
100.339891
  0
ARC
  8
LC-005-002-----0
  6
CONTINUOUS
  5
6F7
 10
1010.128345
 20
247.512054
 30
0.0
 40
2.0
 50
280.339949
 51
0.0
  0
LINE
  8
LC-005-002-----0
  6
CONTINUOUS
  5
6F8
 10
1005.128345
 20
231.560129
 30
0.0
 11
1005.128345
 21
243.313076
 31
0.0
  0
LINE
  8
LC-006-006-MLN-0
  6
DASHDOT
  5
6F9
 10
1014.628345
 20
216.628707
 30
0.0
 11
1014.628345
 21
264.128707
 31
0.0
  0
LINE
  8
LC-005-002-----0
  6
CONTINUOUS
  5
6FA
 10
1121.127379
 20
245.878707
 30
0.0
 11
1124.127379
 21
245.878707
 31
0.0
  0
ARC
  8
LC-005-002-----0
  6
CONTINUOUS
  5
6FB
 10
1121.127379
 20
246.878707
 30
0.0
 40
1.0
 50
180.0
 51
270.000058
  0
LINE
  8
LC-005-002-----0
  6
CONTINUOUS
  5
6FC
 10
1120.127379
 20
249.878707
 30
0.0
 11
1120.127379
 21
246.878707
 31
0.0
  0
ARC
  8
LC-005-002-----0
  6
CONTINUOUS
  5
6FD
 10
1124.127379
 20
246.878707
 30
0.0
 40
1.0
 50
270.000058
 51
0.0
  0
LINE
  8
LC-005-002-----0
  6
CONTINUOUS
  5
6FE
 10
1125.127379
 20
246.878707
 30
0.0
 11
1125.127379
 21
249.878707
 31
0.0
  0
ARC
  8
LC-005-002-----0
  6
CONTINUOUS
  5
6FF
 10
1124.127379
 20
249.878707
 30
0.0
 40
1.0
 50
0.0
 51
90.0
  0
LINE
  8
LC-005-002-----0
  6
CONTINUOUS
  5
700
 10
1124.127379
 20
250.878707
 30
0.0
 11
1121.127379
 21
250.878707
 31
0.0
  0
ARC
  8
LC-005-002-----0
  6
CONTINUOUS
  5
701
 10
1121.127379
 20
249.878707
 30
0.0
 40
1.0
 50
90.0
 51
179.999848
  0
ARC
  8
LC-005-002-----0
  6
CONTINUOUS
  5
702
 10
1118.127379
 20
249.245359
 30
0.0
 40
2.0
 50
0.0
 51
79.660109
  0
LINE
  8
LC-005-002-----0
  6
CONTINUOUS
  5
703
 10
1143.127379
 20
247.348475
 30
0.0
 11
1143.127379
 21
249.408938
 31
0.0
  0
ARC
  8
LC-005-002-----0
  6
CONTINUOUS
  5
704
 10
1141.127379
 20
247.348475
 30
0.0
 40
2.0
 50
286.72686
 51
0.0
  0
ARC
  8
LC-005-002-----0
  6
CONTINUOUS
  5
705
 10
1122.627379
 20
308.907553
 30
0.0
 40
66.278846
 50
253.273047
 51
286.726801
  0
ARC
  8
LC-005-002-----0
  6
CONTINUOUS
  5
706
 10
1141.127596
 20
247.512216
 30
0.0
 40
2.0
 50
280.339912
 51
359.999963
  0
ARC
  8
LC-005-002-----0
  6
CONTINUOUS
  5
707
 10
1141.127379
 20
249.408938
 30
0.0
 40
2.0
 50
0.0
 51
73.273199
  0
ARC
  8
LC-005-002-----0
  6
CONTINUOUS
  5
708
 10
1122.627379
 20
187.84986
 30
0.0
 40
66.278846
 50
73.273199
 51
106.726782
  0
ARC
  8
LC-005-002-----0
  6
CONTINUOUS
  5
709
 10
1141.127597
 20
249.24552
 30
0.0
 40
2.0
 50
359.999963
 51
79.659997
  0
ARC
  8
LC-005-002-----0
  6
CONTINUOUS
  5
70A
 10
1134.127621
 20
285.878873
 30
0.0
 40
41.0
 50
259.65992
 51
280.339853
  0
ARC
  8
LC-005-002-----0
  6
CONTINUOUS
  5
70B
 10
1127.127596
 20
247.512225
 30
0.0
 40
2.0
 50
179.999963
 51
259.659995
  0
ARC
  8
LC-005-002-----0
  6
CONTINUOUS
  5
70C
 10
1127.127597
 20
249.24553
 30
0.0
 40
2.0
 50
100.339835
 51
179.999963
  0
ARC
  8
LC-005-002-----0
  6
CONTINUOUS
  5
70D
 10
1134.127572
 20
210.878873
 30
0.0
 40
41.0
 50
79.660072
 51
100.339835
  0
LINE
  8
LC-005-002-----0
  6
CONTINUOUS
  5
70E
 10
1132.127585
 20
231.560129
 30
0.0
 11
1132.127593
 21
243.313243
 31
0.0
  0
LINE
  8
LC-005-002-----0
  6
CONTINUOUS
  5
70F
 10
1102.127379
 20
247.348475
 30
0.0
 11
1102.127379
 21
249.408938
 31
0.0
  0
ARC
  8
LC-005-002-----0
  6
CONTINUOUS
  5
710
 10
1104.127379
 20
247.348475
 30
0.0
 40
2.0
 50
180.0
 51
253.273047
  0
ARC
  8
LC-005-002-----0
  6
CONTINUOUS
  5
711
 10
1104.127379
 20
249.408938
 30
0.0
 40
2.0
 50
106.726782
 51
180.0
  0
ARC
  8
LC-005-002-----0
  6
CONTINUOUS
  5
712
 10
1104.127379
 20
247.512054
 30
0.0
 40
2.0
 50
180.0
 51
259.659957
  0
ARC
  8
LC-005-002-----0
  6
CONTINUOUS
  5
713
 10
1111.127379
 20
285.878707
 30
0.0
 40
41.0
 50
259.660109
 51
280.339949
  0
ARC
  8
LC-005-002-----0
  6
CONTINUOUS
  5
714
 10
1104.127379
 20
249.245359
 30
0.0
 40
2.0
 50
100.339872
 51
180.0
  0
ARC
  8
LC-005-002-----0
  6
CONTINUOUS
  5
715
 10
1111.127379
 20
210.878707
 30
0.0
 40
41.0
 50
79.660109
 51
100.339891
  0
ARC
  8
LC-005-002-----0
  6
CONTINUOUS
  5
716
 10
1118.127379
 20
247.512054
 30
0.0
 40
2.0
 50
280.339949
 51
0.0
  0
LINE
  8
LC-005-002-----0
  6
CONTINUOUS
  5
717
 10
1113.127379
 20
231.560129
 30
0.0
 11
1113.127379
 21
243.313076
 31
0.0
  0
LINE
  8
LC-006-006-MLN-0
  6
DASHDOT
  5
718
 10
1122.627379
 20
216.628707
 30
0.0
 11
1122.627379
 21
264.128707
 31
0.0
  0
LINE
  8
LC-005-002-----0
  6
CONTINUOUS
 62
     5
  5
719
 10
1122.377922
 20
226.628707
 30
0.0
 11
1122.627379
 21
226.628707
 31
0.0
  0
ARC
  8
LC-005-002-----0
  6
CONTINUOUS
  5
71A
 10
1001.218862
 20
201.04079
 30
0.0
 40
6.339519
 50
129.057464
 51
271.0
  0
LINE
  8
LC-005-002-----0
  6
CONTINUOUS
 62
     2
  5
71B
 10
1006.917187
 20
191.592174
 30
0.0
 11
1003.654597
 21
194.74282
 31
0.0
  0
LINE
  8
LC-005-002-----0
  6
CONTINUOUS
  5
71C
 10
1001.329502
 20
194.702236
 30
0.0
 11
1003.654597
 21
194.74282
 31
0.0
  0
LINE
  8
LC-005-002-----0
  6
CONTINUOUS
  5
71D
 10
1006.249899
 20
39.064404
 30
0.0
 11
988.549202
 21
38.755437
 31
0.0
  0
LINE
  8
LC-005-002-----0
  6
CONTINUOUS
  5
71E
 10
983.63441
 20
205.726305
 30
0.0
 11
986.514602
 21
40.720228
 31
0.0
  0
ARC
  8
LC-005-002-----0
  6
CONTINUOUS
  5
71F
 10
1001.218862
 20
201.04079
 30
0.0
 40
7.0
 50
1.904541
 51
135.512384
  0
LINE
  8
LC-005-002-----0
  6
CONTINUOUS
  5
720
 10
1008.207785
 20
43.049181
 30
0.0
 11
1002.607587
 21
42.951429
 31
0.0
  0
CIRCLE
  8
LC-007-005-----0
  6
CONTINUOUS
 62
     1
  5
721
 10
1001.218862
 20
201.04079
 30
0.0
 40
4.2
  0
LINE
  8
LC-005-002-----0
  6
CONTINUOUS
  5
722
 10
990.979446
 20
186.02028
 30
0.0
 11
987.979903
 21
185.967923
 31
0.0
  0
LINE
  8
LC-005-002-----0
  6
CONTINUOUS
  5
723
 10
990.940178
 20
188.269937
 30
0.0
 11
983.941245
 21
188.14777
 31
0.0
  0
LINE
  8
LC-005-002-----0
  6
CONTINUOUS
  5
724
 10
990.940178
 20
188.269937
 30
0.0
 11
990.979446
 21
186.02028
 31
0.0
  0
LINE
  8
LC-005-002-----0
  6
CONTINUOUS
  5
725
 10
987.979903
 20
185.967923
 30
0.0
 11
988.014808
 21
183.968227
 31
0.0
  0
LINE
  8
LC-005-002-----0
  6
CONTINUOUS
  5
726
 10
994.514127
 20
184.081673
 30
0.0
 11
988.014808
 21
183.968227
 31
0.0
  0
LINE
  8
LC-005-002-----0
  6
CONTINUOUS
  5
727
 10
996.922559
 20
46.102691
 30
0.0
 11
990.42324
 21
45.989245
 31
0.0
  0
LINE
  8
LC-005-002-----0
  6
CONTINUOUS
  5
728
 10
990.458145
 20
43.98955
 30
0.0
 11
990.42324
 21
45.989245
 31
0.0
  0
LINE
  8
LC-005-002-----0
  6
CONTINUOUS
  5
729
 10
993.496956
 20
41.79225
 30
0.0
 11
993.457688
 21
44.041907
 31
0.0
  0
LINE
  8
LC-005-002-----0
  6
CONTINUOUS
 62
     5
  5
72A
 10
993.457688
 20
44.041907
 30
0.0
 11
990.458145
 21
43.98955
 31
0.0
  0
LINE
  8
LC-005-002-----0
  6
CONTINUOUS
  5
72B
 10
993.496956
 20
41.79225
 30
0.0
 11
986.506191
 21
41.670226
 31
0.0
  0
LINE
  8
LC-005-002-----0
  6
CONTINUOUS
  5
72C
 10
1002.607587
 20
42.951429
 30
0.0
 11
996.922559
 21
46.102691
 31
0.0
  0
LINE
  8
LC-005-002-----0
  6
CONTINUOUS
  5
72D
 10
1000.085714
 20
187.429421
 30
0.0
 11
994.514127
 21
184.081673
 31
0.0
  0
LINE
  8
LC-005-002-----0
  6
CONTINUOUS
  5
72E
 10
1008.214995
 20
187.571318
 30
0.0
 11
1000.085714
 21
187.429421
 31
0.0
  0
LINE
  8
LC-005-002-----0
  6
CONTINUOUS
  5
72F
 10
987.494915
 20
202.293157
 30
0.0
 11
987.692672
 21
190.963671
 31
0.0
  0
LINE
  8
LC-005-002-----0
  6
CONTINUOUS
  5
730
 10
1008.214995
 20
191.321889
 30
0.0
 11
987.692672
 21
190.963671
 31
0.0
  0
ARC
  8
LC-005-002-----0
  6
CONTINUOUS
  5
731
 10
992.185473
 20
202.875107
 30
0.0
 40
0.5
 50
271.0
 51
1.0
  0
ARC
  8
LC-005-002-----0
  6
CONTINUOUS
  5
732
 10
992.141842
 20
205.374726
 30
0.0
 40
0.5
 50
1.0
 51
91.0
  0
LINE
  8
LC-005-002-----0
  6
CONTINUOUS
  5
733
 10
987.494915
 20
202.293157
 30
0.0
 11
992.194199
 21
202.375183
 31
0.0
  0
ARC
  8
LC-005-002-----0
  6
CONTINUOUS
  5
734
 10
988.514297
 20
40.755133
 30
0.0
 40
2.0
 50
181.0
 51
271.0
  0
ARC
  8
LC-005-002-----0
  6
CONTINUOUS
  5
735
 10
1006.214994
 20
41.064099
 30
0.0
 40
2.0
 50
271.0
 51
360.0
  0
LINE
  8
LC-005-002-----0
  6
CONTINUOUS
  5
736
 10
992.641766
 20
205.383453
 30
0.0
 11
992.685397
 21
202.883833
 31
0.0
  0
LINE
  8
LC-005-002-----0
  6
CONTINUOUS
  5
737
 10
983.63441
 20
205.726305
 30
0.0
 11
997.224334
 21
205.963518
 31
0.0
  0
LINE
  8
LC-005-002-----0
  6
CONTINUOUS
  5
738
 10
1008.214995
 20
185.607748
 30
0.0
 11
993.665902
 21
176.865771
 31
0.0
  0
LINE
  8
LC-005-002-----0
  6
CONTINUOUS
  5
739
 10
983.87885
 20
176.694937
 30
0.0
 11
993.665902
 21
176.865771
 31
0.0
  0
LINE
  8
LC-005-002-----0
  6
CONTINUOUS
 62
     5
  5
73A
 10
990.717222
 20
186.015703
 30
0.0
 11
987.717679
 21
185.963346
 31
0.0
  0
LINE
  8
LC-005-002-----0
  6
CONTINUOUS
 62
     5
  5
73B
 10
990.677954
 20
188.26536
 30
0.0
 11
984.678868
 21
188.160646
 31
0.0
  0
LINE
  8
LC-005-002-----0
  6
CONTINUOUS
  5
73C
 10
990.677954
 20
188.26536
 30
0.0
 11
990.717222
 21
186.015703
 31
0.0
  0
LINE
  8
LC-005-002-----0
  6
CONTINUOUS
  5
73D
 10
987.717679
 20
185.963346
 30
0.0
 11
987.752584
 21
183.96365
 31
0.0
  0
LINE
  8
LC-005-002-----0
  6
CONTINUOUS
 62
     5
  5
73E
 10
994.751826
 20
184.085822
 30
0.0
 11
987.752584
 21
183.96365
 31
0.0
  0
LINE
  8
LC-005-002-----0
  6
CONTINUOUS
  5
73F
 10
1008.214995
 20
187.571318
 30
0.0
 11
1000.323413
 21
187.43357
 31
0.0
  0
LINE
  8
LC-005-002-----0
  6
CONTINUOUS
  5
740
 10
983.696472
 20
187.143346
 30
0.0
 11
983.773451
 21
182.733248
 31
0.0
  0
LINE
  8
LC-005-002-----0
  6
CONTINUOUS
 62
     5
  5
741
 10
997.160258
 20
46.106841
 30
0.0
 11
990.161016
 21
45.984668
 31
0.0
  0
LINE
  8
LC-005-002-----0
  6
CONTINUOUS
  5
742
 10
990.19592
 20
43.984973
 30
0.0
 11
990.161016
 21
45.984668
 31
0.0
  0
LINE
  8
LC-005-002-----0
  6
CONTINUOUS
  5
743
 10
993.234731
 20
41.787673
 30
0.0
 11
993.195464
 21
44.03733
 31
0.0
  0
LINE
  8
LC-005-002-----0
  6
CONTINUOUS
 62
     5
  5
744
 10
993.234731
 20
41.787673
 30
0.0
 11
987.235645
 21
41.682958
 31
0.0
  0
LINE
  8
LC-005-002-----0
  6
CONTINUOUS
  5
745
 10
1008.195966
 20
44.139451
 30
0.0
 11
991.823629
 21
53.214786
 31
0.0
  0
LINE
  8
LC-005-002-----0
  6
CONTINUOUS
  5
746
 10
986.035968
 20
53.113762
 30
0.0
 11
991.823629
 21
53.214786
 31
0.0
  0
LINE
  8
LC-005-002-----0
  6
CONTINUOUS
  5
747
 10
993.195464
 20
44.03733
 30
0.0
 11
990.19592
 21
43.984973
 31
0.0
  0
LINE
  8
LC-005-002-----0
  6
CONTINUOUS
 62
     5
  5
748
 10
1008.214995
 20
43.049307
 30
0.0
 11
1002.845286
 21
42.955578
 31
0.0
  0
LINE
  8
LC-005-002-----0
  6
CONTINUOUS
  5
749
 10
1002.845286
 20
42.955578
 30
0.0
 11
997.160258
 21
46.106841
 31
0.0
  0
LINE
  8
LC-005-002-----0
  6
CONTINUOUS
  5
74A
 10
982.48089
 20
179.430764
 30
0.0
 11
983.817082
 21
180.233629
 31
0.0
  0
LINE
  8
LC-005-002-----0
  6
CONTINUOUS
  5
74B
 10
982.489959
 20
178.911228
 30
0.0
 11
983.853356
 21
178.155484
 31
0.0
  0
LINE
  8
LC-005-002-----0
  6
CONTINUOUS
  5
74C
 10
983.853356
 20
178.155484
 30
0.0
 11
986.061462
 21
51.653215
 31
0.0
  0
LINE
  8
LC-005-002-----0
  6
CONTINUOUS
  5
74D
 10
982.437259
 20
181.930383
 30
0.0
 11
983.773451
 21
182.733248
 31
0.0
  0
LINE
  8
LC-005-002-----0
  6
CONTINUOUS
  5
74E
 10
987.235645
 20
41.682958
 30
0.0
 11
986.218345
 21
42.665354
 31
0.0
  0
LINE
  8
LC-005-002-----0
  6
CONTINUOUS
  5
74F
 10
984.734338
 20
50.330814
 30
0.0
 11
986.097736
 21
49.575071
 31
0.0
  0
LINE
  8
LC-005-002-----0
  6
CONTINUOUS
  5
750
 10
982.446328
 20
181.410847
 30
0.0
 11
983.809725
 21
180.655103
 31
0.0
  0
ARC
  8
LC-005-002-----0
  6
CONTINUOUS
  5
751
 10
982.591771
 20
181.673233
 30
0.0
 40
0.3
 50
121.0
 51
241.0
  0
LINE
  8
LC-005-002-----0
  6
CONTINUOUS
  5
752
 10
984.72527
 20
50.85035
 30
0.0
 11
986.061462
 21
51.653215
 31
0.0
  0
ARC
  8
LC-005-002-----0
  6
CONTINUOUS
  5
753
 10
982.635402
 20
179.173614
 30
0.0
 40
0.3
 50
121.0
 51
241.0
  0
LINE
  8
LC-005-002-----0
  6
CONTINUOUS
  5
754
 10
983.817082
 20
180.233629
 30
0.0
 11
983.809725
 21
180.655103
 31
0.0
  0
LINE
  8
LC-005-002-----0
  6
CONTINUOUS
  5
755
 10
984.678868
 20
188.160646
 30
0.0
 11
983.696472
 21
187.143346
 31
0.0
  0
LINE
  8
LC-005-002-----0
  6
CONTINUOUS
  5
756
 10
984.777969
 20
47.831195
 30
0.0
 11
986.141367
 21
47.075451
 31
0.0
  0
LINE
  8
LC-005-002-----0
  6
CONTINUOUS
  5
757
 10
984.768901
 20
48.350731
 30
0.0
 11
986.105093
 21
49.153596
 31
0.0
  0
ARC
  8
LC-005-002-----0
  6
CONTINUOUS
  5
758
 10
984.923412
 20
48.093581
 30
0.0
 40
0.3
 50
121.0
 51
241.0
  0
ARC
  8
LC-005-002-----0
  6
CONTINUOUS
  5
759
 10
984.879781
 20
50.5932
 30
0.0
 40
0.3
 50
121.0
 51
241.0
  0
LINE
  8
LC-005-002-----0
  6
CONTINUOUS
  5
75A
 10
986.097736
 20
49.575071
 30
0.0
 11
986.105093
 21
49.153596
 31
0.0
  0
LINE
  8
LC-005-002-----0
  6
CONTINUOUS
  5
75B
 10
986.218345
 20
42.665354
 30
0.0
 11
986.141367
 21
47.075451
 31
0.0
  0
LINE
  8
LC-005-002-----0
  6
CONTINUOUS
  5
75C
 10
1008.214995
 20
43.049307
 30
0.0
 11
1008.214995
 21
56.62186
 31
0.0
  0
LINE
  8
LC-005-002-----0
  6
CONTINUOUS
  5
75D
 10
1000.323413
 20
187.43357
 30
0.0
 11
994.751826
 21
184.085822
 31
0.0
  0
LINE
  8
LC-007-005-----0
  6
CONTINUOUS
 62
     1
  5
75E
 10
1022.070934
 20
202.548925
 30
0.0
 11
1012.253459
 21
205.550428
 31
0.0
  0
LINE
  8
LC-007-005-----0
  6
CONTINUOUS
 62
     1
  5
75F
 10
1020.317556
 20
189.973274
 30
0.0
 11
1026.055384
 21
188.219044
 31
0.0
  0
LINE
  8
LC-007-005-----0
  6
CONTINUOUS
 62
     1
  5
760
 10
1019.653623
 20
191.221951
 30
0.0
 11
1022.734867
 21
201.300248
 31
0.0
  0
ARC
  8
LC-007-005-----0
  6
CONTINUOUS
 62
     1
  5
761
 10
1020.609927
 20
190.929579
 30
0.0
 40
1.0
 50
163.0
 51
253.0
  0
ARC
  8
LC-007-005-----0
  6
CONTINUOUS
 62
     1
  5
762
 10
1021.778563
 20
201.59262
 30
0.0
 40
1.0
 50
343.0
 51
73.0
  0
LINE
  8
LC-007-005-----0
  6
CONTINUOUS
 62
     1
  5
763
 10
1027.304061
 20
188.882977
 30
0.0
 11
1031.237978
 21
201.75024
 31
0.0
  0
ARC
  8
LC-007-005-----0
  6
CONTINUOUS
 62
     1
  5
764
 10
1026.347756
 20
189.175349
 30
0.0
 40
1.0
 50
253.0
 51
343.0
  0
LINE
  8
LC-007-005-----0
  6
CONTINUOUS
 62
     1
  5
765
 10
1076.476522
 20
201.912719
 30
0.0
 11
1054.474328
 21
202.681052
 31
0.0
  0
LINE
  8
LC-007-005-----0
  6
CONTINUOUS
 62
     1
  5
766
 10
1076.441623
 20
200.913328
 30
0.0
 11
1032.229182
 21
202.457259
 31
0.0
  0
ARC
  8
LC-005-002-----0
  6
CONTINUOUS
 62
     5
  5
767
 10
1032.194282
 20
201.457868
 30
0.0
 40
1.0
 50
88.000001
 51
163.0
  0
LINE
  8
LC-007-005-----0
  6
CONTINUOUS
 62
     1
  5
768
 10
1026.347756
 20
189.175349
 30
0.0
 11
1030.281673
 21
202.042612
 31
0.0
  0
LINE
  8
LC-007-005-----0
  6
CONTINUOUS
 62
     1
  5
769
 10
1020.609927
 20
190.929579
 30
0.0
 11
1023.691172
 21
201.007877
 31
0.0
  0
LINE
  8
LC-007-005-----0
  6
CONTINUOUS
 62
     1
  5
76A
 10
1020.609927
 20
190.929579
 30
0.0
 11
1026.347756
 21
189.175349
 31
0.0
  0
LINE
  8
LC-007-005-----0
  6
CONTINUOUS
 62
     1
  5
76B
 10
1022.363306
 20
203.50523
 30
0.0
 11
1012.38924
 21
206.554608
 31
0.0
  0
ARC
  8
LC-007-005-----0
  6
CONTINUOUS
 62
     1
  5
76C
 10
1032.194282
 20
201.457868
 30
0.0
 40
2.0
 50
88.000001
 51
163.0
  0
ARC
  8
LC-007-005-----0
  6
CONTINUOUS
 62
     1
  5
76D
 10
1021.778563
 20
201.59262
 30
0.0
 40
2.0
 50
343.0
 51
73.0
  0
LINE
  8
LC-005-002-----0
  6
CONTINUOUS
  5
76E
 10
1138.235412
 20
154.967859
 30
0.0
 11
1141.21611
 21
164.717281
 31
0.0
  0
LINE
  8
LC-005-002-----0
  6
CONTINUOUS
  5
76F
 10
1137.279108
 20
155.260231
 30
0.0
 11
1140.259805
 21
165.009653
 31
0.0
  0
ARC
  8
LC-005-002-----0
  6
CONTINUOUS
  5
770
 10
1138.235412
 20
154.967859
 30
0.0
 40
1.0
 50
163.0
 51
253.0
  0
LINE
  8
LC-005-002-----0
  6
CONTINUOUS
  5
771
 10
1143.973241
 20
153.213629
 30
0.0
 11
1138.235412
 21
154.967859
 31
0.0
  0
LINE
  8
LC-005-002-----0
  6
CONTINUOUS
  5
772
 10
1143.680869
 20
152.257324
 30
0.0
 11
1137.943041
 21
154.011554
 31
0.0
  0
ARC
  8
LC-005-002-----0
  6
CONTINUOUS
  5
773
 10
1143.973241
 20
153.213629
 30
0.0
 40
1.0
 50
253.0
 51
343.0
  0
LINE
  8
LC-005-002-----0
  6
CONTINUOUS
  5
774
 10
1144.929546
 20
152.921257
 30
0.0
 11
1145.806661
 21
155.790172
 31
0.0
  0
LINE
  8
LC-005-002-----0
  6
CONTINUOUS
  5
775
 10
1143.973241
 20
153.213629
 30
0.0
 11
1144.850356
 21
156.082543
 31
0.0
  0
LINE
  8
LC-005-002-----0
  6
CONTINUOUS
  5
776
 10
1145.806661
 20
155.790172
 30
0.0
 11
1139.112527
 21
157.836773
 31
0.0
  0
ARC
  8
LC-005-002-----0
  6
CONTINUOUS
 62
     5
  5
777
 10
1001.218862
 20
201.04079
 30
0.0
 40
5.2
 50
91.598853
 51
253.0
  0
LINE
  8
LC-007-005-----0
  6
CONTINUOUS
 62
     1
  5
778
 10
1012.38924
 20
206.554608
 30
0.0
 11
1001.073773
 21
206.238765
 31
0.0
  0
LINE
  8
LC-005-002-----0
  6
CONTINUOUS
  5
779
 10
999.698529
 20
196.068005
 30
0.0
 11
1006.71782
 21
193.921992
 31
0.0
  0
LINE
  8
LC-007-005-----0
  6
CONTINUOUS
 62
     1
  5
77A
 10
1012.253459
 20
205.550428
 30
0.0
 11
1001.101675
 21
205.239154
 31
0.0
  0
LINE
  8
LC-005-002-----0
  6
CONTINUOUS
  5
77B
 10
999.990901
 20
197.02431
 30
0.0
 11
1007.010192
 21
194.878297
 31
0.0
  0
LINE
  8
LC-005-002-----0
  6
CONTINUOUS
 62
     5
  5
77C
 10
1006.71782
 20
193.921992
 30
0.0
 11
1007.010192
 21
194.878297
 31
0.0
  0
ARC
  8
LC-007-005-----0
  6
CONTINUOUS
 62
     1
  5
77D
 10
1049.210857
 20
62.347975
 30
0.0
 40
140.0
 50
49.580232
 51
77.361016
  0
ARC
  8
LC-007-005-----0
  6
CONTINUOUS
 62
     1
  5
77E
 10
1049.210857
 20
62.347975
 30
0.0
 40
139.0
 50
49.580232
 51
97.637088
  0
ARC
  8
LC-005-002-----0
  6
CONTINUOUS
  5
77F
 10
1137.390891
 20
165.886768
 30
0.0
 40
3.0
 50
343.0
 51
49.580232
  0
ARC
  8
LC-005-002-----0
  6
CONTINUOUS
  5
780
 10
1137.390891
 20
165.886768
 30
0.0
 40
4.0
 50
343.0
 51
49.580232
  0
ARC
  8
LC-007-005-----0
  6
CONTINUOUS
 62
     1
  5
781
 10
1076.406723
 20
199.913937
 30
0.0
 40
2.0
 50
14.375598
 51
88.000001
  0
ARC
  8
LC-007-005-----0
  6
CONTINUOUS
 62
     1
  5
782
 10
1080.281479
 20
200.907046
 30
0.0
 40
2.0
 50
194.375598
 51
257.361016
  0
ARC
  8
LC-007-005-----0
  6
CONTINUOUS
 62
     1
  5
783
 10
1076.406723
 20
199.913937
 30
0.0
 40
1.0
 50
14.375598
 51
88.000001
  0
ARC
  8
LC-007-005-----0
  6
CONTINUOUS
 62
     1
  5
784
 10
1080.281479
 20
200.907046
 30
0.0
 40
3.0
 50
194.375598
 51
257.361016
  0
ARC
  8
LC-005-002-----0
  6
CONTINUOUS
 62
     5
  5
785
 10
1001.218862
 20
201.04079
 30
0.0
 40
4.2
 50
91.598853
 51
253.0
  0
LINE
  8
LC-007-005-----0
  6
CONTINUOUS
 62
     1
  5
786
 10
1026.055384
 20
188.219044
 30
0.0
 11
1138.77577
 21
153.756964
 31
0.0
  0
ARC
  8
LC-007-005-----0
  6
CONTINUOUS
 62
     1
  5
787
 10
1052.975241
 20
202.733401
 30
0.0
 40
1.5
 50
358.000001
 51
154.421823
  0
LINE
  8
LC-007-005-----0
  6
CONTINUOUS
 62
     1
  5
788
 10
1050.685349
 20
202.813365
 30
0.0
 11
1032.264081
 21
203.45665
 31
0.0
  0
ARC
  8
LC-007-005-----0
  6
CONTINUOUS
 62
     1
  5
789
 10
1050.720249
 20
203.812756
 30
0.0
 40
1.0
 50
268.000001
 51
334.421823
  0
LINE
  8
LC-005-002-----0
  6
CONTINUOUS
 62
     2
  5
78A
 10
1008.757655
 20
181.54079
 30
0.0
 11
1008.757655
 21
191.806843
 31
0.0
  0
LINE
  8
LC-005-002-----0
  6
CONTINUOUS
 62
     2
  5
78B
 10
996.218862
 20
179.54079
 30
0.0
 11
996.218862
 21
173.54079
 31
0.0
  0
LINE
  8
LC-005-002-----0
  6
CONTINUOUS
 62
     2
  5
78C
 10
997.218862
 20
180.54079
 30
0.0
 11
1007.757655
 21
180.54079
 31
0.0
  0
ARC
  8
LC-005-002-----0
  6
CONTINUOUS
 62
     2
  5
78D
 10
997.218862
 20
179.54079
 30
0.0
 40
1.0
 50
90.0
 51
180.0
  0
ARC
  8
LC-005-002-----0
  6
CONTINUOUS
 62
     2
  5
78E
 10
1007.757655
 20
181.54079
 30
0.0
 40
1.0
 50
270.0
 51
0.0
  0
LINE
  8
LC-005-002-----0
  6
CONTINUOUS
 62
     2
  5
78F
 10
997.218862
 20
172.54079
 30
0.0
 11
1010.674053
 21
172.54079
 31
0.0
  0
ARC
  8
LC-005-002-----0
  6
CONTINUOUS
 62
     2
  5
790
 10
997.218862
 20
173.54079
 30
0.0
 40
1.0
 50
180.0
 51
270.0
  0
LINE
  8
LC-005-002-----0
  6
CONTINUOUS
 62
     2
  5
791
 10
1024.055903
 20
129.326459
 30
0.0
 11
1018.357844
 21
150.591901
 31
0.0
  0
LINE
  8
LC-005-002-----0
  6
CONTINUOUS
 62
     2
  5
792
 10
1023.089977
 20
129.06764
 30
0.0
 11
1011.639979
 21
171.799609
 31
0.0
  0
ARC
  8
LC-005-002-----0
  6
CONTINUOUS
 62
     2
  5
793
 10
1010.674053
 20
171.54079
 30
0.0
 40
1.0
 50
15.000001
 51
90.0
  0
LINE
  8
LC-005-002-----0
  6
CONTINUOUS
 62
     2
  5
794
 10
997.218862
 20
173.54079
 30
0.0
 11
1010.674053
 21
173.54079
 31
0.0
  0
LINE
  8
LC-005-002-----0
  6
CONTINUOUS
 62
     2
  5
795
 10
997.218862
 20
179.54079
 30
0.0
 11
1007.757655
 21
179.54079
 31
0.0
  0
LINE
  8
LC-005-002-----0
  6
CONTINUOUS
 62
     2
  5
796
 10
997.218862
 20
179.54079
 30
0.0
 11
997.218862
 21
173.54079
 31
0.0
  0
LINE
  8
LC-005-002-----0
  6
CONTINUOUS
 62
     2
  5
797
 10
1009.757655
 20
181.54079
 30
0.0
 11
1009.757655
 21
191.970589
 31
0.0
  0
ARC
  8
LC-005-002-----0
  6
CONTINUOUS
 62
     2
  5
798
 10
1010.674053
 20
171.54079
 30
0.0
 40
2.0
 50
15.000001
 51
90.0
  0
ARC
  8
LC-005-002-----0
  6
CONTINUOUS
 62
     2
  5
799
 10
1007.757655
 20
181.54079
 30
0.0
 40
2.0
 50
270.0
 51
0.0
  0
LINE
  8
LC-005-002-----0
  6
CONTINUOUS
 62
     2
  5
79A
 10
997.218862
 20
56.54079
 30
0.0
 11
1007.413752
 21
56.54079
 31
0.0
  0
LINE
  8
LC-005-002-----0
  6
CONTINUOUS
 62
     2
  5
79B
 10
997.218862
 20
57.54079
 30
0.0
 11
1007.413752
 21
57.54079
 31
0.0
  0
ARC
  8
LC-005-002-----0
  6
CONTINUOUS
 62
     2
  5
79C
 10
997.218862
 20
56.54079
 30
0.0
 40
1.0
 50
90.0
 51
180.0
  0
LINE
  8
LC-005-002-----0
  6
CONTINUOUS
 62
     2
  5
79D
 10
997.218862
 20
50.54079
 30
0.0
 11
997.218862
 21
56.54079
 31
0.0
  0
LINE
  8
LC-005-002-----0
  6
CONTINUOUS
 62
     2
  5
79E
 10
996.218862
 20
50.54079
 30
0.0
 11
996.218862
 21
56.54079
 31
0.0
  0
ARC
  8
LC-005-002-----0
  6
CONTINUOUS
 62
     2
  5
79F
 10
997.218862
 20
50.54079
 30
0.0
 40
1.0
 50
180.0
 51
270.0
  0
LINE
  8
LC-005-002-----0
  6
CONTINUOUS
 62
     2
  5
7A0
 10
997.218862
 20
49.54079
 30
0.0
 11
1000.218862
 21
49.54079
 31
0.0
  0
LINE
  8
LC-005-002-----0
  6
CONTINUOUS
 62
     2
  5
7A1
 10
997.218862
 20
50.54079
 30
0.0
 11
1000.218862
 21
50.54079
 31
0.0
  0
LINE
  8
LC-005-002-----0
  6
CONTINUOUS
 62
     2
  5
7A2
 10
1000.218862
 20
49.54079
 30
0.0
 11
1000.218862
 21
56.54079
 31
0.0
  0
ARC
  8
LC-005-002-----0
  6
CONTINUOUS
 62
     2
  5
7A3
 10
1001.218862
 20
201.04079
 30
0.0
 40
5.2
 50
18.598853
 51
180.0
  0
LINE
  8
LC-005-002-----0
  6
CONTINUOUS
 62
     2
  5
7A4
 10
1009.757655
 20
191.970589
 30
0.0
 11
1006.147291
 21
202.69928
 31
0.0
  0
LINE
  8
LC-005-002-----0
  6
CONTINUOUS
 62
     2
  5
7A5
 10
996.018862
 20
201.04079
 30
0.0
 11
996.018862
 21
193.700775
 31
0.0
  0
LINE
  8
LC-005-002-----0
  6
CONTINUOUS
 62
     2
  5
7A6
 10
1008.757655
 20
191.806843
 30
0.0
 11
1005.199516
 21
202.380339
 31
0.0
  0
LINE
  8
LC-005-002-----0
  6
CONTINUOUS
 62
     2
  5
7A7
 10
997.018862
 20
201.04079
 30
0.0
 11
997.018862
 21
193.700775
 31
0.0
  0
LINE
  8
LC-005-002-----0
  6
CONTINUOUS
 62
     2
  5
7A8
 10
996.018862
 20
193.700775
 30
0.0
 11
997.018862
 21
193.700775
 31
0.0
  0
ARC
  8
LC-005-002-----0
  6
CONTINUOUS
 62
     2
  5
7A9
 10
882.617765
 20
114.595962
 30
0.0
 40
140.0
 50
336.580232
 51
4.361016
  0
ARC
  8
LC-005-002-----0
  6
CONTINUOUS
 62
     2
  5
7AA
 10
882.617765
 20
114.595962
 30
0.0
 40
139.0
 50
336.580232
 51
24.637088
  0
ARC
  8
LC-005-002-----0
  6
CONTINUOUS
 62
     2
  5
7AB
 10
1007.413752
 20
60.54079
 30
0.0
 40
3.0
 50
270.0
 51
336.580232
  0
ARC
  8
LC-005-002-----0
  6
CONTINUOUS
 62
     2
  5
7AC
 10
1007.413752
 20
60.54079
 30
0.0
 40
4.0
 50
270.0
 51
336.580232
  0
ARC
  8
LC-005-002-----0
  6
DASHDOT
 62
     2
  5
7AD
 10
1022.124051
 20
128.808821
 30
0.0
 40
2.0
 50
301.375598
 51
15.000001
  0
ARC
  8
LC-005-002-----0
  6
DASHDOT
 62
     2
  5
7AE
 10
1024.206635
 20
125.39373
 30
0.0
 40
2.0
 50
121.375598
 51
184.361016
  0
ARC
  8
LC-005-002-----0
  6
DASHDOT
 62
     2
  5
7AF
 10
1022.124051
 20
128.808821
 30
0.0
 40
1.0
 50
301.375598
 51
15.000001
  0
ARC
  8
LC-005-002-----0
  6
DASHDOT
 62
     2
  5
7B0
 10
1024.206635
 20
125.39373
 30
0.0
 40
3.0
 50
121.375598
 51
184.361016
  0
ARC
  8
LC-005-002-----0
  6
DASHDOT
 62
     5
  5
7B1
 10
1001.218862
 20
201.04079
 30
0.0
 40
4.2
 50
18.598853
 51
180.0
  0
LINE
  8
LC-005-002-----0
  6
CONTINUOUS
 62
     2
  5
7B2
 10
996.218862
 20
173.54079
 30
0.0
 11
996.218862
 21
55.670012
 31
0.0
  0
ARC
  8
LC-005-002-----0
  6
CONTINUOUS
 62
     2
  5
7B3
 10
1017.969615
 20
152.04079
 30
0.0
 40
1.5
 50
285.000001
 51
81.421823
  0
LINE
  8
LC-005-002-----0
  6
CONTINUOUS
 62
     2
  5
7B4
 10
1017.376586
 20
154.254004
 30
0.0
 11
1012.605905
 21
172.058428
 31
0.0
  0
ARC
  8
LC-005-002-----0
  6
CONTINUOUS
 62
     2
  5
7B5
 10
1018.342512
 20
154.512823
 30
0.0
 40
1.0
 50
195.000001
 51
261.421823
  0
LINE
  8
LC-006-006-MLN-0
  6
DASHDOT
  5
7B6
 10
1011.66303
 20
201.04079
 30
0.0
 11
991.024322
 21
201.04079
 31
0.0
  0
LINE
  8
LC-006-006-MLN-0
  6
DASHDOT
  5
7B7
 10
1001.218862
 20
211.053734
 30
0.0
 11
1001.218862
 21
190.291672
 31
0.0
  0
LINE
  8
LC-005-002-----0
  6
CONTINUOUS
 62
     2
  5
7B8
 10
1017.497648
 20
187.922691
 30
0.0
 11
1012.364622
 21
196.813353
 31
0.0
  0
LINE
  8
LC-005-002-----0
  6
CONTINUOUS
 62
     2
  5
7B9
 10
1007.638735
 20
179.921243
 30
0.0
 11
1010.638735
 21
174.725091
 31
0.0
  0
LINE
  8
LC-005-002-----0
  6
CONTINUOUS
 62
     2
  5
7BA
 10
1008.00476
 20
181.287269
 30
0.0
 11
1017.131623
 21
186.556665
 31
0.0
  0
ARC
  8
LC-005-002-----0
  6
CONTINUOUS
 62
     2
  5
7BB
 10
1008.50476
 20
180.421243
 30
0.0
 40
1.0
 50
120.0
 51
210.0
  0
ARC
  8
LC-005-002-----0
  6
CONTINUOUS
 62
     2
  5
7BC
 10
1016.631623
 20
187.422691
 30
0.0
 40
1.0
 50
300.0
 51
30.0
  0
LINE
  8
LC-005-002-----0
  6
CONTINUOUS
 62
     2
  5
7BD
 10
1012.00476
 20
174.359066
 30
0.0
 11
1023.657297
 21
181.086661
 31
0.0
  0
ARC
  8
LC-005-002-----0
  6
CONTINUOUS
 62
     2
  5
7BE
 10
1011.50476
 20
175.225091
 30
0.0
 40
1.0
 50
210.0
 51
300.0
  0
LINE
  8
LC-005-002-----0
  6
CONTINUOUS
 62
     2
  5
7BF
 10
1056.853485
 20
150.352878
 30
0.0
 11
1041.2861
 21
165.920261
 31
0.0
  0
LINE
  8
LC-005-002-----0
  6
CONTINUOUS
 62
     2
  5
7C0
 10
1056.146378
 20
149.645771
 30
0.0
 11
1024.864404
 21
180.927742
 31
0.0
  0
ARC
  8
LC-005-002-----0
  6
CONTINUOUS
 62
     2
  5
7C1
 10
1024.157297
 20
180.220636
 30
0.0
 40
1.0
 50
45.000001
 51
120.0
  0
LINE
  8
LC-005-002-----0
  6
CONTINUOUS
 62
     2
  5
7C2
 10
1011.50476
 20
175.225091
 30
0.0
 11
1023.157297
 21
181.952686
 31
0.0
  0
LINE
  8
LC-005-002-----0
  6
CONTINUOUS
 62
     2
  5
7C3
 10
1008.50476
 20
180.421243
 30
0.0
 11
1017.631623
 21
185.69064
 31
0.0
  0
LINE
  8
LC-005-002-----0
  6
CONTINUOUS
 62
     2
  5
7C4
 10
1008.50476
 20
180.421243
 30
0.0
 11
1011.50476
 21
175.225091
 31
0.0
  0
LINE
  8
LC-005-002-----0
  6
CONTINUOUS
 62
     2
  5
7C5
 10
1018.363674
 20
188.422691
 30
0.0
 11
1013.148774
 21
197.455162
 31
0.0
  0
ARC
  8
LC-005-002-----0
  6
CONTINUOUS
 62
     2
  5
7C6
 10
1024.157297
 20
180.220636
 30
0.0
 40
2.0
 50
45.000001
 51
120.0
  0
ARC
  8
LC-005-002-----0
  6
CONTINUOUS
 62
     2
  5
7C7
 10
1016.631623
 20
187.422691
 30
0.0
 40
2.0
 50
300.0
 51
30.0
  0
LINE
  8
LC-005-002-----0
  6
CONTINUOUS
 62
     2
  5
7C8
 10
1070.00476
 20
73.900119
 30
0.0
 11
1078.833794
 21
78.997564
 31
0.0
  0
LINE
  8
LC-005-002-----0
  6
CONTINUOUS
 62
     2
  5
7C9
 10
1069.50476
 20
74.766144
 30
0.0
 11
1078.333794
 21
79.863589
 31
0.0
  0
ARC
  8
LC-005-002-----0
  6
CONTINUOUS
 62
     2
  5
7CA
 10
1070.00476
 20
73.900119
 30
0.0
 40
1.0
 50
120.0
 51
210.0
  0
LINE
  8
LC-005-002-----0
  6
CONTINUOUS
 62
     2
  5
7CB
 10
1073.00476
 20
68.703966
 30
0.0
 11
1070.00476
 21
73.900119
 31
0.0
  0
LINE
  8
LC-005-002-----0
  6
CONTINUOUS
 62
     2
  5
7CC
 10
1072.138735
 20
68.203966
 30
0.0
 11
1069.138735
 21
73.400119
 31
0.0
  0
ARC
  8
LC-005-002-----0
  6
CONTINUOUS
 62
     2
  5
7CD
 10
1073.00476
 20
68.703966
 30
0.0
 40
1.0
 50
210.0
 51
300.0
  0
LINE
  8
LC-005-002-----0
  6
CONTINUOUS
 62
     2
  5
7CE
 10
1073.50476
 20
67.837941
 30
0.0
 11
1076.102836
 21
69.337941
 31
0.0
  0
LINE
  8
LC-005-002-----0
  6
CONTINUOUS
 62
     2
  5
7CF
 10
1073.00476
 20
68.703966
 30
0.0
 11
1075.602836
 21
70.203966
 31
0.0
  0
LINE
  8
LC-005-002-----0
  6
CONTINUOUS
 62
     2
  5
7D0
 10
1076.102836
 20
69.337941
 30
0.0
 11
1072.602836
 21
75.400119
 31
0.0
  0
ARC
  8
LC-005-002-----0
  6
CONTINUOUS
  5
7D1
 10
1001.218862
 20
201.04079
 30
0.0
 40
5.2
 50
48.598853
 51
210.0
  0
LINE
  8
LC-005-002-----0
  6
CONTINUOUS
 62
     2
  5
7D2
 10
1013.148774
 20
197.455162
 30
0.0
 11
1004.657762
 21
204.941299
 31
0.0
  0
LINE
  8
LC-005-002-----0
  6
CONTINUOUS
 62
     2
  5
7D3
 10
996.71553
 20
198.44079
 30
0.0
 11
1000.385537
 21
192.08415
 31
0.0
  0
LINE
  8
LC-005-002-----0
  6
CONTINUOUS
 62
     2
  5
7D4
 10
1012.364622
 20
196.813353
 30
0.0
 11
1003.996435
 21
204.1912
 31
0.0
  0
LINE
  8
LC-005-002-----0
  6
CONTINUOUS
 62
     2
  5
7D5
 10
997.581555
 20
198.94079
 30
0.0
 11
1001.251563
 21
192.58415
 31
0.0
  0
LINE
  8
LC-005-002-----0
  6
CONTINUOUS
 62
     2
  5
7D6
 10
1000.385537
 20
192.08415
 30
0.0
 11
1001.251563
 21
192.58415
 31
0.0
  0
ARC
  8
LC-005-002-----0
  6
CONTINUOUS
 62
     2
  5
7D7
 10
941.729713
 20
66.876824
 30
0.0
 40
140.0
 50
6.580232
 51
34.361016
  0
ARC
  8
LC-005-002-----0
  6
CONTINUOUS
 62
     2
  5
7D8
 10
1076.833794
 20
82.461665
 30
0.0
 40
3.0
 50
300.0
 51
6.580232
  0
ARC
  8
LC-005-002-----0
  6
CONTINUOUS
 62
     2
  5
7D9
 10
1076.833794
 20
82.461665
 30
0.0
 40
4.0
 50
300.0
 51
6.580232
  0
ARC
  8
LC-005-002-----0
  6
CONTINUOUS
 62
     2
  5
7DA
 10
1058.950387
 20
147.0224
 30
0.0
 40
2.0
 50
151.375598
 51
214.361016
  0
ARC
  8
LC-005-002-----0
  6
CONTINUOUS
 62
     2
  5
7DB
 10
1055.439271
 20
148.938664
 30
0.0
 40
1.0
 50
331.375598
 51
45.000001
  0
ARC
  8
LC-005-002-----0
  6
CONTINUOUS
 62
     2
  5
7DC
 10
1058.950387
 20
147.0224
 30
0.0
 40
3.0
 50
151.375598
 51
214.361016
  0
ARC
  8
LC-005-002-----0
  6
CONTINUOUS
  5
7DD
 10
1001.218862
 20
201.04079
 30
0.0
 40
4.2
 50
48.598853
 51
210.0
  0
LINE
  8
LC-005-002-----0
  6
CONTINUOUS
 62
     2
  5
7DE
 10
1010.638735
 20
174.725091
 30
0.0
 11
1069.574124
 21
72.646003
 31
0.0
  0
ARC
  8
LC-005-002-----0
  6
CONTINUOUS
 62
     2
  5
7DF
 10
1040.225439
 20
166.980921
 30
0.0
 40
1.5
 50
315.000001
 51
111.421823
  0
LINE
  8
LC-005-002-----0
  6
CONTINUOUS
 62
     2
  5
7E0
 10
1038.605254
 20
168.601106
 30
0.0
 11
1025.571511
 21
181.634849
 31
0.0
  0
ARC
  8
LC-005-002-----0
  6
CONTINUOUS
 62
     2
  5
7E1
 10
1039.312361
 20
169.308213
 30
0.0
 40
1.0
 50
225.000001
 51
291.421823
  0
ARC
  8
LC-005-002-----0
  6
CONTINUOUS
  5
7E2
 10
1014.628345
 20
187.84986
 30
0.0
 40
66.278846
 50
83.069456
 51
106.726782
  0
ARC
  8
LC-005-002-----0
  6
CONTINUOUS
  5
7E3
 10
1026.128538
 20
210.878873
 30
0.0
 40
41.0
 50
94.900691
 51
100.339835
  0
LINE
  8
LC-005-002-----0
  6
CONTINUOUS
  5
7E4
 10
1025.625951
 20
237.560129
 30
0.0
 11
1019.606078
 21
237.560129
 31
0.0
  0
LINE
  8
LC-005-002-----0
  6
CONTINUOUS
  5
7E5
 10
1025.625951
 20
238.128707
 30
0.0
 11
1024.625951
 21
238.128707
 31
0.0
  0
LINE
  8
LC-005-002-----0
  6
CONTINUOUS
  5
7E6
 10
1033.625951
 20
236.310129
 30
0.0
 11
1037.356078
 21
236.310129
 31
0.0
  0
LINE
  8
LC-005-002-----0
  6
CONTINUOUS
 62
     5
  5
7E7
 10
1033.625951
 20
236.060129
 30
0.0
 11
1034.006078
 21
236.060129
 31
0.0
  0
LINE
  8
LC-005-002-----0
  6
CONTINUOUS
 62
     5
  5
7E8
 10
1025.625951
 20
228.060129
 30
0.0
 11
1021.856078
 21
228.060129
 31
0.0
  0
LINE
  8
LC-005-002-----0
  6
CONTINUOUS
  5
7E9
 10
1025.625951
 20
226.060129
 30
0.0
 11
987.71341
 21
226.060129
 31
0.0
  0
LINE
  8
LC-008-001-----0
  6
CONTINUOUS
  5
7EA
 10
978.882924
 20
215.560129
 30
0.0
 11
976.606081
 21
215.560129
 31
0.0
  0
LINE
  8
LC-012-100-D03-0
  6
CONTINUOUS
  5
7EB
 10
1154.776498
 20
224.060129
 30
0.0
 11
1157.873166
 21
224.060129
 31
0.0
  0
LINE
  8
LC-005-002-----0
  6
CONTINUOUS
  5
7EC
 10
1033.459095
 20
185.955502
 30
0.0
 11
1033.459095
 21
173.747266
 31
0.0
  0
LINE
  8
LC-005-002-----0
  6
CONTINUOUS
  5
7ED
 10
1036.459095
 20
185.03831
 30
0.0
 11
1036.459095
 21
170.747266
 31
0.0
  0
LINE
  8
LC-005-002-----0
  6
CONTINUOUS
  5
7EE
 10
1025.625951
 20
228.060129
 30
0.0
 11
1021.856078
 21
228.060129
 31
0.0
  0
LINE
  8
LC-008-001-----0
  6
CONTINUOUS
  5
7EF
 10
1158.373194
 20
215.561945
 30
0.0
 11
1160.106646
 21
215.56198
 31
0.0
  0
LINE
  8
LC-005-002-----0
  6
CONTINUOUS
  5
7F0
 10
1036.459095
 20
130.002916
 30
0.0
 11
1036.459095
 21
82.18474
 31
0.0
  0
LINE
  8
LC-005-002-----0
  6
CONTINUOUS
  5
7F1
 10
1033.459095
 20
135.199069
 30
0.0
 11
1033.459095
 21
82.18474
 31
0.0
  0
LINE
  8
LC-005-002-----0
  6
CONTINUOUS
  5
7F2
 10
1008.214995
 20
181.54079
 30
0.0
 11
1008.214995
 21
187.571318
 31
0.0
  0
LINE
  8
LC-005-002-----0
  6
CONTINUOUS
  5
7F3
 10
1025.625951
 20
333.94609
 30
0.0
 11
1024.625951
 21
333.94609
 31
0.0
  0
LINE
  8
LC-005-002-----0
  6
CONTINUOUS
  5
7F4
 10
975.030796
 20
166.11367
 30
0.0
 11
975.030796
 21
55.71367
 31
0.0
  0
ENDSEC
  0
EOF
