  0
SECTION
  2
HEADER
  9
$ACADVER
  1
AC1009
  9
$INSBASE
 10
0.0
 20
0.0
 30
0.0
  9
$EXTMIN
 10
-11.248647
 20
-136.026
 30
0.0
  9
$EXTMAX
 10
828.751353
 20
457.974
 30
0.0
  9
$LIMMIN
 10
-11.248647
 20
-136.026
  9
$LIMMAX
 10
828.751353
 20
457.974
  9
$ORTHOMODE
 70
     0
  9
$REGENMODE
 70
     1
  9
$FILLMODE
 70
     1
  9
$QTEXTMODE
 70
     0
  9
$MIRRTEXT
 70
     1
  9
$DRAGMODE
 70
     2
  9
$LTSCALE
 40
2.0
  9
$OSMODE
 70
     0
  9
$ATTMODE
 70
     1
  9
$TEXTSIZE
 40
0.2
  9
$TRACEWID
 40
0.05
  9
$TEXTSTYLE
  7
STANDARD
  9
$CLAYER
  8
0
  9
$CELTYPE
  6
BYLAYER
  9
$CECOLOR
 62
     7
  9
$DIMSCALE
 40
2.0
  9
$DIMASZ
 40
3.5
  9
$DIMEXO
 40
0.0625
  9
$DIMDLI
 40
0.38
  9
$DIMRND
 40
0.0
  9
$DIMDLE
 40
0.0
  9
$DIMEXE
 40
0.18
  9
$DIMTP
 40
0.0
  9
$DIMTM
 40
0.0
  9
$DIMTXT
 40
3.5
  9
$DIMCEN
 40
0.09
  9
$DIMTSZ
 40
0.0
  9
$DIMTOL
 70
     0
  9
$DIMLIM
 70
     0
  9
$DIMTIH
 70
     1
  9
$DIMTOH
 70
     1
  9
$DIMSE1
 70
     0
  9
$DIMSE2
 70
     0
  9
$DIMTAD
 70
     1
  9
$DIMZIN
 70
     0
  9
$DIMBLK
  1

  9
$DIMASO
 70
     1
  9
$DIMSHO
 70
     1
  9
$DIMPOST
  1

  9
$DIMAPOST
  1

  9
$DIMALT
 70
     0
  9
$DIMALTD
 70
     2
  9
$DIMALTF
 40
25.4
  9
$DIMLFAC
 40
1.0
  9
$DIMTOFL
 70
     0
  9
$DIMTVP
 40
0.0
  9
$DIMTIX
 70
     0
  9
$DIMSOXD
 70
     0
  9
$DIMSAH
 70
     0
  9
$DIMBLK1
  1

  9
$DIMBLK2
  1

  9
$DIMSTYLE
  2
STANDARD
  9
$DIMCLRD
 70
     0
  9
$DIMCLRE
 70
     0
  9
$DIMCLRT
 70
     0
  9
$DIMTFAC
 40
1.0
  9
$DIMGAP
 40
0.09
  9
$LUNITS
 70
     2
  9
$LUPREC
 70
     2
  9
$AXISMODE
 70
     0
  9
$AXISUNIT
 10
0.0
 20
0.0
  9
$SKETCHINC
 40
0.1
  9
$FILLETRAD
 40
0.0
  9
$AUNITS
 70
     0
  9
$AUPREC
 70
     0
  9
$MENU
  1
acad
  9
$ELEVATION
 40
0.0
  9
$PELEVATION
 40
0.0
  9
$THICKNESS
 40
0.0
  9
$LIMCHECK
 70
     0
  9
$BLIPMODE
 70
     1
  9
$CHAMFERA
 40
0.0
  9
$CHAMFERB
 40
0.0
  9
$SKPOLY
 70
     0
  9
$TDCREATE
 40
0.000000000
  9
$TDUPDATE
 40
0.000000000
  9
$TDINDWG
 40
0.0000000000
  9
$TDUSRTIMER
 40
0.0000000000
  9
$USRTIMER
 70
     1
  9
$ANGBASE
 50
0.0
  9
$ANGDIR
 70
     0
  9
$PDMODE
 70
     0
  9
$PDSIZE
 40
0.0
  9
$PLINEWID
 40
0.0
  9
$COORDS
 70
     0
  9
$SPLFRAME
 70
     0
  9
$SPLINETYPE
 70
     6
  9
$SPLINESEGS
 70
     8
  9
$ATTDIA
 70
     0
  9
$ATTREQ
 70
     1
  9
$HANDLING
 70
     1
  9
$HANDSEED
  5
65E
  9
$SURFTAB1
 70
     6
  9
$SURFTAB2
 70
     6
  9
$SURFTYPE
 70
     6
  9
$SURFU
 70
     6
  9
$SURFV
 70
     6
  9
$UCSNAME
  2

  9
$UCSORG
 10
0.0
 20
0.0
 30
0.0
  9
$UCSXDIR
 10
1.0
 20
0.0
 30
0.0
  9
$UCSYDIR
 10
0.0
 20
1.0
 30
0.0
  9
$PUCSNAME
  2

  9
$PUCSORG
 10
0.0
 20
0.0
 30
0.0
  9
$PUCSXDIR
 10
1.0
 20
0.0
 30
0.0
  9
$PUCSYDIR
 10
0.0
 20
1.0
 30
0.0
  9
$USERI1
 70
     0
  9
$USERI2
 70
     0
  9
$USERI3
 70
     0
  9
$USERI4
 70
     0
  9
$USERI5
 70
     0
  9
$USERR1
 40
0.0
  9
$USERR2
 40
0.0
  9
$USERR3
 40
0.0
  9
$USERR4
 40
0.0
  9
$USERR5
 40
0.0
  9
$WORLDVIEW
 70
     1
  9
$SHADEDGE
 70
     3
  9
$SHADEDIF
 70
    70
  9
$TILEMODE
 70
     1
  9
$MAXACTVP
 70
    16
  9
$PINSBASE
 10
0.0
 20
0.0
 30
0.0
  9
$PLIMCHECK
 70
     0
  9
$PEXTMIN
 10
1.000000E+20
 20
1.000000E+20
 30
1.000000E+20
  9
$PEXTMAX
 10
-1.000000E+20
 20
-1.000000E+20
 30
-1.000000E+20
  9
$PLIMMIN
 10
-11.248647
 20
-136.026
  9
$PLIMMAX
 10
828.751353
 20
457.974
  9
$UNITMODE
 70
     0
  9
$VISRETAIN
 70
     0
  9
$PLINEGEN
 70
     1
  9
$PSLTSCALE
 70
     0
  9
$TREEDEPTH
 70
  3020
  9
$DWGCODEPAGE
  3
dos850
  0
ENDSEC
  0
SECTION
  2
TABLES
  0
TABLE
  2
VPORT
 70
     1
  0
VPORT
  2
*ACTIVE
 70
     0
 10
0.0
 20
0.0
 11
1.0
 21
1.0
 12
420.0
 22
297.0
 13
0.0
 23
0.0
 14
1.0
 24
1.0
 15
0.0
 25
0.0
 16
0.0
 26
0.0
 36
1.0
 17
-11.248647
 27
-136.026
 37
0.0
 40
594.0
 41
1.604229
 42
50.0
 43
0.0
 44
0.0
 50
0.0
 51
0.0
 71
     0
 72
   100
 73
     1
 74
     1
 75
     0
 76
     0
 77
     0
 78
     0
  0
ENDTAB
  0
TABLE
  2
LTYPE
 70
     2
  0
LTYPE
  2
CONTINUOUS
 70
    64
  3
Solid line
 72
    65
 73
     0
 40
0.0
  0
LTYPE
  2
DASHDOT
 70
    64
  3
__ . __ . __ . __ . __
 72
    65
 73
     4
 40
7.5
 49
5.0
 49
-1.25
 49
0.0
 49
-1.25
  0
ENDTAB
  0
TABLE
  2
LAYER
 70
    11
  0
LAYER
  2
0
 70
     0
 62
     7
  6
CONTINUOUS
  0
LAYER
  2
LC-INFO-1-2-MM-A3-0
 70
     1
 62
    -1
  6
CONTINUOUS
  0
LAYER
  2
LC-003-005-----0
 70
     0
 62
     2
  6
CONTINUOUS
  0
LAYER
  2
LC-007-003-MTH-0
 70
     0
 62
     2
  6
CONTINUOUS
  0
LAYER
  2
LC-008-003-MTG-0
 70
     0
 62
     2
  6
CONTINUOUS
  0
LAYER
  2
LC-006-003-----0
 70
     0
 62
     2
  6
CONTINUOUS
  0
LAYER
  2
LC-001-002-----0
 70
     0
 62
     1
  6
CONTINUOUS
  0
LAYER
  2
LC-005-000-----0
 70
     0
 62
     7
  6
CONTINUOUS
  0
LAYER
  2
LC-002-002-RND-0
 70
     0
 62
     1
  6
CONTINUOUS
  0
LAYER
  2
LC-004-004-----0
 70
     0
 62
     1
  6
CONTINUOUS
  0
LAYER
  2
LC-000
 70
     0
 62
     7
  6
CONTINUOUS
  0
ENDTAB
  0
TABLE
  2
STYLE
 70
     4
  0
STYLE
  2
STANDARD
 70
     0
 40
0.0
 41
1.0
 50
0.0
 71
     0
 42
0.0
  3
txt
  4

  0
STYLE
  2
LC-STANDARD
 70
    64
 40
0.0
 41
1.0
 50
0.0
 71
     0
 42
3.5
  3
MONOTXT
  4

  0
STYLE
  2
LC-TXTSTYLE-150-400-0-0-D2
 70
    64
 40
0.0
 41
1.0
 50
15.0
 71
     0
 42
3.5
  3
MONOTXT
  4

  0
STYLE
  2
LC-TXTSTYLE-150-400-0-0-D3
 70
    64
 40
0.0
 41
1.0
 50
15.0
 71
     0
 42
3.5
  3
LC-STANDARD
  4

  0
ENDTAB
  0
TABLE
  2
VIEW
 70
     0
  0
ENDTAB
  0
TABLE
  2
UCS
 70
     0
  0
ENDTAB
  0
TABLE
  2
APPID
 70
     1
  0
APPID
  2
ACAD
 70
     0
  0
ENDTAB
  0
TABLE
  2
DIMSTYLE
 70
     4
  0
DIMSTYLE
  2
STANDARD
 70
     0
  3

  4

  5

  6

  7

 40
1.0
 41
0.18
 42
0.0625
 43
0.38
 44
0.18
 45
0.0
 46
0.0
 47
0.0
 48
0.0
 71
     0
 72
     0
 73
     1
 74
     1
 75
     0
 76
     0
 77
     0
 78
     0
140
0.18
141
0.09
142
0.0
143
25.4
144
1.0
145
0.0
146
1.0
147
0.09
170
     0
171
     2
172
     0
173
     0
174
     0
175
     0
176
     0
177
     0
178
     0
  0
DIMSTYLE
  2
LC-STANDARD
 70
     0
  3

  4

  5

  6

  7

 40
1.0
 41
3.5
 42
0.0
 43
7.5
 44
1.8
 45
0.0
 46
0.0
 47
0.0
 48
0.0
 71
     0
 72
     0
 73
     0
 74
     0
 75
     0
 76
     0
 77
     1
 78
     8
140
3.5
141
0.0
142
0.0
143
25.4
144
1.0
145
0.0
146
0.71
147
1.5
170
     0
171
     2
172
     1
173
     0
174
     0
175
     0
176
     0
177
     0
178
     3
  0
DIMSTYLE
  2
LC-DIM-L-0090-01-02
 70
     0
  3

  4

  5

  6

  7

 40
2.0
 41
3.5
 42
0.0
 43
7.5
 44
1.8
 45
0.0
 46
0.0
 47
0.0
 48
0.0
 71
     0
 72
     0
 73
     0
 74
     0
 75
     0
 76
     0
 77
     1
 78
     8
140
9.0
141
0.0
142
0.0
143
25.4
144
1.0
145
0.0
146
0.71
147
1.5
170
     0
171
     2
172
     0
173
     0
174
     0
175
     0
176
     2
177
     2
178
     6
  0
DIMSTYLE
  2
LC-DIM-L-0090-02-02
 70
     0
  3

  4

  5

  6

  7

 40
2.0
 41
3.5
 42
0.0
 43
7.5
 44
1.8
 45
0.0
 46
0.0
 47
0.0
 48
0.0
 71
     0
 72
     0
 73
     0
 74
     0
 75
     0
 76
     0
 77
     1
 78
     8
140
9.0
141
0.0
142
0.0
143
25.4
144
1.0
145
0.0
146
0.71
147
1.5
170
     0
171
     2
172
     0
173
     0
174
     0
175
     0
176
     2
177
     2
178
     6
  0
ENDTAB
  0
ENDSEC
  0
SECTION
  2
BLOCKS
  0
BLOCK
  8
0
  5
24
  2
*X0
 70
    65
 10
16.441089
 20
253.074313
 30
0.0
  3
*X0
  0
LINE
  8
LC-003-005-----0
  6
CONTINUOUS
  5
26
 10
18.597705
 20
253.074313
 30
0.0
 11
18.690599
 21
253.167208
 31
0.0
  0
LINE
  8
LC-003-005-----0
  6
CONTINUOUS
  5
27
 10
18.314862
 20
253.074313
 30
0.0
 11
18.690599
 21
253.450051
 31
0.0
  0
LINE
  8
LC-003-005-----0
  6
CONTINUOUS
  5
28
 10
18.032019
 20
253.074313
 30
0.0
 11
18.690599
 21
253.732893
 31
0.0
  0
LINE
  8
LC-003-005-----0
  6
CONTINUOUS
  5
29
 10
17.749177
 20
253.074313
 30
0.0
 11
18.690599
 21
254.015736
 31
0.0
  0
LINE
  8
LC-003-005-----0
  6
CONTINUOUS
  5
2A
 10
17.466334
 20
253.074313
 30
0.0
 11
18.690599
 21
254.298579
 31
0.0
  0
LINE
  8
LC-003-005-----0
  6
CONTINUOUS
  5
2B
 10
17.183491
 20
253.074313
 30
0.0
 11
18.690599
 21
254.581421
 31
0.0
  0
LINE
  8
LC-003-005-----0
  6
CONTINUOUS
  5
2C
 10
16.900649
 20
253.074313
 30
0.0
 11
18.690599
 21
254.864264
 31
0.0
  0
LINE
  8
LC-003-005-----0
  6
CONTINUOUS
  5
2D
 10
16.617806
 20
253.074313
 30
0.0
 11
18.690599
 21
255.147107
 31
0.0
  0
LINE
  8
LC-003-005-----0
  6
CONTINUOUS
  5
2E
 10
16.441089
 20
253.180439
 30
0.0
 11
18.690599
 21
255.42995
 31
0.0
  0
LINE
  8
LC-003-005-----0
  6
CONTINUOUS
  5
2F
 10
16.441089
 20
253.463282
 30
0.0
 11
18.690599
 21
255.712792
 31
0.0
  0
LINE
  8
LC-003-005-----0
  6
CONTINUOUS
  5
30
 10
16.441089
 20
253.746124
 30
0.0
 11
18.690599
 21
255.995635
 31
0.0
  0
LINE
  8
LC-003-005-----0
  6
CONTINUOUS
  5
31
 10
16.441089
 20
254.028967
 30
0.0
 11
18.486435
 21
256.074313
 31
0.0
  0
LINE
  8
LC-003-005-----0
  6
CONTINUOUS
  5
32
 10
16.441089
 20
254.31181
 30
0.0
 11
18.203592
 21
256.074313
 31
0.0
  0
LINE
  8
LC-003-005-----0
  6
CONTINUOUS
  5
33
 10
16.441089
 20
254.594653
 30
0.0
 11
17.92075
 21
256.074313
 31
0.0
  0
LINE
  8
LC-003-005-----0
  6
CONTINUOUS
  5
34
 10
16.441089
 20
254.877495
 30
0.0
 11
17.637907
 21
256.074313
 31
0.0
  0
LINE
  8
LC-003-005-----0
  6
CONTINUOUS
  5
35
 10
16.441089
 20
255.160338
 30
0.0
 11
17.355064
 21
256.074313
 31
0.0
  0
LINE
  8
LC-003-005-----0
  6
CONTINUOUS
  5
36
 10
16.441089
 20
255.443181
 30
0.0
 11
17.072221
 21
256.074313
 31
0.0
  0
LINE
  8
LC-003-005-----0
  6
CONTINUOUS
  5
37
 10
16.441089
 20
255.726023
 30
0.0
 11
16.789379
 21
256.074313
 31
0.0
  0
LINE
  8
LC-003-005-----0
  6
CONTINUOUS
  5
38
 10
16.441089
 20
256.008866
 30
0.0
 11
16.506536
 21
256.074313
 31
0.0
  0
ENDBLK
  8
0
  5
39
  0
BLOCK
  8
0
  5
3B
  2
*X1
 70
    65
 10
23.690599
 20
253.074313
 30
0.0
  3
*X1
  0
LINE
  8
LC-003-005-----0
  6
CONTINUOUS
  5
3C
 10
28.4972
 20
253.074313
 30
0.0
 11
28.690599
 21
253.267713
 31
0.0
  0
LINE
  8
LC-003-005-----0
  6
CONTINUOUS
  5
3D
 10
28.214357
 20
253.074313
 30
0.0
 11
28.690599
 21
253.550556
 31
0.0
  0
LINE
  8
LC-003-005-----0
  6
CONTINUOUS
  5
3E
 10
27.931514
 20
253.074313
 30
0.0
 11
28.690599
 21
253.833398
 31
0.0
  0
LINE
  8
LC-003-005-----0
  6
CONTINUOUS
  5
3F
 10
27.648672
 20
253.074313
 30
0.0
 11
28.690599
 21
254.116241
 31
0.0
  0
LINE
  8
LC-003-005-----0
  6
CONTINUOUS
  5
40
 10
27.365829
 20
253.074313
 30
0.0
 11
28.690599
 21
254.399084
 31
0.0
  0
LINE
  8
LC-003-005-----0
  6
CONTINUOUS
  5
41
 10
27.082986
 20
253.074313
 30
0.0
 11
28.690599
 21
254.681926
 31
0.0
  0
LINE
  8
LC-003-005-----0
  6
CONTINUOUS
  5
42
 10
26.800144
 20
253.074313
 30
0.0
 11
28.690599
 21
254.964769
 31
0.0
  0
LINE
  8
LC-003-005-----0
  6
CONTINUOUS
  5
43
 10
26.517301
 20
253.074313
 30
0.0
 11
28.690599
 21
255.247612
 31
0.0
  0
LINE
  8
LC-003-005-----0
  6
CONTINUOUS
  5
44
 10
26.234458
 20
253.074313
 30
0.0
 11
28.690599
 21
255.530455
 31
0.0
  0
LINE
  8
LC-003-005-----0
  6
CONTINUOUS
  5
45
 10
25.951615
 20
253.074313
 30
0.0
 11
28.690599
 21
255.813297
 31
0.0
  0
LINE
  8
LC-003-005-----0
  6
CONTINUOUS
  5
46
 10
25.668773
 20
253.074313
 30
0.0
 11
28.668773
 21
256.074313
 31
0.0
  0
LINE
  8
LC-003-005-----0
  6
CONTINUOUS
  5
47
 10
25.38593
 20
253.074313
 30
0.0
 11
28.38593
 21
256.074313
 31
0.0
  0
LINE
  8
LC-003-005-----0
  6
CONTINUOUS
  5
48
 10
25.103087
 20
253.074313
 30
0.0
 11
28.103087
 21
256.074313
 31
0.0
  0
LINE
  8
LC-003-005-----0
  6
CONTINUOUS
  5
49
 10
24.820245
 20
253.074313
 30
0.0
 11
27.820245
 21
256.074313
 31
0.0
  0
LINE
  8
LC-003-005-----0
  6
CONTINUOUS
  5
4A
 10
24.537402
 20
253.074313
 30
0.0
 11
27.537402
 21
256.074313
 31
0.0
  0
LINE
  8
LC-003-005-----0
  6
CONTINUOUS
  5
4B
 10
24.254559
 20
253.074313
 30
0.0
 11
27.254559
 21
256.074313
 31
0.0
  0
LINE
  8
LC-003-005-----0
  6
CONTINUOUS
  5
4C
 10
23.971716
 20
253.074313
 30
0.0
 11
26.971716
 21
256.074313
 31
0.0
  0
LINE
  8
LC-003-005-----0
  6
CONTINUOUS
  5
4D
 10
23.690599
 20
253.076039
 30
0.0
 11
26.688874
 21
256.074313
 31
0.0
  0
LINE
  8
LC-003-005-----0
  6
CONTINUOUS
  5
4E
 10
23.690599
 20
253.358882
 30
0.0
 11
26.406031
 21
256.074313
 31
0.0
  0
LINE
  8
LC-003-005-----0
  6
CONTINUOUS
  5
4F
 10
23.690599
 20
253.641724
 30
0.0
 11
26.123188
 21
256.074313
 31
0.0
  0
LINE
  8
LC-003-005-----0
  6
CONTINUOUS
  5
50
 10
23.690599
 20
253.924567
 30
0.0
 11
25.840346
 21
256.074313
 31
0.0
  0
LINE
  8
LC-003-005-----0
  6
CONTINUOUS
  5
51
 10
23.690599
 20
254.20741
 30
0.0
 11
25.557503
 21
256.074313
 31
0.0
  0
LINE
  8
LC-003-005-----0
  6
CONTINUOUS
  5
52
 10
23.690599
 20
254.490253
 30
0.0
 11
25.27466
 21
256.074313
 31
0.0
  0
LINE
  8
LC-003-005-----0
  6
CONTINUOUS
  5
53
 10
23.690599
 20
254.773095
 30
0.0
 11
24.991817
 21
256.074313
 31
0.0
  0
LINE
  8
LC-003-005-----0
  6
CONTINUOUS
  5
54
 10
23.690599
 20
255.055938
 30
0.0
 11
24.708975
 21
256.074313
 31
0.0
  0
LINE
  8
LC-003-005-----0
  6
CONTINUOUS
  5
55
 10
23.690599
 20
255.338781
 30
0.0
 11
24.426132
 21
256.074313
 31
0.0
  0
LINE
  8
LC-003-005-----0
  6
CONTINUOUS
  5
56
 10
23.690599
 20
255.621623
 30
0.0
 11
24.143289
 21
256.074313
 31
0.0
  0
LINE
  8
LC-003-005-----0
  6
CONTINUOUS
  5
57
 10
23.690599
 20
255.904466
 30
0.0
 11
23.860447
 21
256.074313
 31
0.0
  0
ENDBLK
  8
0
  5
58
  0
BLOCK
  8
0
  5
5A
  2
*X2
 70
    65
 10
33.690599
 20
253.074313
 30
0.0
  3
*X2
  0
LINE
  8
LC-003-005-----0
  6
CONTINUOUS
  5
5B
 10
38.679537
 20
253.074313
 30
0.0
 11
38.690599
 21
253.085375
 31
0.0
  0
LINE
  8
LC-003-005-----0
  6
CONTINUOUS
  5
5C
 10
38.396695
 20
253.074313
 30
0.0
 11
38.690599
 21
253.368218
 31
0.0
  0
LINE
  8
LC-003-005-----0
  6
CONTINUOUS
  5
5D
 10
38.113852
 20
253.074313
 30
0.0
 11
38.690599
 21
253.651061
 31
0.0
  0
LINE
  8
LC-003-005-----0
  6
CONTINUOUS
  5
5E
 10
37.831009
 20
253.074313
 30
0.0
 11
38.690599
 21
253.933903
 31
0.0
  0
LINE
  8
LC-003-005-----0
  6
CONTINUOUS
  5
5F
 10
37.548167
 20
253.074313
 30
0.0
 11
38.690599
 21
254.216746
 31
0.0
  0
LINE
  8
LC-003-005-----0
  6
CONTINUOUS
  5
60
 10
37.265324
 20
253.074313
 30
0.0
 11
38.690599
 21
254.499589
 31
0.0
  0
LINE
  8
LC-003-005-----0
  6
CONTINUOUS
  5
61
 10
36.982481
 20
253.074313
 30
0.0
 11
38.690599
 21
254.782432
 31
0.0
  0
LINE
  8
LC-003-005-----0
  6
CONTINUOUS
  5
62
 10
36.699638
 20
253.074313
 30
0.0
 11
38.690599
 21
255.065274
 31
0.0
  0
LINE
  8
LC-003-005-----0
  6
CONTINUOUS
  5
63
 10
36.416796
 20
253.074313
 30
0.0
 11
38.690599
 21
255.348117
 31
0.0
  0
LINE
  8
LC-003-005-----0
  6
CONTINUOUS
  5
64
 10
36.133953
 20
253.074313
 30
0.0
 11
38.690599
 21
255.63096
 31
0.0
  0
LINE
  8
LC-003-005-----0
  6
CONTINUOUS
  5
65
 10
35.85111
 20
253.074313
 30
0.0
 11
38.690599
 21
255.913802
 31
0.0
  0
LINE
  8
LC-003-005-----0
  6
CONTINUOUS
  5
66
 10
35.568268
 20
253.074313
 30
0.0
 11
38.568268
 21
256.074313
 31
0.0
  0
LINE
  8
LC-003-005-----0
  6
CONTINUOUS
  5
67
 10
35.285425
 20
253.074313
 30
0.0
 11
38.285425
 21
256.074313
 31
0.0
  0
LINE
  8
LC-003-005-----0
  6
CONTINUOUS
  5
68
 10
35.002582
 20
253.074313
 30
0.0
 11
38.002582
 21
256.074313
 31
0.0
  0
LINE
  8
LC-003-005-----0
  6
CONTINUOUS
  5
69
 10
34.719739
 20
253.074313
 30
0.0
 11
37.719739
 21
256.074313
 31
0.0
  0
LINE
  8
LC-003-005-----0
  6
CONTINUOUS
  5
6A
 10
34.436897
 20
253.074313
 30
0.0
 11
37.436897
 21
256.074313
 31
0.0
  0
LINE
  8
LC-003-005-----0
  6
CONTINUOUS
  5
6B
 10
34.154054
 20
253.074313
 30
0.0
 11
37.154054
 21
256.074313
 31
0.0
  0
LINE
  8
LC-003-005-----0
  6
CONTINUOUS
  5
6C
 10
33.871211
 20
253.074313
 30
0.0
 11
36.871211
 21
256.074313
 31
0.0
  0
LINE
  8
LC-003-005-----0
  6
CONTINUOUS
  5
6D
 10
33.690599
 20
253.176544
 30
0.0
 11
36.588369
 21
256.074313
 31
0.0
  0
LINE
  8
LC-003-005-----0
  6
CONTINUOUS
  5
6E
 10
33.690599
 20
253.459387
 30
0.0
 11
36.305526
 21
256.074313
 31
0.0
  0
LINE
  8
LC-003-005-----0
  6
CONTINUOUS
  5
6F
 10
33.690599
 20
253.74223
 30
0.0
 11
36.022683
 21
256.074313
 31
0.0
  0
LINE
  8
LC-003-005-----0
  6
CONTINUOUS
  5
70
 10
33.690599
 20
254.025072
 30
0.0
 11
35.73984
 21
256.074313
 31
0.0
  0
LINE
  8
LC-003-005-----0
  6
CONTINUOUS
  5
71
 10
33.690599
 20
254.307915
 30
0.0
 11
35.456998
 21
256.074313
 31
0.0
  0
LINE
  8
LC-003-005-----0
  6
CONTINUOUS
  5
72
 10
33.690599
 20
254.590758
 30
0.0
 11
35.174155
 21
256.074313
 31
0.0
  0
LINE
  8
LC-003-005-----0
  6
CONTINUOUS
  5
73
 10
33.690599
 20
254.8736
 30
0.0
 11
34.891312
 21
256.074313
 31
0.0
  0
LINE
  8
LC-003-005-----0
  6
CONTINUOUS
  5
74
 10
33.690599
 20
255.156443
 30
0.0
 11
34.60847
 21
256.074313
 31
0.0
  0
LINE
  8
LC-003-005-----0
  6
CONTINUOUS
  5
75
 10
33.690599
 20
255.439286
 30
0.0
 11
34.325627
 21
256.074313
 31
0.0
  0
LINE
  8
LC-003-005-----0
  6
CONTINUOUS
  5
76
 10
33.690599
 20
255.722128
 30
0.0
 11
34.042784
 21
256.074313
 31
0.0
  0
LINE
  8
LC-003-005-----0
  6
CONTINUOUS
  5
77
 10
33.690599
 20
256.004971
 30
0.0
 11
33.759941
 21
256.074313
 31
0.0
  0
ENDBLK
  8
0
  5
78
  0
BLOCK
  8
0
  5
7A
  2
*X3
 70
    65
 10
43.690599
 20
253.074313
 30
0.0
  3
*X3
  0
LINE
  8
LC-003-005-----0
  6
CONTINUOUS
  5
7B
 10
48.579032
 20
253.074313
 30
0.0
 11
48.690599
 21
253.18588
 31
0.0
  0
LINE
  8
LC-003-005-----0
  6
CONTINUOUS
  5
7C
 10
48.29619
 20
253.074313
 30
0.0
 11
48.690599
 21
253.468723
 31
0.0
  0
LINE
  8
LC-003-005-----0
  6
CONTINUOUS
  5
7D
 10
48.013347
 20
253.074313
 30
0.0
 11
48.690599
 21
253.751566
 31
0.0
  0
LINE
  8
LC-003-005-----0
  6
CONTINUOUS
  5
7E
 10
47.730504
 20
253.074313
 30
0.0
 11
48.690599
 21
254.034408
 31
0.0
  0
LINE
  8
LC-003-005-----0
  6
CONTINUOUS
  5
7F
 10
47.447662
 20
253.074313
 30
0.0
 11
48.690599
 21
254.317251
 31
0.0
  0
LINE
  8
LC-003-005-----0
  6
CONTINUOUS
  5
80
 10
47.164819
 20
253.074313
 30
0.0
 11
48.690599
 21
254.600094
 31
0.0
  0
LINE
  8
LC-003-005-----0
  6
CONTINUOUS
  5
81
 10
46.881976
 20
253.074313
 30
0.0
 11
48.690599
 21
254.882937
 31
0.0
  0
LINE
  8
LC-003-005-----0
  6
CONTINUOUS
  5
82
 10
46.599133
 20
253.074313
 30
0.0
 11
48.690599
 21
255.165779
 31
0.0
  0
LINE
  8
LC-003-005-----0
  6
CONTINUOUS
  5
83
 10
46.316291
 20
253.074313
 30
0.0
 11
48.690599
 21
255.448622
 31
0.0
  0
LINE
  8
LC-003-005-----0
  6
CONTINUOUS
  5
84
 10
46.033448
 20
253.074313
 30
0.0
 11
48.690599
 21
255.731465
 31
0.0
  0
LINE
  8
LC-003-005-----0
  6
CONTINUOUS
  5
85
 10
45.750605
 20
253.074313
 30
0.0
 11
48.690599
 21
256.014307
 31
0.0
  0
LINE
  8
LC-003-005-----0
  6
CONTINUOUS
  5
86
 10
45.467763
 20
253.074313
 30
0.0
 11
48.467763
 21
256.074313
 31
0.0
  0
LINE
  8
LC-003-005-----0
  6
CONTINUOUS
  5
87
 10
45.18492
 20
253.074313
 30
0.0
 11
48.18492
 21
256.074313
 31
0.0
  0
LINE
  8
LC-003-005-----0
  6
CONTINUOUS
  5
88
 10
44.902077
 20
253.074313
 30
0.0
 11
47.902077
 21
256.074313
 31
0.0
  0
LINE
  8
LC-003-005-----0
  6
CONTINUOUS
  5
89
 10
44.619234
 20
253.074313
 30
0.0
 11
47.619234
 21
256.074313
 31
0.0
  0
LINE
  8
LC-003-005-----0
  6
CONTINUOUS
  5
8A
 10
44.336392
 20
253.074313
 30
0.0
 11
47.336392
 21
256.074313
 31
0.0
  0
LINE
  8
LC-003-005-----0
  6
CONTINUOUS
  5
8B
 10
44.053549
 20
253.074313
 30
0.0
 11
47.053549
 21
256.074313
 31
0.0
  0
LINE
  8
LC-003-005-----0
  6
CONTINUOUS
  5
8C
 10
43.770706
 20
253.074313
 30
0.0
 11
46.770706
 21
256.074313
 31
0.0
  0
LINE
  8
LC-003-005-----0
  6
CONTINUOUS
  5
8D
 10
43.690599
 20
253.277049
 30
0.0
 11
46.487864
 21
256.074313
 31
0.0
  0
LINE
  8
LC-003-005-----0
  6
CONTINUOUS
  5
8E
 10
43.690599
 20
253.559892
 30
0.0
 11
46.205021
 21
256.074313
 31
0.0
  0
LINE
  8
LC-003-005-----0
  6
CONTINUOUS
  5
8F
 10
43.690599
 20
253.842735
 30
0.0
 11
45.922178
 21
256.074313
 31
0.0
  0
LINE
  8
LC-003-005-----0
  6
CONTINUOUS
  5
90
 10
43.690599
 20
254.125577
 30
0.0
 11
45.639335
 21
256.074313
 31
0.0
  0
LINE
  8
LC-003-005-----0
  6
CONTINUOUS
  5
91
 10
43.690599
 20
254.40842
 30
0.0
 11
45.356493
 21
256.074313
 31
0.0
  0
LINE
  8
LC-003-005-----0
  6
CONTINUOUS
  5
92
 10
43.690599
 20
254.691263
 30
0.0
 11
45.07365
 21
256.074313
 31
0.0
  0
LINE
  8
LC-003-005-----0
  6
CONTINUOUS
  5
93
 10
43.690599
 20
254.974105
 30
0.0
 11
44.790807
 21
256.074313
 31
0.0
  0
LINE
  8
LC-003-005-----0
  6
CONTINUOUS
  5
94
 10
43.690599
 20
255.256948
 30
0.0
 11
44.507965
 21
256.074313
 31
0.0
  0
LINE
  8
LC-003-005-----0
  6
CONTINUOUS
  5
95
 10
43.690599
 20
255.539791
 30
0.0
 11
44.225122
 21
256.074313
 31
0.0
  0
LINE
  8
LC-003-005-----0
  6
CONTINUOUS
  5
96
 10
43.690599
 20
255.822634
 30
0.0
 11
43.942279
 21
256.074313
 31
0.0
  0
ENDBLK
  8
0
  5
97
  0
BLOCK
  8
0
  5
99
  2
*X4
 70
    65
 10
53.690599
 20
253.074313
 30
0.0
  3
*X4
  0
LINE
  8
LC-003-005-----0
  6
CONTINUOUS
  5
9A
 10
58.478527
 20
253.074313
 30
0.0
 11
58.690599
 21
253.286385
 31
0.0
  0
LINE
  8
LC-003-005-----0
  6
CONTINUOUS
  5
9B
 10
58.195685
 20
253.074313
 30
0.0
 11
58.690599
 21
253.569228
 31
0.0
  0
LINE
  8
LC-003-005-----0
  6
CONTINUOUS
  5
9C
 10
57.912842
 20
253.074313
 30
0.0
 11
58.690599
 21
253.852071
 31
0.0
  0
LINE
  8
LC-003-005-----0
  6
CONTINUOUS
  5
9D
 10
57.629999
 20
253.074313
 30
0.0
 11
58.690599
 21
254.134914
 31
0.0
  0
LINE
  8
LC-003-005-----0
  6
CONTINUOUS
  5
9E
 10
57.347156
 20
253.074313
 30
0.0
 11
58.690599
 21
254.417756
 31
0.0
  0
LINE
  8
LC-003-005-----0
  6
CONTINUOUS
  5
9F
 10
57.064314
 20
253.074313
 30
0.0
 11
58.690599
 21
254.700599
 31
0.0
  0
LINE
  8
LC-003-005-----0
  6
CONTINUOUS
  5
A0
 10
56.781471
 20
253.074313
 30
0.0
 11
58.690599
 21
254.983442
 31
0.0
  0
LINE
  8
LC-003-005-----0
  6
CONTINUOUS
  5
A1
 10
56.498628
 20
253.074313
 30
0.0
 11
58.690599
 21
255.266284
 31
0.0
  0
LINE
  8
LC-003-005-----0
  6
CONTINUOUS
  5
A2
 10
56.215786
 20
253.074313
 30
0.0
 11
58.690599
 21
255.549127
 31
0.0
  0
LINE
  8
LC-003-005-----0
  6
CONTINUOUS
  5
A3
 10
55.932943
 20
253.074313
 30
0.0
 11
58.690599
 21
255.83197
 31
0.0
  0
LINE
  8
LC-003-005-----0
  6
CONTINUOUS
  5
A4
 10
55.6501
 20
253.074313
 30
0.0
 11
58.6501
 21
256.074313
 31
0.0
  0
LINE
  8
LC-003-005-----0
  6
CONTINUOUS
  5
A5
 10
55.367257
 20
253.074313
 30
0.0
 11
58.367257
 21
256.074313
 31
0.0
  0
LINE
  8
LC-003-005-----0
  6
CONTINUOUS
  5
A6
 10
55.084415
 20
253.074313
 30
0.0
 11
58.084415
 21
256.074313
 31
0.0
  0
LINE
  8
LC-003-005-----0
  6
CONTINUOUS
  5
A7
 10
54.801572
 20
253.074313
 30
0.0
 11
57.801572
 21
256.074313
 31
0.0
  0
LINE
  8
LC-003-005-----0
  6
CONTINUOUS
  5
A8
 10
54.518729
 20
253.074313
 30
0.0
 11
57.518729
 21
256.074313
 31
0.0
  0
LINE
  8
LC-003-005-----0
  6
CONTINUOUS
  5
A9
 10
54.235887
 20
253.074313
 30
0.0
 11
57.235887
 21
256.074313
 31
0.0
  0
LINE
  8
LC-003-005-----0
  6
CONTINUOUS
  5
AA
 10
53.953044
 20
253.074313
 30
0.0
 11
56.953044
 21
256.074313
 31
0.0
  0
LINE
  8
LC-003-005-----0
  6
CONTINUOUS
  5
AB
 10
53.690599
 20
253.094712
 30
0.0
 11
56.670201
 21
256.074313
 31
0.0
  0
LINE
  8
LC-003-005-----0
  6
CONTINUOUS
  5
AC
 10
53.690599
 20
253.377554
 30
0.0
 11
56.387358
 21
256.074313
 31
0.0
  0
LINE
  8
LC-003-005-----0
  6
CONTINUOUS
  5
AD
 10
53.690599
 20
253.660397
 30
0.0
 11
56.104516
 21
256.074313
 31
0.0
  0
LINE
  8
LC-003-005-----0
  6
CONTINUOUS
  5
AE
 10
53.690599
 20
253.94324
 30
0.0
 11
55.821673
 21
256.074313
 31
0.0
  0
LINE
  8
LC-003-005-----0
  6
CONTINUOUS
  5
AF
 10
53.690599
 20
254.226082
 30
0.0
 11
55.53883
 21
256.074313
 31
0.0
  0
LINE
  8
LC-003-005-----0
  6
CONTINUOUS
  5
B0
 10
53.690599
 20
254.508925
 30
0.0
 11
55.255988
 21
256.074313
 31
0.0
  0
LINE
  8
LC-003-005-----0
  6
CONTINUOUS
  5
B1
 10
53.690599
 20
254.791768
 30
0.0
 11
54.973145
 21
256.074313
 31
0.0
  0
LINE
  8
LC-003-005-----0
  6
CONTINUOUS
  5
B2
 10
53.690599
 20
255.07461
 30
0.0
 11
54.690302
 21
256.074313
 31
0.0
  0
LINE
  8
LC-003-005-----0
  6
CONTINUOUS
  5
B3
 10
53.690599
 20
255.357453
 30
0.0
 11
54.407459
 21
256.074313
 31
0.0
  0
LINE
  8
LC-003-005-----0
  6
CONTINUOUS
  5
B4
 10
53.690599
 20
255.640296
 30
0.0
 11
54.124617
 21
256.074313
 31
0.0
  0
LINE
  8
LC-003-005-----0
  6
CONTINUOUS
  5
B5
 10
53.690599
 20
255.923139
 30
0.0
 11
53.841774
 21
256.074313
 31
0.0
  0
ENDBLK
  8
0
  5
B6
  0
BLOCK
  8
0
  5
B8
  2
*X5
 70
    65
 10
63.690599
 20
253.074313
 30
0.0
  3
*X5
  0
LINE
  8
LC-003-005-----0
  6
CONTINUOUS
  5
B9
 10
68.660865
 20
253.074313
 30
0.0
 11
68.690599
 21
253.104048
 31
0.0
  0
LINE
  8
LC-003-005-----0
  6
CONTINUOUS
  5
BA
 10
68.378022
 20
253.074313
 30
0.0
 11
68.690599
 21
253.38689
 31
0.0
  0
LINE
  8
LC-003-005-----0
  6
CONTINUOUS
  5
BB
 10
68.09518
 20
253.074313
 30
0.0
 11
68.690599
 21
253.669733
 31
0.0
  0
LINE
  8
LC-003-005-----0
  6
CONTINUOUS
  5
BC
 10
67.812337
 20
253.074313
 30
0.0
 11
68.690599
 21
253.952576
 31
0.0
  0
LINE
  8
LC-003-005-----0
  6
CONTINUOUS
  5
BD
 10
67.529494
 20
253.074313
 30
0.0
 11
68.690599
 21
254.235419
 31
0.0
  0
LINE
  8
LC-003-005-----0
  6
CONTINUOUS
  5
BE
 10
67.246651
 20
253.074313
 30
0.0
 11
68.690599
 21
254.518261
 31
0.0
  0
LINE
  8
LC-003-005-----0
  6
CONTINUOUS
  5
BF
 10
66.963809
 20
253.074313
 30
0.0
 11
68.690599
 21
254.801104
 31
0.0
  0
LINE
  8
LC-003-005-----0
  6
CONTINUOUS
  5
C0
 10
66.680966
 20
253.074313
 30
0.0
 11
68.690599
 21
255.083947
 31
0.0
  0
LINE
  8
LC-003-005-----0
  6
CONTINUOUS
  5
C1
 10
66.398123
 20
253.074313
 30
0.0
 11
68.690599
 21
255.366789
 31
0.0
  0
LINE
  8
LC-003-005-----0
  6
CONTINUOUS
  5
C2
 10
66.115281
 20
253.074313
 30
0.0
 11
68.690599
 21
255.649632
 31
0.0
  0
LINE
  8
LC-003-005-----0
  6
CONTINUOUS
  5
C3
 10
65.832438
 20
253.074313
 30
0.0
 11
68.690599
 21
255.932475
 31
0.0
  0
LINE
  8
LC-003-005-----0
  6
CONTINUOUS
  5
C4
 10
65.549595
 20
253.074313
 30
0.0
 11
68.549595
 21
256.074313
 31
0.0
  0
LINE
  8
LC-003-005-----0
  6
CONTINUOUS
  5
C5
 10
65.266752
 20
253.074313
 30
0.0
 11
68.266752
 21
256.074313
 31
0.0
  0
LINE
  8
LC-003-005-----0
  6
CONTINUOUS
  5
C6
 10
64.98391
 20
253.074313
 30
0.0
 11
67.98391
 21
256.074313
 31
0.0
  0
LINE
  8
LC-003-005-----0
  6
CONTINUOUS
  5
C7
 10
64.701067
 20
253.074313
 30
0.0
 11
67.701067
 21
256.074313
 31
0.0
  0
LINE
  8
LC-003-005-----0
  6
CONTINUOUS
  5
C8
 10
64.418224
 20
253.074313
 30
0.0
 11
67.418224
 21
256.074313
 31
0.0
  0
LINE
  8
LC-003-005-----0
  6
CONTINUOUS
  5
C9
 10
64.135382
 20
253.074313
 30
0.0
 11
67.135382
 21
256.074313
 31
0.0
  0
LINE
  8
LC-003-005-----0
  6
CONTINUOUS
  5
CA
 10
63.852539
 20
253.074313
 30
0.0
 11
66.852539
 21
256.074313
 31
0.0
  0
LINE
  8
LC-003-005-----0
  6
CONTINUOUS
  5
CB
 10
63.690599
 20
253.195217
 30
0.0
 11
66.569696
 21
256.074313
 31
0.0
  0
LINE
  8
LC-003-005-----0
  6
CONTINUOUS
  5
CC
 10
63.690599
 20
253.478059
 30
0.0
 11
66.286853
 21
256.074313
 31
0.0
  0
LINE
  8
LC-003-005-----0
  6
CONTINUOUS
  5
CD
 10
63.690599
 20
253.760902
 30
0.0
 11
66.004011
 21
256.074313
 31
0.0
  0
LINE
  8
LC-003-005-----0
  6
CONTINUOUS
  5
CE
 10
63.690599
 20
254.043745
 30
0.0
 11
65.721168
 21
256.074313
 31
0.0
  0
LINE
  8
LC-003-005-----0
  6
CONTINUOUS
  5
CF
 10
63.690599
 20
254.326587
 30
0.0
 11
65.438325
 21
256.074313
 31
0.0
  0
LINE
  8
LC-003-005-----0
  6
CONTINUOUS
  5
D0
 10
63.690599
 20
254.60943
 30
0.0
 11
65.155483
 21
256.074313
 31
0.0
  0
LINE
  8
LC-003-005-----0
  6
CONTINUOUS
  5
D1
 10
63.690599
 20
254.892273
 30
0.0
 11
64.87264
 21
256.074313
 31
0.0
  0
LINE
  8
LC-003-005-----0
  6
CONTINUOUS
  5
D2
 10
63.690599
 20
255.175116
 30
0.0
 11
64.589797
 21
256.074313
 31
0.0
  0
LINE
  8
LC-003-005-----0
  6
CONTINUOUS
  5
D3
 10
63.690599
 20
255.457958
 30
0.0
 11
64.306954
 21
256.074313
 31
0.0
  0
LINE
  8
LC-003-005-----0
  6
CONTINUOUS
  5
D4
 10
63.690599
 20
255.740801
 30
0.0
 11
64.024112
 21
256.074313
 31
0.0
  0
LINE
  8
LC-003-005-----0
  6
CONTINUOUS
  5
D5
 10
63.690599
 20
256.023644
 30
0.0
 11
63.741269
 21
256.074313
 31
0.0
  0
ENDBLK
  8
0
  5
D6
  0
BLOCK
  8
0
  5
D8
  2
*X6
 70
    65
 10
73.690599
 20
253.074313
 30
0.0
  3
*X6
  0
LINE
  8
LC-003-005-----0
  6
CONTINUOUS
  5
D9
 10
78.56036
 20
253.074313
 30
0.0
 11
78.690599
 21
253.204553
 31
0.0
  0
LINE
  8
LC-003-005-----0
  6
CONTINUOUS
  5
DA
 10
78.277517
 20
253.074313
 30
0.0
 11
78.690599
 21
253.487396
 31
0.0
  0
LINE
  8
LC-003-005-----0
  6
CONTINUOUS
  5
DB
 10
77.994674
 20
253.074313
 30
0.0
 11
78.690599
 21
253.770238
 31
0.0
  0
LINE
  8
LC-003-005-----0
  6
CONTINUOUS
  5
DC
 10
77.711832
 20
253.074313
 30
0.0
 11
78.690599
 21
254.053081
 31
0.0
  0
LINE
  8
LC-003-005-----0
  6
CONTINUOUS
  5
DD
 10
77.428989
 20
253.074313
 30
0.0
 11
78.690599
 21
254.335924
 31
0.0
  0
LINE
  8
LC-003-005-----0
  6
CONTINUOUS
  5
DE
 10
77.146146
 20
253.074313
 30
0.0
 11
78.690599
 21
254.618766
 31
0.0
  0
LINE
  8
LC-003-005-----0
  6
CONTINUOUS
  5
DF
 10
76.863304
 20
253.074313
 30
0.0
 11
78.690599
 21
254.901609
 31
0.0
  0
LINE
  8
LC-003-005-----0
  6
CONTINUOUS
  5
E0
 10
76.580461
 20
253.074313
 30
0.0
 11
78.690599
 21
255.184452
 31
0.0
  0
LINE
  8
LC-003-005-----0
  6
CONTINUOUS
  5
E1
 10
76.297618
 20
253.074313
 30
0.0
 11
78.690599
 21
255.467295
 31
0.0
  0
LINE
  8
LC-003-005-----0
  6
CONTINUOUS
  5
E2
 10
76.014775
 20
253.074313
 30
0.0
 11
78.690599
 21
255.750137
 31
0.0
  0
LINE
  8
LC-003-005-----0
  6
CONTINUOUS
  5
E3
 10
75.731933
 20
253.074313
 30
0.0
 11
78.690599
 21
256.03298
 31
0.0
  0
LINE
  8
LC-003-005-----0
  6
CONTINUOUS
  5
E4
 10
75.44909
 20
253.074313
 30
0.0
 11
78.44909
 21
256.074313
 31
0.0
  0
LINE
  8
LC-003-005-----0
  6
CONTINUOUS
  5
E5
 10
75.166247
 20
253.074313
 30
0.0
 11
78.166247
 21
256.074313
 31
0.0
  0
LINE
  8
LC-003-005-----0
  6
CONTINUOUS
  5
E6
 10
74.883405
 20
253.074313
 30
0.0
 11
77.883405
 21
256.074313
 31
0.0
  0
LINE
  8
LC-003-005-----0
  6
CONTINUOUS
  5
E7
 10
74.600562
 20
253.074313
 30
0.0
 11
77.600562
 21
256.074313
 31
0.0
  0
LINE
  8
LC-003-005-----0
  6
CONTINUOUS
  5
E8
 10
74.317719
 20
253.074313
 30
0.0
 11
77.317719
 21
256.074313
 31
0.0
  0
LINE
  8
LC-003-005-----0
  6
CONTINUOUS
  5
E9
 10
74.034876
 20
253.074313
 30
0.0
 11
77.034876
 21
256.074313
 31
0.0
  0
LINE
  8
LC-003-005-----0
  6
CONTINUOUS
  5
EA
 10
73.752034
 20
253.074313
 30
0.0
 11
76.752034
 21
256.074313
 31
0.0
  0
LINE
  8
LC-003-005-----0
  6
CONTINUOUS
  5
EB
 10
73.690599
 20
253.295722
 30
0.0
 11
76.469191
 21
256.074313
 31
0.0
  0
LINE
  8
LC-003-005-----0
  6
CONTINUOUS
  5
EC
 10
73.690599
 20
253.578564
 30
0.0
 11
76.186348
 21
256.074313
 31
0.0
  0
LINE
  8
LC-003-005-----0
  6
CONTINUOUS
  5
ED
 10
73.690599
 20
253.861407
 30
0.0
 11
75.903506
 21
256.074313
 31
0.0
  0
LINE
  8
LC-003-005-----0
  6
CONTINUOUS
  5
EE
 10
73.690599
 20
254.14425
 30
0.0
 11
75.620663
 21
256.074313
 31
0.0
  0
LINE
  8
LC-003-005-----0
  6
CONTINUOUS
  5
EF
 10
73.690599
 20
254.427092
 30
0.0
 11
75.33782
 21
256.074313
 31
0.0
  0
LINE
  8
LC-003-005-----0
  6
CONTINUOUS
  5
F0
 10
73.690599
 20
254.709935
 30
0.0
 11
75.054978
 21
256.074313
 31
0.0
  0
LINE
  8
LC-003-005-----0
  6
CONTINUOUS
  5
F1
 10
73.690599
 20
254.992778
 30
0.0
 11
74.772135
 21
256.074313
 31
0.0
  0
LINE
  8
LC-003-005-----0
  6
CONTINUOUS
  5
F2
 10
73.690599
 20
255.275621
 30
0.0
 11
74.489292
 21
256.074313
 31
0.0
  0
LINE
  8
LC-003-005-----0
  6
CONTINUOUS
  5
F3
 10
73.690599
 20
255.558463
 30
0.0
 11
74.206449
 21
256.074313
 31
0.0
  0
LINE
  8
LC-003-005-----0
  6
CONTINUOUS
  5
F4
 10
73.690599
 20
255.841306
 30
0.0
 11
73.923607
 21
256.074313
 31
0.0
  0
ENDBLK
  8
0
  5
F5
  0
BLOCK
  8
0
  5
F7
  2
*X7
 70
    65
 10
83.690599
 20
253.074313
 30
0.0
  3
*X7
  0
LINE
  8
LC-003-005-----0
  6
CONTINUOUS
  5
F8
 10
88.459855
 20
253.074313
 30
0.0
 11
88.690599
 21
253.305058
 31
0.0
  0
LINE
  8
LC-003-005-----0
  6
CONTINUOUS
  5
F9
 10
88.177012
 20
253.074313
 30
0.0
 11
88.690599
 21
253.587901
 31
0.0
  0
LINE
  8
LC-003-005-----0
  6
CONTINUOUS
  5
FA
 10
87.894169
 20
253.074313
 30
0.0
 11
88.690599
 21
253.870743
 31
0.0
  0
LINE
  8
LC-003-005-----0
  6
CONTINUOUS
  5
FB
 10
87.611327
 20
253.074313
 30
0.0
 11
88.690599
 21
254.153586
 31
0.0
  0
LINE
  8
LC-003-005-----0
  6
CONTINUOUS
  5
FC
 10
87.328484
 20
253.074313
 30
0.0
 11
88.690599
 21
254.436429
 31
0.0
  0
LINE
  8
LC-003-005-----0
  6
CONTINUOUS
  5
FD
 10
87.045641
 20
253.074313
 30
0.0
 11
88.690599
 21
254.719271
 31
0.0
  0
LINE
  8
LC-003-005-----0
  6
CONTINUOUS
  5
FE
 10
86.762799
 20
253.074313
 30
0.0
 11
88.690599
 21
255.002114
 31
0.0
  0
LINE
  8
LC-003-005-----0
  6
CONTINUOUS
  5
FF
 10
86.479956
 20
253.074313
 30
0.0
 11
88.690599
 21
255.284957
 31
0.0
  0
LINE
  8
LC-003-005-----0
  6
CONTINUOUS
  5
100
 10
86.197113
 20
253.074313
 30
0.0
 11
88.690599
 21
255.5678
 31
0.0
  0
LINE
  8
LC-003-005-----0
  6
CONTINUOUS
  5
101
 10
85.91427
 20
253.074313
 30
0.0
 11
88.690599
 21
255.850642
 31
0.0
  0
LINE
  8
LC-003-005-----0
  6
CONTINUOUS
  5
102
 10
85.631428
 20
253.074313
 30
0.0
 11
88.631428
 21
256.074313
 31
0.0
  0
LINE
  8
LC-003-005-----0
  6
CONTINUOUS
  5
103
 10
85.348585
 20
253.074313
 30
0.0
 11
88.348585
 21
256.074313
 31
0.0
  0
LINE
  8
LC-003-005-----0
  6
CONTINUOUS
  5
104
 10
85.065742
 20
253.074313
 30
0.0
 11
88.065742
 21
256.074313
 31
0.0
  0
LINE
  8
LC-003-005-----0
  6
CONTINUOUS
  5
105
 10
84.7829
 20
253.074313
 30
0.0
 11
87.7829
 21
256.074313
 31
0.0
  0
LINE
  8
LC-003-005-----0
  6
CONTINUOUS
  5
106
 10
84.500057
 20
253.074313
 30
0.0
 11
87.500057
 21
256.074313
 31
0.0
  0
LINE
  8
LC-003-005-----0
  6
CONTINUOUS
  5
107
 10
84.217214
 20
253.074313
 30
0.0
 11
87.217214
 21
256.074313
 31
0.0
  0
LINE
  8
LC-003-005-----0
  6
CONTINUOUS
  5
108
 10
83.934371
 20
253.074313
 30
0.0
 11
86.934371
 21
256.074313
 31
0.0
  0
LINE
  8
LC-003-005-----0
  6
CONTINUOUS
  5
109
 10
83.690599
 20
253.113384
 30
0.0
 11
86.651529
 21
256.074313
 31
0.0
  0
LINE
  8
LC-003-005-----0
  6
CONTINUOUS
  5
10A
 10
83.690599
 20
253.396227
 30
0.0
 11
86.368686
 21
256.074313
 31
0.0
  0
LINE
  8
LC-003-005-----0
  6
CONTINUOUS
  5
10B
 10
83.690599
 20
253.679069
 30
0.0
 11
86.085843
 21
256.074313
 31
0.0
  0
LINE
  8
LC-003-005-----0
  6
CONTINUOUS
  5
10C
 10
83.690599
 20
253.961912
 30
0.0
 11
85.803001
 21
256.074313
 31
0.0
  0
LINE
  8
LC-003-005-----0
  6
CONTINUOUS
  5
10D
 10
83.690599
 20
254.244755
 30
0.0
 11
85.520158
 21
256.074313
 31
0.0
  0
LINE
  8
LC-003-005-----0
  6
CONTINUOUS
  5
10E
 10
83.690599
 20
254.527598
 30
0.0
 11
85.237315
 21
256.074313
 31
0.0
  0
LINE
  8
LC-003-005-----0
  6
CONTINUOUS
  5
10F
 10
83.690599
 20
254.81044
 30
0.0
 11
84.954472
 21
256.074313
 31
0.0
  0
LINE
  8
LC-003-005-----0
  6
CONTINUOUS
  5
110
 10
83.690599
 20
255.093283
 30
0.0
 11
84.67163
 21
256.074313
 31
0.0
  0
LINE
  8
LC-003-005-----0
  6
CONTINUOUS
  5
111
 10
83.690599
 20
255.376126
 30
0.0
 11
84.388787
 21
256.074313
 31
0.0
  0
LINE
  8
LC-003-005-----0
  6
CONTINUOUS
  5
112
 10
83.690599
 20
255.658968
 30
0.0
 11
84.105944
 21
256.074313
 31
0.0
  0
LINE
  8
LC-003-005-----0
  6
CONTINUOUS
  5
113
 10
83.690599
 20
255.941811
 30
0.0
 11
83.823102
 21
256.074313
 31
0.0
  0
ENDBLK
  8
0
  5
114
  0
BLOCK
  8
0
  5
116
  2
*X8
 70
    65
 10
93.690599
 20
253.074313
 30
0.0
  3
*X8
  0
LINE
  8
LC-003-005-----0
  6
CONTINUOUS
  5
117
 10
98.642192
 20
253.074313
 30
0.0
 11
98.690599
 21
253.12272
 31
0.0
  0
LINE
  8
LC-003-005-----0
  6
CONTINUOUS
  5
118
 10
98.35935
 20
253.074313
 30
0.0
 11
98.690599
 21
253.405563
 31
0.0
  0
LINE
  8
LC-003-005-----0
  6
CONTINUOUS
  5
119
 10
98.076507
 20
253.074313
 30
0.0
 11
98.690599
 21
253.688406
 31
0.0
  0
LINE
  8
LC-003-005-----0
  6
CONTINUOUS
  5
11A
 10
97.793664
 20
253.074313
 30
0.0
 11
98.690599
 21
253.971248
 31
0.0
  0
LINE
  8
LC-003-005-----0
  6
CONTINUOUS
  5
11B
 10
97.510822
 20
253.074313
 30
0.0
 11
98.690599
 21
254.254091
 31
0.0
  0
LINE
  8
LC-003-005-----0
  6
CONTINUOUS
  5
11C
 10
97.227979
 20
253.074313
 30
0.0
 11
98.690599
 21
254.536934
 31
0.0
  0
LINE
  8
LC-003-005-----0
  6
CONTINUOUS
  5
11D
 10
96.945136
 20
253.074313
 30
0.0
 11
98.690599
 21
254.819776
 31
0.0
  0
LINE
  8
LC-003-005-----0
  6
CONTINUOUS
  5
11E
 10
96.662293
 20
253.074313
 30
0.0
 11
98.690599
 21
255.102619
 31
0.0
  0
LINE
  8
LC-003-005-----0
  6
CONTINUOUS
  5
11F
 10
96.379451
 20
253.074313
 30
0.0
 11
98.690599
 21
255.385462
 31
0.0
  0
LINE
  8
LC-003-005-----0
  6
CONTINUOUS
  5
120
 10
96.096608
 20
253.074313
 30
0.0
 11
98.690599
 21
255.668305
 31
0.0
  0
LINE
  8
LC-003-005-----0
  6
CONTINUOUS
  5
121
 10
95.813765
 20
253.074313
 30
0.0
 11
98.690599
 21
255.951147
 31
0.0
  0
LINE
  8
LC-003-005-----0
  6
CONTINUOUS
  5
122
 10
95.530923
 20
253.074313
 30
0.0
 11
98.530923
 21
256.074313
 31
0.0
  0
LINE
  8
LC-003-005-----0
  6
CONTINUOUS
  5
123
 10
95.24808
 20
253.074313
 30
0.0
 11
98.24808
 21
256.074313
 31
0.0
  0
LINE
  8
LC-003-005-----0
  6
CONTINUOUS
  5
124
 10
94.965237
 20
253.074313
 30
0.0
 11
97.965237
 21
256.074313
 31
0.0
  0
LINE
  8
LC-003-005-----0
  6
CONTINUOUS
  5
125
 10
94.682395
 20
253.074313
 30
0.0
 11
97.682395
 21
256.074313
 31
0.0
  0
LINE
  8
LC-003-005-----0
  6
CONTINUOUS
  5
126
 10
94.399552
 20
253.074313
 30
0.0
 11
97.399552
 21
256.074313
 31
0.0
  0
LINE
  8
LC-003-005-----0
  6
CONTINUOUS
  5
127
 10
94.116709
 20
253.074313
 30
0.0
 11
97.116709
 21
256.074313
 31
0.0
  0
LINE
  8
LC-003-005-----0
  6
CONTINUOUS
  5
128
 10
93.833866
 20
253.074313
 30
0.0
 11
96.833866
 21
256.074313
 31
0.0
  0
LINE
  8
LC-003-005-----0
  6
CONTINUOUS
  5
129
 10
93.690599
 20
253.213889
 30
0.0
 11
96.551024
 21
256.074313
 31
0.0
  0
LINE
  8
LC-003-005-----0
  6
CONTINUOUS
  5
12A
 10
93.690599
 20
253.496732
 30
0.0
 11
96.268181
 21
256.074313
 31
0.0
  0
LINE
  8
LC-003-005-----0
  6
CONTINUOUS
  5
12B
 10
93.690599
 20
253.779574
 30
0.0
 11
95.985338
 21
256.074313
 31
0.0
  0
LINE
  8
LC-003-005-----0
  6
CONTINUOUS
  5
12C
 10
93.690599
 20
254.062417
 30
0.0
 11
95.702496
 21
256.074313
 31
0.0
  0
LINE
  8
LC-003-005-----0
  6
CONTINUOUS
  5
12D
 10
93.690599
 20
254.34526
 30
0.0
 11
95.419653
 21
256.074313
 31
0.0
  0
LINE
  8
LC-003-005-----0
  6
CONTINUOUS
  5
12E
 10
93.690599
 20
254.628103
 30
0.0
 11
95.13681
 21
256.074313
 31
0.0
  0
LINE
  8
LC-003-005-----0
  6
CONTINUOUS
  5
12F
 10
93.690599
 20
254.910945
 30
0.0
 11
94.853967
 21
256.074313
 31
0.0
  0
LINE
  8
LC-003-005-----0
  6
CONTINUOUS
  5
130
 10
93.690599
 20
255.193788
 30
0.0
 11
94.571125
 21
256.074313
 31
0.0
  0
LINE
  8
LC-003-005-----0
  6
CONTINUOUS
  5
131
 10
93.690599
 20
255.476631
 30
0.0
 11
94.288282
 21
256.074313
 31
0.0
  0
LINE
  8
LC-003-005-----0
  6
CONTINUOUS
  5
132
 10
93.690599
 20
255.759473
 30
0.0
 11
94.005439
 21
256.074313
 31
0.0
  0
LINE
  8
LC-003-005-----0
  6
CONTINUOUS
  5
133
 10
93.690599
 20
256.042316
 30
0.0
 11
93.722597
 21
256.074313
 31
0.0
  0
ENDBLK
  8
0
  5
134
  0
BLOCK
  8
0
  5
136
  2
*X9
 70
    65
 10
113.690599
 20
250.478229
 30
0.0
  3
*X9
  0
LINE
  8
LC-003-005-----0
  6
CONTINUOUS
  5
137
 10
118.677523
 20
250.482227
 30
0.0
 11
118.690599
 21
250.495303
 31
0.0
  0
LINE
  8
LC-003-005-----0
  6
CONTINUOUS
  5
138
 10
118.460906
 20
250.548453
 30
0.0
 11
118.690599
 21
250.778146
 31
0.0
  0
LINE
  8
LC-003-005-----0
  6
CONTINUOUS
  5
139
 10
118.24429
 20
250.614679
 30
0.0
 11
118.690599
 21
251.060989
 31
0.0
  0
LINE
  8
LC-003-005-----0
  6
CONTINUOUS
  5
13A
 10
118.027674
 20
250.680906
 30
0.0
 11
118.690599
 21
251.343831
 31
0.0
  0
LINE
  8
LC-003-005-----0
  6
CONTINUOUS
  5
13B
 10
117.811057
 20
250.747132
 30
0.0
 11
118.690599
 21
251.626674
 31
0.0
  0
LINE
  8
LC-003-005-----0
  6
CONTINUOUS
  5
13C
 10
117.594441
 20
250.813358
 30
0.0
 11
118.690599
 21
251.909517
 31
0.0
  0
LINE
  8
LC-003-005-----0
  6
CONTINUOUS
  5
13D
 10
117.377824
 20
250.879585
 30
0.0
 11
118.690599
 21
252.192359
 31
0.0
  0
LINE
  8
LC-003-005-----0
  6
CONTINUOUS
  5
13E
 10
117.161208
 20
250.945811
 30
0.0
 11
118.690599
 21
252.475202
 31
0.0
  0
LINE
  8
LC-003-005-----0
  6
CONTINUOUS
  5
13F
 10
116.944591
 20
251.012037
 30
0.0
 11
118.690599
 21
252.758045
 31
0.0
  0
LINE
  8
LC-003-005-----0
  6
CONTINUOUS
  5
140
 10
116.727975
 20
251.078263
 30
0.0
 11
118.690599
 21
253.040888
 31
0.0
  0
LINE
  8
LC-003-005-----0
  6
CONTINUOUS
  5
141
 10
116.511359
 20
251.14449
 30
0.0
 11
118.690599
 21
253.32373
 31
0.0
  0
LINE
  8
LC-003-005-----0
  6
CONTINUOUS
  5
142
 10
116.294742
 20
251.210716
 30
0.0
 11
118.690599
 21
253.606573
 31
0.0
  0
LINE
  8
LC-003-005-----0
  6
CONTINUOUS
  5
143
 10
116.078126
 20
251.276942
 30
0.0
 11
118.48067
 21
253.679486
 31
0.0
  0
LINE
  8
LC-003-005-----0
  6
CONTINUOUS
  5
144
 10
115.861509
 20
251.343169
 30
0.0
 11
118.264053
 21
253.745712
 31
0.0
  0
LINE
  8
LC-003-005-----0
  6
CONTINUOUS
  5
145
 10
115.644893
 20
251.409395
 30
0.0
 11
118.047437
 21
253.811939
 31
0.0
  0
LINE
  8
LC-003-005-----0
  6
CONTINUOUS
  5
146
 10
115.428276
 20
251.475621
 30
0.0
 11
117.83082
 21
253.878165
 31
0.0
  0
LINE
  8
LC-003-005-----0
  6
CONTINUOUS
  5
147
 10
115.21166
 20
251.541847
 30
0.0
 11
117.614204
 21
253.944391
 31
0.0
  0
LINE
  8
LC-003-005-----0
  6
CONTINUOUS
  5
148
 10
114.995044
 20
251.608074
 30
0.0
 11
117.397587
 21
254.010618
 31
0.0
  0
LINE
  8
LC-003-005-----0
  6
CONTINUOUS
  5
149
 10
114.778427
 20
251.6743
 30
0.0
 11
117.180971
 21
254.076844
 31
0.0
  0
LINE
  8
LC-003-005-----0
  6
CONTINUOUS
  5
14A
 10
114.561811
 20
251.740526
 30
0.0
 11
116.964355
 21
254.14307
 31
0.0
  0
LINE
  8
LC-003-005-----0
  6
CONTINUOUS
  5
14B
 10
114.345194
 20
251.806753
 30
0.0
 11
116.747738
 21
254.209296
 31
0.0
  0
LINE
  8
LC-003-005-----0
  6
CONTINUOUS
  5
14C
 10
114.128578
 20
251.872979
 30
0.0
 11
116.531122
 21
254.275523
 31
0.0
  0
LINE
  8
LC-003-005-----0
  6
CONTINUOUS
  5
14D
 10
113.911961
 20
251.939205
 30
0.0
 11
116.314505
 21
254.341749
 31
0.0
  0
LINE
  8
LC-003-005-----0
  6
CONTINUOUS
  5
14E
 10
113.695345
 20
252.005431
 30
0.0
 11
116.097889
 21
254.407975
 31
0.0
  0
LINE
  8
LC-003-005-----0
  6
CONTINUOUS
  5
14F
 10
113.690599
 20
252.283528
 30
0.0
 11
115.881273
 21
254.474202
 31
0.0
  0
LINE
  8
LC-003-005-----0
  6
CONTINUOUS
  5
150
 10
113.690599
 20
252.566371
 30
0.0
 11
115.664656
 21
254.540428
 31
0.0
  0
LINE
  8
LC-003-005-----0
  6
CONTINUOUS
  5
151
 10
113.690599
 20
252.849214
 30
0.0
 11
115.44804
 21
254.606654
 31
0.0
  0
LINE
  8
LC-003-005-----0
  6
CONTINUOUS
  5
152
 10
113.690599
 20
253.132056
 30
0.0
 11
115.231423
 21
254.67288
 31
0.0
  0
LINE
  8
LC-003-005-----0
  6
CONTINUOUS
  5
153
 10
113.690599
 20
253.414899
 30
0.0
 11
115.014807
 21
254.739107
 31
0.0
  0
LINE
  8
LC-003-005-----0
  6
CONTINUOUS
  5
154
 10
113.690599
 20
253.697742
 30
0.0
 11
114.79819
 21
254.805333
 31
0.0
  0
LINE
  8
LC-003-005-----0
  6
CONTINUOUS
  5
155
 10
113.690599
 20
253.980585
 30
0.0
 11
114.581574
 21
254.871559
 31
0.0
  0
LINE
  8
LC-003-005-----0
  6
CONTINUOUS
  5
156
 10
113.690599
 20
254.263427
 30
0.0
 11
114.364958
 21
254.937786
 31
0.0
  0
LINE
  8
LC-003-005-----0
  6
CONTINUOUS
  5
157
 10
113.690599
 20
254.54627
 30
0.0
 11
114.148341
 21
255.004012
 31
0.0
  0
LINE
  8
LC-003-005-----0
  6
CONTINUOUS
  5
158
 10
113.690599
 20
254.829113
 30
0.0
 11
113.931725
 21
255.070238
 31
0.0
  0
LINE
  8
LC-003-005-----0
  6
CONTINUOUS
  5
159
 10
113.690599
 20
255.111955
 30
0.0
 11
113.715108
 21
255.136464
 31
0.0
  0
ENDBLK
  8
0
  5
15A
  0
BLOCK
  8
0
  5
15C
  2
*X10
 70
    65
 10
123.690599
 20
247.420922
 30
0.0
  3
*X10
  0
LINE
  8
LC-003-005-----0
  6
CONTINUOUS
  5
15D
 10
128.641878
 20
247.435818
 30
0.0
 11
128.690599
 21
247.484538
 31
0.0
  0
LINE
  8
LC-003-005-----0
  6
CONTINUOUS
  5
15E
 10
128.425262
 20
247.502044
 30
0.0
 11
128.690599
 21
247.767381
 31
0.0
  0
LINE
  8
LC-003-005-----0
  6
CONTINUOUS
  5
15F
 10
128.208646
 20
247.56827
 30
0.0
 11
128.690599
 21
248.050224
 31
0.0
  0
LINE
  8
LC-003-005-----0
  6
CONTINUOUS
  5
160
 10
127.992029
 20
247.634496
 30
0.0
 11
128.690599
 21
248.333067
 31
0.0
  0
LINE
  8
LC-003-005-----0
  6
CONTINUOUS
  5
161
 10
127.775413
 20
247.700723
 30
0.0
 11
128.690599
 21
248.615909
 31
0.0
  0
LINE
  8
LC-003-005-----0
  6
CONTINUOUS
  5
162
 10
127.558796
 20
247.766949
 30
0.0
 11
128.690599
 21
248.898752
 31
0.0
  0
LINE
  8
LC-003-005-----0
  6
CONTINUOUS
  5
163
 10
127.34218
 20
247.833175
 30
0.0
 11
128.690599
 21
249.181595
 31
0.0
  0
LINE
  8
LC-003-005-----0
  6
CONTINUOUS
  5
164
 10
127.125563
 20
247.899402
 30
0.0
 11
128.690599
 21
249.464437
 31
0.0
  0
LINE
  8
LC-003-005-----0
  6
CONTINUOUS
  5
165
 10
126.908947
 20
247.965628
 30
0.0
 11
128.690599
 21
249.74728
 31
0.0
  0
LINE
  8
LC-003-005-----0
  6
CONTINUOUS
  5
166
 10
126.692331
 20
248.031854
 30
0.0
 11
128.690599
 21
250.030123
 31
0.0
  0
LINE
  8
LC-003-005-----0
  6
CONTINUOUS
  5
167
 10
126.475714
 20
248.09808
 30
0.0
 11
128.690599
 21
250.312966
 31
0.0
  0
LINE
  8
LC-003-005-----0
  6
CONTINUOUS
  5
168
 10
126.259098
 20
248.164307
 30
0.0
 11
128.661642
 21
250.566851
 31
0.0
  0
LINE
  8
LC-003-005-----0
  6
CONTINUOUS
  5
169
 10
126.042481
 20
248.230533
 30
0.0
 11
128.445025
 21
250.633077
 31
0.0
  0
LINE
  8
LC-003-005-----0
  6
CONTINUOUS
  5
16A
 10
125.825865
 20
248.296759
 30
0.0
 11
128.228409
 21
250.699303
 31
0.0
  0
LINE
  8
LC-003-005-----0
  6
CONTINUOUS
  5
16B
 10
125.609248
 20
248.362986
 30
0.0
 11
128.011792
 21
250.76553
 31
0.0
  0
LINE
  8
LC-003-005-----0
  6
CONTINUOUS
  5
16C
 10
125.392632
 20
248.429212
 30
0.0
 11
127.795176
 21
250.831756
 31
0.0
  0
LINE
  8
LC-003-005-----0
  6
CONTINUOUS
  5
16D
 10
125.176016
 20
248.495438
 30
0.0
 11
127.578559
 21
250.897982
 31
0.0
  0
LINE
  8
LC-003-005-----0
  6
CONTINUOUS
  5
16E
 10
124.959399
 20
248.561665
 30
0.0
 11
127.361943
 21
250.964208
 31
0.0
  0
LINE
  8
LC-003-005-----0
  6
CONTINUOUS
  5
16F
 10
124.742783
 20
248.627891
 30
0.0
 11
127.145327
 21
251.030435
 31
0.0
  0
LINE
  8
LC-003-005-----0
  6
CONTINUOUS
  5
170
 10
124.526166
 20
248.694117
 30
0.0
 11
126.92871
 21
251.096661
 31
0.0
  0
LINE
  8
LC-003-005-----0
  6
CONTINUOUS
  5
171
 10
124.30955
 20
248.760343
 30
0.0
 11
126.712094
 21
251.162887
 31
0.0
  0
LINE
  8
LC-003-005-----0
  6
CONTINUOUS
  5
172
 10
124.092933
 20
248.82657
 30
0.0
 11
126.495477
 21
251.229114
 31
0.0
  0
LINE
  8
LC-003-005-----0
  6
CONTINUOUS
  5
173
 10
123.876317
 20
248.892796
 30
0.0
 11
126.278861
 21
251.29534
 31
0.0
  0
LINE
  8
LC-003-005-----0
  6
CONTINUOUS
  5
174
 10
123.690599
 20
248.989921
 30
0.0
 11
126.062244
 21
251.361566
 31
0.0
  0
LINE
  8
LC-003-005-----0
  6
CONTINUOUS
  5
175
 10
123.690599
 20
249.272764
 30
0.0
 11
125.845628
 21
251.427792
 31
0.0
  0
LINE
  8
LC-003-005-----0
  6
CONTINUOUS
  5
176
 10
123.690599
 20
249.555606
 30
0.0
 11
125.629012
 21
251.494019
 31
0.0
  0
LINE
  8
LC-003-005-----0
  6
CONTINUOUS
  5
177
 10
123.690599
 20
249.838449
 30
0.0
 11
125.412395
 21
251.560245
 31
0.0
  0
LINE
  8
LC-003-005-----0
  6
CONTINUOUS
  5
178
 10
123.690599
 20
250.121292
 30
0.0
 11
125.195779
 21
251.626471
 31
0.0
  0
LINE
  8
LC-003-005-----0
  6
CONTINUOUS
  5
179
 10
123.690599
 20
250.404134
 30
0.0
 11
124.979162
 21
251.692698
 31
0.0
  0
LINE
  8
LC-003-005-----0
  6
CONTINUOUS
  5
17A
 10
123.690599
 20
250.686977
 30
0.0
 11
124.762546
 21
251.758924
 31
0.0
  0
LINE
  8
LC-003-005-----0
  6
CONTINUOUS
  5
17B
 10
123.690599
 20
250.96982
 30
0.0
 11
124.54593
 21
251.82515
 31
0.0
  0
LINE
  8
LC-003-005-----0
  6
CONTINUOUS
  5
17C
 10
123.690599
 20
251.252663
 30
0.0
 11
124.329313
 21
251.891376
 31
0.0
  0
LINE
  8
LC-003-005-----0
  6
CONTINUOUS
  5
17D
 10
123.690599
 20
251.535505
 30
0.0
 11
124.112697
 21
251.957603
 31
0.0
  0
LINE
  8
LC-003-005-----0
  6
CONTINUOUS
  5
17E
 10
123.690599
 20
251.818348
 30
0.0
 11
123.89608
 21
252.023829
 31
0.0
  0
ENDBLK
  8
0
  5
17F
  0
BLOCK
  8
0
  5
181
  2
*X11
 70
    65
 10
133.690599
 20
246.580013
 30
0.0
  3
*X11
  0
LINE
  8
LC-003-005-----0
  6
CONTINUOUS
  5
182
 10
138.534097
 20
246.580013
 30
0.0
 11
138.690599
 21
246.736515
 31
0.0
  0
LINE
  8
LC-003-005-----0
  6
CONTINUOUS
  5
183
 10
138.251254
 20
246.580013
 30
0.0
 11
138.690599
 21
247.019358
 31
0.0
  0
LINE
  8
LC-003-005-----0
  6
CONTINUOUS
  5
184
 10
137.968412
 20
246.580013
 30
0.0
 11
138.690599
 21
247.302201
 31
0.0
  0
LINE
  8
LC-003-005-----0
  6
CONTINUOUS
  5
185
 10
137.685569
 20
246.580013
 30
0.0
 11
138.690599
 21
247.585044
 31
0.0
  0
LINE
  8
LC-003-005-----0
  6
CONTINUOUS
  5
186
 10
137.402726
 20
246.580013
 30
0.0
 11
138.690599
 21
247.867886
 31
0.0
  0
LINE
  8
LC-003-005-----0
  6
CONTINUOUS
  5
187
 10
137.119883
 20
246.580013
 30
0.0
 11
138.690599
 21
248.150729
 31
0.0
  0
LINE
  8
LC-003-005-----0
  6
CONTINUOUS
  5
188
 10
136.837041
 20
246.580013
 30
0.0
 11
138.690599
 21
248.433572
 31
0.0
  0
LINE
  8
LC-003-005-----0
  6
CONTINUOUS
  5
189
 10
136.554198
 20
246.580013
 30
0.0
 11
138.690599
 21
248.716414
 31
0.0
  0
LINE
  8
LC-003-005-----0
  6
CONTINUOUS
  5
18A
 10
136.271355
 20
246.580013
 30
0.0
 11
138.690599
 21
248.999257
 31
0.0
  0
LINE
  8
LC-003-005-----0
  6
CONTINUOUS
  5
18B
 10
135.988513
 20
246.580013
 30
0.0
 11
138.690599
 21
249.2821
 31
0.0
  0
LINE
  8
LC-003-005-----0
  6
CONTINUOUS
  5
18C
 10
135.70567
 20
246.580013
 30
0.0
 11
138.690599
 21
249.564942
 31
0.0
  0
LINE
  8
LC-003-005-----0
  6
CONTINUOUS
  5
18D
 10
135.422827
 20
246.580013
 30
0.0
 11
138.422827
 21
249.580013
 31
0.0
  0
LINE
  8
LC-003-005-----0
  6
CONTINUOUS
  5
18E
 10
135.139984
 20
246.580013
 30
0.0
 11
138.139984
 21
249.580013
 31
0.0
  0
LINE
  8
LC-003-005-----0
  6
CONTINUOUS
  5
18F
 10
134.857142
 20
246.580013
 30
0.0
 11
137.857142
 21
249.580013
 31
0.0
  0
LINE
  8
LC-003-005-----0
  6
CONTINUOUS
  5
190
 10
134.574299
 20
246.580013
 30
0.0
 11
137.574299
 21
249.580013
 31
0.0
  0
LINE
  8
LC-003-005-----0
  6
CONTINUOUS
  5
191
 10
134.291456
 20
246.580013
 30
0.0
 11
137.291456
 21
249.580013
 31
0.0
  0
LINE
  8
LC-003-005-----0
  6
CONTINUOUS
  5
192
 10
134.008614
 20
246.580013
 30
0.0
 11
137.008614
 21
249.580013
 31
0.0
  0
LINE
  8
LC-003-005-----0
  6
CONTINUOUS
  5
193
 10
133.725771
 20
246.580013
 30
0.0
 11
136.725771
 21
249.580013
 31
0.0
  0
LINE
  8
LC-003-005-----0
  6
CONTINUOUS
  5
194
 10
133.690599
 20
246.827684
 30
0.0
 11
136.442928
 21
249.580013
 31
0.0
  0
LINE
  8
LC-003-005-----0
  6
CONTINUOUS
  5
195
 10
133.690599
 20
247.110527
 30
0.0
 11
136.160085
 21
249.580013
 31
0.0
  0
LINE
  8
LC-003-005-----0
  6
CONTINUOUS
  5
196
 10
133.690599
 20
247.39337
 30
0.0
 11
135.877243
 21
249.580013
 31
0.0
  0
LINE
  8
LC-003-005-----0
  6
CONTINUOUS
  5
197
 10
133.690599
 20
247.676212
 30
0.0
 11
135.5944
 21
249.580013
 31
0.0
  0
LINE
  8
LC-003-005-----0
  6
CONTINUOUS
  5
198
 10
133.690599
 20
247.959055
 30
0.0
 11
135.311557
 21
249.580013
 31
0.0
  0
LINE
  8
LC-003-005-----0
  6
CONTINUOUS
  5
199
 10
133.690599
 20
248.241898
 30
0.0
 11
135.028715
 21
249.580013
 31
0.0
  0
LINE
  8
LC-003-005-----0
  6
CONTINUOUS
  5
19A
 10
133.690599
 20
248.52474
 30
0.0
 11
134.745872
 21
249.580013
 31
0.0
  0
LINE
  8
LC-003-005-----0
  6
CONTINUOUS
  5
19B
 10
133.690599
 20
248.807583
 30
0.0
 11
134.463029
 21
249.580013
 31
0.0
  0
LINE
  8
LC-003-005-----0
  6
CONTINUOUS
  5
19C
 10
133.690599
 20
249.090426
 30
0.0
 11
134.180186
 21
249.580013
 31
0.0
  0
LINE
  8
LC-003-005-----0
  6
CONTINUOUS
  5
19D
 10
133.690599
 20
249.373269
 30
0.0
 11
133.897344
 21
249.580013
 31
0.0
  0
ENDBLK
  8
0
  5
19E
  0
BLOCK
  8
0
  5
1A0
  2
*X12
 70
    65
 10
149.440599
 20
248.079323
 30
0.0
  3
*X12
  0
LINE
  8
LC-003-005-----0
  6
CONTINUOUS
  5
1A1
 10
151.629958
 20
248.079323
 30
0.0
 11
151.690976
 21
248.140341
 31
0.0
  0
LINE
  8
LC-003-005-----0
  6
CONTINUOUS
  5
1A2
 10
151.347115
 20
248.079323
 30
0.0
 11
151.690976
 21
248.423184
 31
0.0
  0
LINE
  8
LC-003-005-----0
  6
CONTINUOUS
  5
1A3
 10
151.064272
 20
248.079323
 30
0.0
 11
151.690976
 21
248.706027
 31
0.0
  0
LINE
  8
LC-003-005-----0
  6
CONTINUOUS
  5
1A4
 10
150.78143
 20
248.079323
 30
0.0
 11
151.690976
 21
248.98887
 31
0.0
  0
LINE
  8
LC-003-005-----0
  6
CONTINUOUS
  5
1A5
 10
150.498587
 20
248.079323
 30
0.0
 11
151.690976
 21
249.271712
 31
0.0
  0
LINE
  8
LC-003-005-----0
  6
CONTINUOUS
  5
1A6
 10
150.215744
 20
248.079323
 30
0.0
 11
151.690976
 21
249.554555
 31
0.0
  0
LINE
  8
LC-003-005-----0
  6
CONTINUOUS
  5
1A7
 10
149.932902
 20
248.079323
 30
0.0
 11
151.690976
 21
249.837398
 31
0.0
  0
LINE
  8
LC-003-005-----0
  6
CONTINUOUS
  5
1A8
 10
149.650059
 20
248.079323
 30
0.0
 11
151.690976
 21
250.12024
 31
0.0
  0
LINE
  8
LC-003-005-----0
  6
CONTINUOUS
  5
1A9
 10
149.440599
 20
248.152706
 30
0.0
 11
151.690976
 21
250.403083
 31
0.0
  0
LINE
  8
LC-003-005-----0
  6
CONTINUOUS
  5
1AA
 10
149.440599
 20
248.435549
 30
0.0
 11
151.690976
 21
250.685926
 31
0.0
  0
LINE
  8
LC-003-005-----0
  6
CONTINUOUS
  5
1AB
 10
149.440599
 20
248.718391
 30
0.0
 11
151.690976
 21
250.968769
 31
0.0
  0
LINE
  8
LC-003-005-----0
  6
CONTINUOUS
  5
1AC
 10
149.440599
 20
249.001234
 30
0.0
 11
151.518688
 21
251.079323
 31
0.0
  0
LINE
  8
LC-003-005-----0
  6
CONTINUOUS
  5
1AD
 10
149.440599
 20
249.284077
 30
0.0
 11
151.235845
 21
251.079323
 31
0.0
  0
LINE
  8
LC-003-005-----0
  6
CONTINUOUS
  5
1AE
 10
149.440599
 20
249.566919
 30
0.0
 11
150.953003
 21
251.079323
 31
0.0
  0
LINE
  8
LC-003-005-----0
  6
CONTINUOUS
  5
1AF
 10
149.440599
 20
249.849762
 30
0.0
 11
150.67016
 21
251.079323
 31
0.0
  0
LINE
  8
LC-003-005-----0
  6
CONTINUOUS
  5
1B0
 10
149.440599
 20
250.132605
 30
0.0
 11
150.387317
 21
251.079323
 31
0.0
  0
LINE
  8
LC-003-005-----0
  6
CONTINUOUS
  5
1B1
 10
149.440599
 20
250.415448
 30
0.0
 11
150.104474
 21
251.079323
 31
0.0
  0
LINE
  8
LC-003-005-----0
  6
CONTINUOUS
  5
1B2
 10
149.440599
 20
250.69829
 30
0.0
 11
149.821632
 21
251.079323
 31
0.0
  0
LINE
  8
LC-003-005-----0
  6
CONTINUOUS
  5
1B3
 10
149.440599
 20
250.981133
 30
0.0
 11
149.538789
 21
251.079323
 31
0.0
  0
ENDBLK
  8
0
  5
1B4
  0
BLOCK
  8
0
  5
1B6
  2
*X13
 70
    65
 10
103.690599
 20
252.862285
 30
0.0
  3
*X13
  0
LINE
  8
LC-003-005-----0
  6
CONTINUOUS
  5
1B7
 10
108.614972
 20
252.864755
 30
0.0
 11
108.690599
 21
252.940383
 31
0.0
  0
LINE
  8
LC-003-005-----0
  6
CONTINUOUS
  5
1B8
 10
108.341077
 20
252.873703
 30
0.0
 11
108.690599
 21
253.223225
 31
0.0
  0
LINE
  8
LC-003-005-----0
  6
CONTINUOUS
  5
1B9
 10
108.067182
 20
252.882651
 30
0.0
 11
108.690599
 21
253.506068
 31
0.0
  0
LINE
  8
LC-003-005-----0
  6
CONTINUOUS
  5
1BA
 10
107.793287
 20
252.891598
 30
0.0
 11
108.690599
 21
253.788911
 31
0.0
  0
LINE
  8
LC-003-005-----0
  6
CONTINUOUS
  5
1BB
 10
107.519392
 20
252.900546
 30
0.0
 11
108.690599
 21
254.071753
 31
0.0
  0
LINE
  8
LC-003-005-----0
  6
CONTINUOUS
  5
1BC
 10
107.245497
 20
252.909494
 30
0.0
 11
108.690599
 21
254.354596
 31
0.0
  0
LINE
  8
LC-003-005-----0
  6
CONTINUOUS
  5
1BD
 10
106.971602
 20
252.918442
 30
0.0
 11
108.690599
 21
254.637439
 31
0.0
  0
LINE
  8
LC-003-005-----0
  6
CONTINUOUS
  5
1BE
 10
106.697707
 20
252.927389
 30
0.0
 11
108.690599
 21
254.920282
 31
0.0
  0
LINE
  8
LC-003-005-----0
  6
CONTINUOUS
  5
1BF
 10
106.423812
 20
252.936337
 30
0.0
 11
108.690599
 21
255.203124
 31
0.0
  0
LINE
  8
LC-003-005-----0
  6
CONTINUOUS
  5
1C0
 10
106.149917
 20
252.945285
 30
0.0
 11
108.690599
 21
255.485967
 31
0.0
  0
LINE
  8
LC-003-005-----0
  6
CONTINUOUS
  5
1C1
 10
105.876022
 20
252.954232
 30
0.0
 11
108.690599
 21
255.76881
 31
0.0
  0
LINE
  8
LC-003-005-----0
  6
CONTINUOUS
  5
1C2
 10
105.602127
 20
252.96318
 30
0.0
 11
108.508772
 21
255.869825
 31
0.0
  0
LINE
  8
LC-003-005-----0
  6
CONTINUOUS
  5
1C3
 10
105.328232
 20
252.972128
 30
0.0
 11
108.234877
 21
255.878773
 31
0.0
  0
LINE
  8
LC-003-005-----0
  6
CONTINUOUS
  5
1C4
 10
105.054337
 20
252.981076
 30
0.0
 11
107.960982
 21
255.88772
 31
0.0
  0
LINE
  8
LC-003-005-----0
  6
CONTINUOUS
  5
1C5
 10
104.780442
 20
252.990023
 30
0.0
 11
107.687087
 21
255.896668
 31
0.0
  0
LINE
  8
LC-003-005-----0
  6
CONTINUOUS
  5
1C6
 10
104.506547
 20
252.998971
 30
0.0
 11
107.413192
 21
255.905616
 31
0.0
  0
LINE
  8
LC-003-005-----0
  6
CONTINUOUS
  5
1C7
 10
104.232652
 20
253.007919
 30
0.0
 11
107.139297
 21
255.914564
 31
0.0
  0
LINE
  8
LC-003-005-----0
  6
CONTINUOUS
  5
1C8
 10
103.958757
 20
253.016867
 30
0.0
 11
106.865402
 21
255.923511
 31
0.0
  0
LINE
  8
LC-003-005-----0
  6
CONTINUOUS
  5
1C9
 10
103.690599
 20
253.031551
 30
0.0
 11
106.591507
 21
255.932459
 31
0.0
  0
LINE
  8
LC-003-005-----0
  6
CONTINUOUS
  5
1CA
 10
103.690599
 20
253.314394
 30
0.0
 11
106.317612
 21
255.941407
 31
0.0
  0
LINE
  8
LC-003-005-----0
  6
CONTINUOUS
  5
1CB
 10
103.690599
 20
253.597237
 30
0.0
 11
106.043717
 21
255.950355
 31
0.0
  0
LINE
  8
LC-003-005-----0
  6
CONTINUOUS
  5
1CC
 10
103.690599
 20
253.88008
 30
0.0
 11
105.769822
 21
255.959302
 31
0.0
  0
LINE
  8
LC-003-005-----0
  6
CONTINUOUS
  5
1CD
 10
103.690599
 20
254.162922
 30
0.0
 11
105.495927
 21
255.96825
 31
0.0
  0
LINE
  8
LC-003-005-----0
  6
CONTINUOUS
  5
1CE
 10
103.690599
 20
254.445765
 30
0.0
 11
105.222032
 21
255.977198
 31
0.0
  0
LINE
  8
LC-003-005-----0
  6
CONTINUOUS
  5
1CF
 10
103.690599
 20
254.728608
 30
0.0
 11
104.948137
 21
255.986145
 31
0.0
  0
LINE
  8
LC-003-005-----0
  6
CONTINUOUS
  5
1D0
 10
103.690599
 20
255.01145
 30
0.0
 11
104.674242
 21
255.995093
 31
0.0
  0
LINE
  8
LC-003-005-----0
  6
CONTINUOUS
  5
1D1
 10
103.690599
 20
255.294293
 30
0.0
 11
104.400347
 21
256.004041
 31
0.0
  0
LINE
  8
LC-003-005-----0
  6
CONTINUOUS
  5
1D2
 10
103.690599
 20
255.577136
 30
0.0
 11
104.126452
 21
256.012989
 31
0.0
  0
LINE
  8
LC-003-005-----0
  6
CONTINUOUS
  5
1D3
 10
103.690599
 20
255.859979
 30
0.0
 11
103.852557
 21
256.021936
 31
0.0
  0
ENDBLK
  8
0
  5
1D4
  0
BLOCK
  8
0
  5
1D6
  2
BLK1
 70
    64
 10
0.0
 20
0.0
 30
0.0
  3
BLK1
  0
ENDBLK
  8
0
  5
1D7
  0
BLOCK
  8
0
  5
1D9
  2
*X15
 70
    65
 10
131.255752
 20
249.580002
 30
0.0
  3
*X15
  0
LINE
  8
LC-003-005-----0
  6
CONTINUOUS
  5
1DA
 10
157.856095
 20
249.779977
 30
0.0
 11
158.604506
 21
250.528388
 31
0.0
  0
LINE
  8
LC-003-005-----0
  6
CONTINUOUS
  5
1DB
 10
158.692684
 20
250.616566
 30
0.0
 11
159.324572
 21
251.248453
 31
0.0
  0
LINE
  8
LC-003-005-----0
  6
CONTINUOUS
  5
1DC
 10
156.941096
 20
250.279191
 30
0.0
 11
157.141873
 21
250.479969
 31
0.0
  0
LINE
  8
LC-003-005-----0
  6
CONTINUOUS
  5
1DD
 10
157.741877
 20
251.079972
 30
0.0
 11
158.441881
 21
251.779976
 31
0.0
  0
LINE
  8
LC-003-005-----0
  6
CONTINUOUS
  5
1DE
 10
156.327655
 20
251.079963
 30
0.0
 11
157.027659
 21
251.779968
 31
0.0
  0
LINE
  8
LC-003-005-----0
  6
CONTINUOUS
  5
1DF
 10
154.913432
 20
251.079955
 30
0.0
 11
155.613437
 21
251.779959
 31
0.0
  0
LINE
  8
LC-003-005-----0
  6
CONTINUOUS
  5
1E0
 10
153.500367
 20
251.081103
 30
0.0
 11
154.199214
 21
251.77995
 31
0.0
  0
LINE
  8
LC-003-005-----0
  6
CONTINUOUS
  5
1E1
 10
152.71677
 20
251.711719
 30
0.0
 11
153.21677
 21
252.211719
 31
0.0
  0
LINE
  8
LC-003-005-----0
  6
CONTINUOUS
  5
1E2
 10
151.670771
 20
252.079934
 30
0.0
 11
152.370776
 21
252.779939
 31
0.0
  0
LINE
  8
LC-003-005-----0
  6
CONTINUOUS
  5
1E3
 10
150.256549
 20
252.079926
 30
0.0
 11
150.956553
 21
252.77993
 31
0.0
  0
LINE
  8
LC-003-005-----0
  6
CONTINUOUS
  5
1E4
 10
141.771215
 20
252.079872
 30
0.0
 11
142.471219
 21
252.779877
 31
0.0
  0
LINE
  8
LC-003-005-----0
  6
CONTINUOUS
  5
1E5
 10
137.85714
 20
249.580012
 30
0.0
 11
138.557295
 21
250.280166
 31
0.0
  0
LINE
  8
LC-003-005-----0
  6
CONTINUOUS
  5
1E6
 10
136.442924
 20
249.580009
 30
0.0
 11
137.142925
 21
250.28001
 31
0.0
  0
LINE
  8
LC-003-005-----0
  6
CONTINUOUS
  5
1E7
 10
135.028707
 20
249.580005
 30
0.0
 11
135.728708
 21
250.280007
 31
0.0
  0
LINE
  8
LC-003-005-----0
  6
CONTINUOUS
  5
1E8
 10
133.67186
 20
249.637372
 30
0.0
 11
134.314492
 21
250.280004
 31
0.0
  0
LINE
  8
LC-003-005-----0
  6
CONTINUOUS
  5
1E9
 10
132.659931
 20
250.039657
 30
0.0
 11
133.172933
 21
250.552659
 31
0.0
  0
LINE
  8
LC-003-005-----0
  6
CONTINUOUS
  5
1EA
 10
131.912627
 20
250.706566
 30
0.0
 11
132.415521
 21
251.20946
 31
0.0
  0
ENDBLK
  8
0
  5
1EB
  0
BLOCK
  8
0
  5
1ED
  2
BLK2
 70
    64
 10
0.0
 20
0.0
 30
0.0
  3
BLK2
  0
ENDBLK
  8
0
  5
1EE
  0
BLOCK
  8
0
  5
1F0
  2
*X17
 70
    65
 10
273.441082
 20
249.580002
 30
0.0
  3
*X17
  0
LINE
  8
LC-003-005-----0
  6
CONTINUOUS
  5
1F1
 10
299.11803
 20
249.620555
 30
0.0
 11
301.077486
 21
251.580011
 31
0.0
  0
LINE
  8
LC-003-005-----0
  6
CONTINUOUS
  5
1F2
 10
297.663267
 20
249.580006
 30
0.0
 11
298.363265
 21
250.280004
 31
0.0
  0
LINE
  8
LC-003-005-----0
  6
CONTINUOUS
  5
1F3
 10
296.249057
 20
249.580009
 30
0.0
 11
296.949055
 21
250.280007
 31
0.0
  0
LINE
  8
LC-003-005-----0
  6
CONTINUOUS
  5
1F4
 10
294.834846
 20
249.580012
 30
0.0
 11
295.534845
 21
250.280011
 31
0.0
  0
LINE
  8
LC-003-005-----0
  6
CONTINUOUS
  5
1F5
 10
293.671757
 20
249.831137
 30
0.0
 11
294.169839
 21
250.329219
 31
0.0
  0
LINE
  8
LC-003-005-----0
  6
CONTINUOUS
  5
1F6
 10
292.963336
 20
250.53693
 30
0.0
 11
293.458311
 21
251.031904
 31
0.0
  0
LINE
  8
LC-003-005-----0
  6
CONTINUOUS
  5
1F7
 10
292.25623
 20
251.244036
 30
0.0
 11
292.751204
 21
251.739011
 31
0.0
  0
LINE
  8
LC-003-005-----0
  6
CONTINUOUS
  5
1F8
 10
291.549123
 20
251.951143
 30
0.0
 11
292.044098
 21
252.446118
 31
0.0
  0
LINE
  8
LC-003-005-----0
  6
CONTINUOUS
  5
1F9
 10
290.263644
 20
252.079878
 30
0.0
 11
290.96364
 21
252.779873
 31
0.0
  0
LINE
  8
LC-003-005-----0
  6
CONTINUOUS
  5
1FA
 10
281.778416
 20
252.079931
 30
0.0
 11
282.478411
 21
252.779926
 31
0.0
  0
LINE
  8
LC-003-005-----0
  6
CONTINUOUS
  5
1FB
 10
279.364596
 20
251.080325
 30
0.0
 11
281.064207
 21
252.779935
 31
0.0
  0
LINE
  8
LC-003-005-----0
  6
CONTINUOUS
  5
1FC
 10
277.950012
 20
251.079955
 30
0.0
 11
278.650008
 21
251.77995
 31
0.0
  0
LINE
  8
LC-003-005-----0
  6
CONTINUOUS
  5
1FD
 10
275.235821
 20
249.779977
 30
0.0
 11
275.935811
 21
250.479967
 31
0.0
  0
LINE
  8
LC-003-005-----0
  6
CONTINUOUS
  5
1FE
 10
276.535808
 20
251.079964
 30
0.0
 11
277.235803
 21
251.779959
 31
0.0
  0
LINE
  8
LC-003-005-----0
  6
CONTINUOUS
  5
1FF
 10
273.950316
 20
249.908685
 30
0.0
 11
274.521607
 21
250.479976
 31
0.0
  0
LINE
  8
LC-003-005-----0
  6
CONTINUOUS
  5
200
 10
275.121603
 20
251.079972
 30
0.0
 11
275.821599
 21
251.779968
 31
0.0
  0
LINE
  8
LC-003-005-----0
  6
CONTINUOUS
  5
201
 10
273.441669
 20
250.814252
 30
0.0
 11
274.406806
 21
251.779389
 31
0.0
  0
ENDBLK
  8
0
  5
202
  0
BLOCK
  8
0
  5
204
  2
BLK3
 70
    64
 10
0.0
 20
0.0
 30
0.0
  3
BLK3
  0
ENDBLK
  8
0
  5
205
  0
BLOCK
  8
0
  5
207
  2
*D19
 70
    65
 10
0.0
 20
0.0
 30
0.0
  3
*D19
  0
LINE
  8
LC-007-003-MTH-0
  6
CONTINUOUS
  5
209
 10
216.441089
 20
214.610361
 30
0.0
 11
216.441089
 21
133.2
 31
0.0
  0
LINE
  8
LC-007-003-MTH-0
  6
CONTINUOUS
  5
20A
 10
366.441089
 20
208.06122
 30
0.0
 11
366.441089
 21
133.2
 31
0.0
  0
LINE
  8
LC-008-003-MTG-0
  6
CONTINUOUS
  5
20C
 10
216.441089
 20
144.0
 30
0.0
 11
366.441089
 21
144.0
 31
0.0
  0
LINE
  8
LC-006-003-----0
  6
CONTINUOUS
  5
20E
 10
234.287096
 20
146.349471
 30
0.0
 11
216.441089
 21
144.0
 31
0.0
  0
LINE
  8
LC-006-003-----0
  6
CONTINUOUS
  5
20F
 10
216.441089
 20
144.0
 30
0.0
 11
234.287096
 21
141.650529
 31
0.0
  0
LINE
  8
LC-006-003-----0
  6
CONTINUOUS
  5
210
 10
234.287096
 20
141.650529
 30
0.0
 11
234.287096
 21
146.349471
 31
0.0
  0
LINE
  8
LC-006-003-----0
  6
CONTINUOUS
  5
211
 10
234.327134
 20
145.738609
 30
0.0
 11
221.121089
 21
144.0
 31
0.0
  0
LINE
  8
LC-006-003-----0
  6
CONTINUOUS
  5
212
 10
221.121089
 20
144.0
 30
0.0
 11
234.327134
 21
142.261391
 31
0.0
  0
LINE
  8
LC-006-003-----0
  6
CONTINUOUS
  5
213
 10
234.367172
 20
145.127746
 30
0.0
 11
225.801089
 21
144.0
 31
0.0
  0
LINE
  8
LC-006-003-----0
  6
CONTINUOUS
  5
214
 10
225.801089
 20
144.0
 30
0.0
 11
234.367172
 21
142.872254
 31
0.0
  0
LINE
  8
LC-006-003-----0
  6
CONTINUOUS
  5
215
 10
234.40721
 20
144.516884
 30
0.0
 11
230.481089
 21
144.0
 31
0.0
  0
LINE
  8
LC-006-003-----0
  6
CONTINUOUS
  5
216
 10
230.481089
 20
144.0
 30
0.0
 11
234.40721
 21
143.483116
 31
0.0
  0
LINE
  8
LC-006-003-----0
  6
CONTINUOUS
  5
217
 10
348.595081
 20
141.650529
 30
0.0
 11
366.441089
 21
144.0
 31
0.0
  0
LINE
  8
LC-006-003-----0
  6
CONTINUOUS
  5
218
 10
366.441089
 20
144.0
 30
0.0
 11
348.595081
 21
146.349471
 31
0.0
  0
LINE
  8
LC-006-003-----0
  6
CONTINUOUS
  5
219
 10
348.595081
 20
146.349471
 30
0.0
 11
348.595081
 21
141.650529
 31
0.0
  0
LINE
  8
LC-006-003-----0
  6
CONTINUOUS
  5
21A
 10
348.555043
 20
142.261391
 30
0.0
 11
361.761089
 21
144.0
 31
0.0
  0
LINE
  8
LC-006-003-----0
  6
CONTINUOUS
  5
21B
 10
361.761089
 20
144.0
 30
0.0
 11
348.555043
 21
145.738609
 31
0.0
  0
LINE
  8
LC-006-003-----0
  6
CONTINUOUS
  5
21C
 10
348.515005
 20
142.872254
 30
0.0
 11
357.081089
 21
144.0
 31
0.0
  0
LINE
  8
LC-006-003-----0
  6
CONTINUOUS
  5
21D
 10
357.081089
 20
144.0
 30
0.0
 11
348.515005
 21
145.127746
 31
0.0
  0
LINE
  8
LC-006-003-----0
  6
CONTINUOUS
  5
21E
 10
348.474967
 20
143.483116
 30
0.0
 11
352.401089
 21
144.0
 31
0.0
  0
LINE
  8
LC-006-003-----0
  6
CONTINUOUS
  5
21F
 10
352.401089
 20
144.0
 30
0.0
 11
348.474967
 21
144.516884
 31
0.0
  0
TEXT
  8
LC-006-003-----0
  6
CONTINUOUS
 62
     6
  5
221
 10
270.374501
 20
154.431999
 30
0.0
 40
18.0
  1
150
 41
0.9
 51
15.0
  7
LC-TXTSTYLE-150-400-0-0-D0
 72
     1
 11
289.508359
 21
154.431999
 31
0.0
  0
ENDBLK
  8
0
  5
222
  0
BLOCK
  8
0
  5
224
  2
BLK4
 70
    64
 10
0.0
 20
0.0
 30
0.0
  3
BLK4
  0
ENDBLK
  8
0
  5
225
  0
BLOCK
  8
0
  5
227
  2
*X21
 70
    65
 10
414.191578
 20
253.074313
 30
0.0
  3
*X21
  0
LINE
  8
LC-003-005-----0
  6
CONTINUOUS
  5
228
 10
416.274559
 20
253.074313
 30
0.0
 11
416.441089
 21
253.240844
 31
0.0
  0
LINE
  8
LC-003-005-----0
  6
CONTINUOUS
  5
229
 10
415.991716
 20
253.074313
 30
0.0
 11
416.441089
 21
253.523686
 31
0.0
  0
LINE
  8
LC-003-005-----0
  6
CONTINUOUS
  5
22A
 10
415.708873
 20
253.074313
 30
0.0
 11
416.441089
 21
253.806529
 31
0.0
  0
LINE
  8
LC-003-005-----0
  6
CONTINUOUS
  5
22B
 10
415.42603
 20
253.074313
 30
0.0
 11
416.441089
 21
254.089372
 31
0.0
  0
LINE
  8
LC-003-005-----0
  6
CONTINUOUS
  5
22C
 10
415.143188
 20
253.074313
 30
0.0
 11
416.441089
 21
254.372214
 31
0.0
  0
LINE
  8
LC-003-005-----0
  6
CONTINUOUS
  5
22D
 10
414.860345
 20
253.074313
 30
0.0
 11
416.441089
 21
254.655057
 31
0.0
  0
LINE
  8
LC-003-005-----0
  6
CONTINUOUS
  5
22E
 10
414.577502
 20
253.074313
 30
0.0
 11
416.441089
 21
254.9379
 31
0.0
  0
LINE
  8
LC-003-005-----0
  6
CONTINUOUS
  5
22F
 10
414.29466
 20
253.074313
 30
0.0
 11
416.441089
 21
255.220743
 31
0.0
  0
LINE
  8
LC-003-005-----0
  6
CONTINUOUS
  5
230
 10
414.191578
 20
253.254075
 30
0.0
 11
416.441089
 21
255.503585
 31
0.0
  0
LINE
  8
LC-003-005-----0
  6
CONTINUOUS
  5
231
 10
414.191578
 20
253.536917
 30
0.0
 11
416.441089
 21
255.786428
 31
0.0
  0
LINE
  8
LC-003-005-----0
  6
CONTINUOUS
  5
232
 10
414.191578
 20
253.81976
 30
0.0
 11
416.441089
 21
256.069271
 31
0.0
  0
LINE
  8
LC-003-005-----0
  6
CONTINUOUS
  5
233
 10
414.191578
 20
254.102603
 30
0.0
 11
416.163289
 21
256.074313
 31
0.0
  0
LINE
  8
LC-003-005-----0
  6
CONTINUOUS
  5
234
 10
414.191578
 20
254.385445
 30
0.0
 11
415.880446
 21
256.074313
 31
0.0
  0
LINE
  8
LC-003-005-----0
  6
CONTINUOUS
  5
235
 10
414.191578
 20
254.668288
 30
0.0
 11
415.597603
 21
256.074313
 31
0.0
  0
LINE
  8
LC-003-005-----0
  6
CONTINUOUS
  5
236
 10
414.191578
 20
254.951131
 30
0.0
 11
415.314761
 21
256.074313
 31
0.0
  0
LINE
  8
LC-003-005-----0
  6
CONTINUOUS
  5
237
 10
414.191578
 20
255.233974
 30
0.0
 11
415.031918
 21
256.074313
 31
0.0
  0
LINE
  8
LC-003-005-----0
  6
CONTINUOUS
  5
238
 10
414.191578
 20
255.516816
 30
0.0
 11
414.749075
 21
256.074313
 31
0.0
  0
LINE
  8
LC-003-005-----0
  6
CONTINUOUS
  5
239
 10
414.191578
 20
255.799659
 30
0.0
 11
414.466232
 21
256.074313
 31
0.0
  0
ENDBLK
  8
0
  5
23A
  0
BLOCK
  8
0
  5
23C
  2
*X22
 70
    65
 10
404.191578
 20
253.074313
 30
0.0
  3
*X22
  0
LINE
  8
LC-003-005-----0
  6
CONTINUOUS
  5
23D
 10
408.920648
 20
253.074313
 30
0.0
 11
409.191578
 21
253.345243
 31
0.0
  0
LINE
  8
LC-003-005-----0
  6
CONTINUOUS
  5
23E
 10
408.637805
 20
253.074313
 30
0.0
 11
409.191578
 21
253.628086
 31
0.0
  0
LINE
  8
LC-003-005-----0
  6
CONTINUOUS
  5
23F
 10
408.354963
 20
253.074313
 30
0.0
 11
409.191578
 21
253.910929
 31
0.0
  0
LINE
  8
LC-003-005-----0
  6
CONTINUOUS
  5
240
 10
408.07212
 20
253.074313
 30
0.0
 11
409.191578
 21
254.193772
 31
0.0
  0
LINE
  8
LC-003-005-----0
  6
CONTINUOUS
  5
241
 10
407.789277
 20
253.074313
 30
0.0
 11
409.191578
 21
254.476614
 31
0.0
  0
LINE
  8
LC-003-005-----0
  6
CONTINUOUS
  5
242
 10
407.506434
 20
253.074313
 30
0.0
 11
409.191578
 21
254.759457
 31
0.0
  0
LINE
  8
LC-003-005-----0
  6
CONTINUOUS
  5
243
 10
407.223592
 20
253.074313
 30
0.0
 11
409.191578
 21
255.0423
 31
0.0
  0
LINE
  8
LC-003-005-----0
  6
CONTINUOUS
  5
244
 10
406.940749
 20
253.074313
 30
0.0
 11
409.191578
 21
255.325142
 31
0.0
  0
LINE
  8
LC-003-005-----0
  6
CONTINUOUS
  5
245
 10
406.657906
 20
253.074313
 30
0.0
 11
409.191578
 21
255.607985
 31
0.0
  0
LINE
  8
LC-003-005-----0
  6
CONTINUOUS
  5
246
 10
406.375064
 20
253.074313
 30
0.0
 11
409.191578
 21
255.890828
 31
0.0
  0
LINE
  8
LC-003-005-----0
  6
CONTINUOUS
  5
247
 10
406.092221
 20
253.074313
 30
0.0
 11
409.092221
 21
256.074313
 31
0.0
  0
LINE
  8
LC-003-005-----0
  6
CONTINUOUS
  5
248
 10
405.809378
 20
253.074313
 30
0.0
 11
408.809378
 21
256.074313
 31
0.0
  0
LINE
  8
LC-003-005-----0
  6
CONTINUOUS
  5
249
 10
405.526536
 20
253.074313
 30
0.0
 11
408.526536
 21
256.074313
 31
0.0
  0
LINE
  8
LC-003-005-----0
  6
CONTINUOUS
  5
24A
 10
405.243693
 20
253.074313
 30
0.0
 11
408.243693
 21
256.074313
 31
0.0
  0
LINE
  8
LC-003-005-----0
  6
CONTINUOUS
  5
24B
 10
404.96085
 20
253.074313
 30
0.0
 11
407.96085
 21
256.074313
 31
0.0
  0
LINE
  8
LC-003-005-----0
  6
CONTINUOUS
  5
24C
 10
404.678007
 20
253.074313
 30
0.0
 11
407.678007
 21
256.074313
 31
0.0
  0
LINE
  8
LC-003-005-----0
  6
CONTINUOUS
  5
24D
 10
404.395165
 20
253.074313
 30
0.0
 11
407.395165
 21
256.074313
 31
0.0
  0
LINE
  8
LC-003-005-----0
  6
CONTINUOUS
  5
24E
 10
404.191578
 20
253.15357
 30
0.0
 11
407.112322
 21
256.074313
 31
0.0
  0
LINE
  8
LC-003-005-----0
  6
CONTINUOUS
  5
24F
 10
404.191578
 20
253.436412
 30
0.0
 11
406.829479
 21
256.074313
 31
0.0
  0
LINE
  8
LC-003-005-----0
  6
CONTINUOUS
  5
250
 10
404.191578
 20
253.719255
 30
0.0
 11
406.546637
 21
256.074313
 31
0.0
  0
LINE
  8
LC-003-005-----0
  6
CONTINUOUS
  5
251
 10
404.191578
 20
254.002098
 30
0.0
 11
406.263794
 21
256.074313
 31
0.0
  0
LINE
  8
LC-003-005-----0
  6
CONTINUOUS
  5
252
 10
404.191578
 20
254.28494
 30
0.0
 11
405.980951
 21
256.074313
 31
0.0
  0
LINE
  8
LC-003-005-----0
  6
CONTINUOUS
  5
253
 10
404.191578
 20
254.567783
 30
0.0
 11
405.698108
 21
256.074313
 31
0.0
  0
LINE
  8
LC-003-005-----0
  6
CONTINUOUS
  5
254
 10
404.191578
 20
254.850626
 30
0.0
 11
405.415266
 21
256.074313
 31
0.0
  0
LINE
  8
LC-003-005-----0
  6
CONTINUOUS
  5
255
 10
404.191578
 20
255.133469
 30
0.0
 11
405.132423
 21
256.074313
 31
0.0
  0
LINE
  8
LC-003-005-----0
  6
CONTINUOUS
  5
256
 10
404.191578
 20
255.416311
 30
0.0
 11
404.84958
 21
256.074313
 31
0.0
  0
LINE
  8
LC-003-005-----0
  6
CONTINUOUS
  5
257
 10
404.191578
 20
255.699154
 30
0.0
 11
404.566738
 21
256.074313
 31
0.0
  0
LINE
  8
LC-003-005-----0
  6
CONTINUOUS
  5
258
 10
404.191578
 20
255.981997
 30
0.0
 11
404.283895
 21
256.074313
 31
0.0
  0
ENDBLK
  8
0
  5
259
  0
BLOCK
  8
0
  5
25B
  2
*X23
 70
    65
 10
394.191578
 20
253.074313
 30
0.0
  3
*X23
  0
LINE
  8
LC-003-005-----0
  6
CONTINUOUS
  5
25C
 10
399.021153
 20
253.074313
 30
0.0
 11
399.191578
 21
253.244738
 31
0.0
  0
LINE
  8
LC-003-005-----0
  6
CONTINUOUS
  5
25D
 10
398.73831
 20
253.074313
 30
0.0
 11
399.191578
 21
253.527581
 31
0.0
  0
LINE
  8
LC-003-005-----0
  6
CONTINUOUS
  5
25E
 10
398.455468
 20
253.074313
 30
0.0
 11
399.191578
 21
253.810424
 31
0.0
  0
LINE
  8
LC-003-005-----0
  6
CONTINUOUS
  5
25F
 10
398.172625
 20
253.074313
 30
0.0
 11
399.191578
 21
254.093267
 31
0.0
  0
LINE
  8
LC-003-005-----0
  6
CONTINUOUS
  5
260
 10
397.889782
 20
253.074313
 30
0.0
 11
399.191578
 21
254.376109
 31
0.0
  0
LINE
  8
LC-003-005-----0
  6
CONTINUOUS
  5
261
 10
397.60694
 20
253.074313
 30
0.0
 11
399.191578
 21
254.658952
 31
0.0
  0
LINE
  8
LC-003-005-----0
  6
CONTINUOUS
  5
262
 10
397.324097
 20
253.074313
 30
0.0
 11
399.191578
 21
254.941795
 31
0.0
  0
LINE
  8
LC-003-005-----0
  6
CONTINUOUS
  5
263
 10
397.041254
 20
253.074313
 30
0.0
 11
399.191578
 21
255.224637
 31
0.0
  0
LINE
  8
LC-003-005-----0
  6
CONTINUOUS
  5
264
 10
396.758411
 20
253.074313
 30
0.0
 11
399.191578
 21
255.50748
 31
0.0
  0
LINE
  8
LC-003-005-----0
  6
CONTINUOUS
  5
265
 10
396.475569
 20
253.074313
 30
0.0
 11
399.191578
 21
255.790323
 31
0.0
  0
LINE
  8
LC-003-005-----0
  6
CONTINUOUS
  5
266
 10
396.192726
 20
253.074313
 30
0.0
 11
399.191578
 21
256.073166
 31
0.0
  0
LINE
  8
LC-003-005-----0
  6
CONTINUOUS
  5
267
 10
395.909883
 20
253.074313
 30
0.0
 11
398.909883
 21
256.074313
 31
0.0
  0
LINE
  8
LC-003-005-----0
  6
CONTINUOUS
  5
268
 10
395.627041
 20
253.074313
 30
0.0
 11
398.627041
 21
256.074313
 31
0.0
  0
LINE
  8
LC-003-005-----0
  6
CONTINUOUS
  5
269
 10
395.344198
 20
253.074313
 30
0.0
 11
398.344198
 21
256.074313
 31
0.0
  0
LINE
  8
LC-003-005-----0
  6
CONTINUOUS
  5
26A
 10
395.061355
 20
253.074313
 30
0.0
 11
398.061355
 21
256.074313
 31
0.0
  0
LINE
  8
LC-003-005-----0
  6
CONTINUOUS
  5
26B
 10
394.778512
 20
253.074313
 30
0.0
 11
397.778512
 21
256.074313
 31
0.0
  0
LINE
  8
LC-003-005-----0
  6
CONTINUOUS
  5
26C
 10
394.49567
 20
253.074313
 30
0.0
 11
397.49567
 21
256.074313
 31
0.0
  0
LINE
  8
LC-003-005-----0
  6
CONTINUOUS
  5
26D
 10
394.212827
 20
253.074313
 30
0.0
 11
397.212827
 21
256.074313
 31
0.0
  0
LINE
  8
LC-003-005-----0
  6
CONTINUOUS
  5
26E
 10
394.191578
 20
253.335907
 30
0.0
 11
396.929984
 21
256.074313
 31
0.0
  0
LINE
  8
LC-003-005-----0
  6
CONTINUOUS
  5
26F
 10
394.191578
 20
253.61875
 30
0.0
 11
396.647142
 21
256.074313
 31
0.0
  0
LINE
  8
LC-003-005-----0
  6
CONTINUOUS
  5
270
 10
394.191578
 20
253.901593
 30
0.0
 11
396.364299
 21
256.074313
 31
0.0
  0
LINE
  8
LC-003-005-----0
  6
CONTINUOUS
  5
271
 10
394.191578
 20
254.184435
 30
0.0
 11
396.081456
 21
256.074313
 31
0.0
  0
LINE
  8
LC-003-005-----0
  6
CONTINUOUS
  5
272
 10
394.191578
 20
254.467278
 30
0.0
 11
395.798613
 21
256.074313
 31
0.0
  0
LINE
  8
LC-003-005-----0
  6
CONTINUOUS
  5
273
 10
394.191578
 20
254.750121
 30
0.0
 11
395.515771
 21
256.074313
 31
0.0
  0
LINE
  8
LC-003-005-----0
  6
CONTINUOUS
  5
274
 10
394.191578
 20
255.032964
 30
0.0
 11
395.232928
 21
256.074313
 31
0.0
  0
LINE
  8
LC-003-005-----0
  6
CONTINUOUS
  5
275
 10
394.191578
 20
255.315806
 30
0.0
 11
394.950085
 21
256.074313
 31
0.0
  0
LINE
  8
LC-003-005-----0
  6
CONTINUOUS
  5
276
 10
394.191578
 20
255.598649
 30
0.0
 11
394.667243
 21
256.074313
 31
0.0
  0
LINE
  8
LC-003-005-----0
  6
CONTINUOUS
  5
277
 10
394.191578
 20
255.881492
 30
0.0
 11
394.3844
 21
256.074313
 31
0.0
  0
ENDBLK
  8
0
  5
278
  0
BLOCK
  8
0
  5
27A
  2
*X24
 70
    65
 10
384.191578
 20
253.074313
 30
0.0
  3
*X24
  0
LINE
  8
LC-003-005-----0
  6
CONTINUOUS
  5
27B
 10
389.121658
 20
253.074313
 30
0.0
 11
389.191578
 21
253.144233
 31
0.0
  0
LINE
  8
LC-003-005-----0
  6
CONTINUOUS
  5
27C
 10
388.838815
 20
253.074313
 30
0.0
 11
389.191578
 21
253.427076
 31
0.0
  0
LINE
  8
LC-003-005-----0
  6
CONTINUOUS
  5
27D
 10
388.555973
 20
253.074313
 30
0.0
 11
389.191578
 21
253.709919
 31
0.0
  0
LINE
  8
LC-003-005-----0
  6
CONTINUOUS
  5
27E
 10
388.27313
 20
253.074313
 30
0.0
 11
389.191578
 21
253.992761
 31
0.0
  0
LINE
  8
LC-003-005-----0
  6
CONTINUOUS
  5
27F
 10
387.990287
 20
253.074313
 30
0.0
 11
389.191578
 21
254.275604
 31
0.0
  0
LINE
  8
LC-003-005-----0
  6
CONTINUOUS
  5
280
 10
387.707445
 20
253.074313
 30
0.0
 11
389.191578
 21
254.558447
 31
0.0
  0
LINE
  8
LC-003-005-----0
  6
CONTINUOUS
  5
281
 10
387.424602
 20
253.074313
 30
0.0
 11
389.191578
 21
254.84129
 31
0.0
  0
LINE
  8
LC-003-005-----0
  6
CONTINUOUS
  5
282
 10
387.141759
 20
253.074313
 30
0.0
 11
389.191578
 21
255.124132
 31
0.0
  0
LINE
  8
LC-003-005-----0
  6
CONTINUOUS
  5
283
 10
386.858916
 20
253.074313
 30
0.0
 11
389.191578
 21
255.406975
 31
0.0
  0
LINE
  8
LC-003-005-----0
  6
CONTINUOUS
  5
284
 10
386.576074
 20
253.074313
 30
0.0
 11
389.191578
 21
255.689818
 31
0.0
  0
LINE
  8
LC-003-005-----0
  6
CONTINUOUS
  5
285
 10
386.293231
 20
253.074313
 30
0.0
 11
389.191578
 21
255.97266
 31
0.0
  0
LINE
  8
LC-003-005-----0
  6
CONTINUOUS
  5
286
 10
386.010388
 20
253.074313
 30
0.0
 11
389.010388
 21
256.074313
 31
0.0
  0
LINE
  8
LC-003-005-----0
  6
CONTINUOUS
  5
287
 10
385.727546
 20
253.074313
 30
0.0
 11
388.727546
 21
256.074313
 31
0.0
  0
LINE
  8
LC-003-005-----0
  6
CONTINUOUS
  5
288
 10
385.444703
 20
253.074313
 30
0.0
 11
388.444703
 21
256.074313
 31
0.0
  0
LINE
  8
LC-003-005-----0
  6
CONTINUOUS
  5
289
 10
385.16186
 20
253.074313
 30
0.0
 11
388.16186
 21
256.074313
 31
0.0
  0
LINE
  8
LC-003-005-----0
  6
CONTINUOUS
  5
28A
 10
384.879018
 20
253.074313
 30
0.0
 11
387.879018
 21
256.074313
 31
0.0
  0
LINE
  8
LC-003-005-----0
  6
CONTINUOUS
  5
28B
 10
384.596175
 20
253.074313
 30
0.0
 11
387.596175
 21
256.074313
 31
0.0
  0
LINE
  8
LC-003-005-----0
  6
CONTINUOUS
  5
28C
 10
384.313332
 20
253.074313
 30
0.0
 11
387.313332
 21
256.074313
 31
0.0
  0
LINE
  8
LC-003-005-----0
  6
CONTINUOUS
  5
28D
 10
384.191578
 20
253.235402
 30
0.0
 11
387.030489
 21
256.074313
 31
0.0
  0
LINE
  8
LC-003-005-----0
  6
CONTINUOUS
  5
28E
 10
384.191578
 20
253.518245
 30
0.0
 11
386.747647
 21
256.074313
 31
0.0
  0
LINE
  8
LC-003-005-----0
  6
CONTINUOUS
  5
28F
 10
384.191578
 20
253.801088
 30
0.0
 11
386.464804
 21
256.074313
 31
0.0
  0
LINE
  8
LC-003-005-----0
  6
CONTINUOUS
  5
290
 10
384.191578
 20
254.08393
 30
0.0
 11
386.181961
 21
256.074313
 31
0.0
  0
LINE
  8
LC-003-005-----0
  6
CONTINUOUS
  5
291
 10
384.191578
 20
254.366773
 30
0.0
 11
385.899119
 21
256.074313
 31
0.0
  0
LINE
  8
LC-003-005-----0
  6
CONTINUOUS
  5
292
 10
384.191578
 20
254.649616
 30
0.0
 11
385.616276
 21
256.074313
 31
0.0
  0
LINE
  8
LC-003-005-----0
  6
CONTINUOUS
  5
293
 10
384.191578
 20
254.932458
 30
0.0
 11
385.333433
 21
256.074313
 31
0.0
  0
LINE
  8
LC-003-005-----0
  6
CONTINUOUS
  5
294
 10
384.191578
 20
255.215301
 30
0.0
 11
385.05059
 21
256.074313
 31
0.0
  0
LINE
  8
LC-003-005-----0
  6
CONTINUOUS
  5
295
 10
384.191578
 20
255.498144
 30
0.0
 11
384.767748
 21
256.074313
 31
0.0
  0
LINE
  8
LC-003-005-----0
  6
CONTINUOUS
  5
296
 10
384.191578
 20
255.780987
 30
0.0
 11
384.484905
 21
256.074313
 31
0.0
  0
LINE
  8
LC-003-005-----0
  6
CONTINUOUS
  5
297
 10
384.191578
 20
256.063829
 30
0.0
 11
384.202062
 21
256.074313
 31
0.0
  0
ENDBLK
  8
0
  5
298
  0
BLOCK
  8
0
  5
29A
  2
*X25
 70
    65
 10
374.191578
 20
253.074313
 30
0.0
  3
*X25
  0
LINE
  8
LC-003-005-----0
  6
CONTINUOUS
  5
29B
 10
378.939321
 20
253.074313
 30
0.0
 11
379.191578
 21
253.326571
 31
0.0
  0
LINE
  8
LC-003-005-----0
  6
CONTINUOUS
  5
29C
 10
378.656478
 20
253.074313
 30
0.0
 11
379.191578
 21
253.609414
 31
0.0
  0
LINE
  8
LC-003-005-----0
  6
CONTINUOUS
  5
29D
 10
378.373635
 20
253.074313
 30
0.0
 11
379.191578
 21
253.892256
 31
0.0
  0
LINE
  8
LC-003-005-----0
  6
CONTINUOUS
  5
29E
 10
378.090792
 20
253.074313
 30
0.0
 11
379.191578
 21
254.175099
 31
0.0
  0
LINE
  8
LC-003-005-----0
  6
CONTINUOUS
  5
29F
 10
377.80795
 20
253.074313
 30
0.0
 11
379.191578
 21
254.457942
 31
0.0
  0
LINE
  8
LC-003-005-----0
  6
CONTINUOUS
  5
2A0
 10
377.525107
 20
253.074313
 30
0.0
 11
379.191578
 21
254.740785
 31
0.0
  0
LINE
  8
LC-003-005-----0
  6
CONTINUOUS
  5
2A1
 10
377.242264
 20
253.074313
 30
0.0
 11
379.191578
 21
255.023627
 31
0.0
  0
LINE
  8
LC-003-005-----0
  6
CONTINUOUS
  5
2A2
 10
376.959422
 20
253.074313
 30
0.0
 11
379.191578
 21
255.30647
 31
0.0
  0
LINE
  8
LC-003-005-----0
  6
CONTINUOUS
  5
2A3
 10
376.676579
 20
253.074313
 30
0.0
 11
379.191578
 21
255.589313
 31
0.0
  0
LINE
  8
LC-003-005-----0
  6
CONTINUOUS
  5
2A4
 10
376.393736
 20
253.074313
 30
0.0
 11
379.191578
 21
255.872155
 31
0.0
  0
LINE
  8
LC-003-005-----0
  6
CONTINUOUS
  5
2A5
 10
376.110893
 20
253.074313
 30
0.0
 11
379.110893
 21
256.074313
 31
0.0
  0
LINE
  8
LC-003-005-----0
  6
CONTINUOUS
  5
2A6
 10
375.828051
 20
253.074313
 30
0.0
 11
378.828051
 21
256.074313
 31
0.0
  0
LINE
  8
LC-003-005-----0
  6
CONTINUOUS
  5
2A7
 10
375.545208
 20
253.074313
 30
0.0
 11
378.545208
 21
256.074313
 31
0.0
  0
LINE
  8
LC-003-005-----0
  6
CONTINUOUS
  5
2A8
 10
375.262365
 20
253.074313
 30
0.0
 11
378.262365
 21
256.074313
 31
0.0
  0
LINE
  8
LC-003-005-----0
  6
CONTINUOUS
  5
2A9
 10
374.979523
 20
253.074313
 30
0.0
 11
377.979523
 21
256.074313
 31
0.0
  0
LINE
  8
LC-003-005-----0
  6
CONTINUOUS
  5
2AA
 10
374.69668
 20
253.074313
 30
0.0
 11
377.69668
 21
256.074313
 31
0.0
  0
LINE
  8
LC-003-005-----0
  6
CONTINUOUS
  5
2AB
 10
374.413837
 20
253.074313
 30
0.0
 11
377.413837
 21
256.074313
 31
0.0
  0
LINE
  8
LC-003-005-----0
  6
CONTINUOUS
  5
2AC
 10
374.191578
 20
253.134897
 30
0.0
 11
377.130994
 21
256.074313
 31
0.0
  0
LINE
  8
LC-003-005-----0
  6
CONTINUOUS
  5
2AD
 10
374.191578
 20
253.41774
 30
0.0
 11
376.848152
 21
256.074313
 31
0.0
  0
LINE
  8
LC-003-005-----0
  6
CONTINUOUS
  5
2AE
 10
374.191578
 20
253.700583
 30
0.0
 11
376.565309
 21
256.074313
 31
0.0
  0
LINE
  8
LC-003-005-----0
  6
CONTINUOUS
  5
2AF
 10
374.191578
 20
253.983425
 30
0.0
 11
376.282466
 21
256.074313
 31
0.0
  0
LINE
  8
LC-003-005-----0
  6
CONTINUOUS
  5
2B0
 10
374.191578
 20
254.266268
 30
0.0
 11
375.999624
 21
256.074313
 31
0.0
  0
LINE
  8
LC-003-005-----0
  6
CONTINUOUS
  5
2B1
 10
374.191578
 20
254.549111
 30
0.0
 11
375.716781
 21
256.074313
 31
0.0
  0
LINE
  8
LC-003-005-----0
  6
CONTINUOUS
  5
2B2
 10
374.191578
 20
254.831953
 30
0.0
 11
375.433938
 21
256.074313
 31
0.0
  0
LINE
  8
LC-003-005-----0
  6
CONTINUOUS
  5
2B3
 10
374.191578
 20
255.114796
 30
0.0
 11
375.151095
 21
256.074313
 31
0.0
  0
LINE
  8
LC-003-005-----0
  6
CONTINUOUS
  5
2B4
 10
374.191578
 20
255.397639
 30
0.0
 11
374.868253
 21
256.074313
 31
0.0
  0
LINE
  8
LC-003-005-----0
  6
CONTINUOUS
  5
2B5
 10
374.191578
 20
255.680482
 30
0.0
 11
374.58541
 21
256.074313
 31
0.0
  0
LINE
  8
LC-003-005-----0
  6
CONTINUOUS
  5
2B6
 10
374.191578
 20
255.963324
 30
0.0
 11
374.302567
 21
256.074313
 31
0.0
  0
ENDBLK
  8
0
  5
2B7
  0
BLOCK
  8
0
  5
2B9
  2
*X26
 70
    65
 10
364.191578
 20
253.074313
 30
0.0
  3
*X26
  0
LINE
  8
LC-003-005-----0
  6
CONTINUOUS
  5
2BA
 10
369.039826
 20
253.074313
 30
0.0
 11
369.191578
 21
253.226066
 31
0.0
  0
LINE
  8
LC-003-005-----0
  6
CONTINUOUS
  5
2BB
 10
368.756983
 20
253.074313
 30
0.0
 11
369.191578
 21
253.508909
 31
0.0
  0
LINE
  8
LC-003-005-----0
  6
CONTINUOUS
  5
2BC
 10
368.47414
 20
253.074313
 30
0.0
 11
369.191578
 21
253.791751
 31
0.0
  0
LINE
  8
LC-003-005-----0
  6
CONTINUOUS
  5
2BD
 10
368.191297
 20
253.074313
 30
0.0
 11
369.191578
 21
254.074594
 31
0.0
  0
LINE
  8
LC-003-005-----0
  6
CONTINUOUS
  5
2BE
 10
367.908455
 20
253.074313
 30
0.0
 11
369.191578
 21
254.357437
 31
0.0
  0
LINE
  8
LC-003-005-----0
  6
CONTINUOUS
  5
2BF
 10
367.625612
 20
253.074313
 30
0.0
 11
369.191578
 21
254.640279
 31
0.0
  0
LINE
  8
LC-003-005-----0
  6
CONTINUOUS
  5
2C0
 10
367.342769
 20
253.074313
 30
0.0
 11
369.191578
 21
254.923122
 31
0.0
  0
LINE
  8
LC-003-005-----0
  6
CONTINUOUS
  5
2C1
 10
367.059927
 20
253.074313
 30
0.0
 11
369.191578
 21
255.205965
 31
0.0
  0
LINE
  8
LC-003-005-----0
  6
CONTINUOUS
  5
2C2
 10
366.777084
 20
253.074313
 30
0.0
 11
369.191578
 21
255.488808
 31
0.0
  0
LINE
  8
LC-003-005-----0
  6
CONTINUOUS
  5
2C3
 10
366.494241
 20
253.074313
 30
0.0
 11
369.191578
 21
255.77165
 31
0.0
  0
LINE
  8
LC-003-005-----0
  6
CONTINUOUS
  5
2C4
 10
366.211398
 20
253.074313
 30
0.0
 11
369.191578
 21
256.054493
 31
0.0
  0
LINE
  8
LC-003-005-----0
  6
CONTINUOUS
  5
2C5
 10
365.928556
 20
253.074313
 30
0.0
 11
368.928556
 21
256.074313
 31
0.0
  0
LINE
  8
LC-003-005-----0
  6
CONTINUOUS
  5
2C6
 10
365.645713
 20
253.074313
 30
0.0
 11
368.645713
 21
256.074313
 31
0.0
  0
LINE
  8
LC-003-005-----0
  6
CONTINUOUS
  5
2C7
 10
365.36287
 20
253.074313
 30
0.0
 11
368.36287
 21
256.074313
 31
0.0
  0
LINE
  8
LC-003-005-----0
  6
CONTINUOUS
  5
2C8
 10
365.080028
 20
253.074313
 30
0.0
 11
368.080028
 21
256.074313
 31
0.0
  0
LINE
  8
LC-003-005-----0
  6
CONTINUOUS
  5
2C9
 10
364.797185
 20
253.074313
 30
0.0
 11
367.797185
 21
256.074313
 31
0.0
  0
LINE
  8
LC-003-005-----0
  6
CONTINUOUS
  5
2CA
 10
364.514342
 20
253.074313
 30
0.0
 11
367.514342
 21
256.074313
 31
0.0
  0
LINE
  8
LC-003-005-----0
  6
CONTINUOUS
  5
2CB
 10
364.231499
 20
253.074313
 30
0.0
 11
367.231499
 21
256.074313
 31
0.0
  0
LINE
  8
LC-003-005-----0
  6
CONTINUOUS
  5
2CC
 10
364.191578
 20
253.317235
 30
0.0
 11
366.948657
 21
256.074313
 31
0.0
  0
LINE
  8
LC-003-005-----0
  6
CONTINUOUS
  5
2CD
 10
364.191578
 20
253.600077
 30
0.0
 11
366.665814
 21
256.074313
 31
0.0
  0
LINE
  8
LC-003-005-----0
  6
CONTINUOUS
  5
2CE
 10
364.191578
 20
253.88292
 30
0.0
 11
366.382971
 21
256.074313
 31
0.0
  0
LINE
  8
LC-003-005-----0
  6
CONTINUOUS
  5
2CF
 10
364.191578
 20
254.165763
 30
0.0
 11
366.100129
 21
256.074313
 31
0.0
  0
LINE
  8
LC-003-005-----0
  6
CONTINUOUS
  5
2D0
 10
364.191578
 20
254.448606
 30
0.0
 11
365.817286
 21
256.074313
 31
0.0
  0
LINE
  8
LC-003-005-----0
  6
CONTINUOUS
  5
2D1
 10
364.191578
 20
254.731448
 30
0.0
 11
365.534443
 21
256.074313
 31
0.0
  0
LINE
  8
LC-003-005-----0
  6
CONTINUOUS
  5
2D2
 10
364.191578
 20
255.014291
 30
0.0
 11
365.251601
 21
256.074313
 31
0.0
  0
LINE
  8
LC-003-005-----0
  6
CONTINUOUS
  5
2D3
 10
364.191578
 20
255.297134
 30
0.0
 11
364.968758
 21
256.074313
 31
0.0
  0
LINE
  8
LC-003-005-----0
  6
CONTINUOUS
  5
2D4
 10
364.191578
 20
255.579976
 30
0.0
 11
364.685915
 21
256.074313
 31
0.0
  0
LINE
  8
LC-003-005-----0
  6
CONTINUOUS
  5
2D5
 10
364.191578
 20
255.862819
 30
0.0
 11
364.403072
 21
256.074313
 31
0.0
  0
ENDBLK
  8
0
  5
2D6
  0
BLOCK
  8
0
  5
2D8
  2
*X27
 70
    65
 10
354.191578
 20
253.074313
 30
0.0
  3
*X27
  0
LINE
  8
LC-003-005-----0
  6
CONTINUOUS
  5
2D9
 10
359.140331
 20
253.074313
 30
0.0
 11
359.191578
 21
253.125561
 31
0.0
  0
LINE
  8
LC-003-005-----0
  6
CONTINUOUS
  5
2DA
 10
358.857488
 20
253.074313
 30
0.0
 11
359.191578
 21
253.408404
 31
0.0
  0
LINE
  8
LC-003-005-----0
  6
CONTINUOUS
  5
2DB
 10
358.574645
 20
253.074313
 30
0.0
 11
359.191578
 21
253.691246
 31
0.0
  0
LINE
  8
LC-003-005-----0
  6
CONTINUOUS
  5
2DC
 10
358.291803
 20
253.074313
 30
0.0
 11
359.191578
 21
253.974089
 31
0.0
  0
LINE
  8
LC-003-005-----0
  6
CONTINUOUS
  5
2DD
 10
358.00896
 20
253.074313
 30
0.0
 11
359.191578
 21
254.256932
 31
0.0
  0
LINE
  8
LC-003-005-----0
  6
CONTINUOUS
  5
2DE
 10
357.726117
 20
253.074313
 30
0.0
 11
359.191578
 21
254.539774
 31
0.0
  0
LINE
  8
LC-003-005-----0
  6
CONTINUOUS
  5
2DF
 10
357.443274
 20
253.074313
 30
0.0
 11
359.191578
 21
254.822617
 31
0.0
  0
LINE
  8
LC-003-005-----0
  6
CONTINUOUS
  5
2E0
 10
357.160432
 20
253.074313
 30
0.0
 11
359.191578
 21
255.10546
 31
0.0
  0
LINE
  8
LC-003-005-----0
  6
CONTINUOUS
  5
2E1
 10
356.877589
 20
253.074313
 30
0.0
 11
359.191578
 21
255.388303
 31
0.0
  0
LINE
  8
LC-003-005-----0
  6
CONTINUOUS
  5
2E2
 10
356.594746
 20
253.074313
 30
0.0
 11
359.191578
 21
255.671145
 31
0.0
  0
LINE
  8
LC-003-005-----0
  6
CONTINUOUS
  5
2E3
 10
356.311904
 20
253.074313
 30
0.0
 11
359.191578
 21
255.953988
 31
0.0
  0
LINE
  8
LC-003-005-----0
  6
CONTINUOUS
  5
2E4
 10
356.029061
 20
253.074313
 30
0.0
 11
359.029061
 21
256.074313
 31
0.0
  0
LINE
  8
LC-003-005-----0
  6
CONTINUOUS
  5
2E5
 10
355.746218
 20
253.074313
 30
0.0
 11
358.746218
 21
256.074313
 31
0.0
  0
LINE
  8
LC-003-005-----0
  6
CONTINUOUS
  5
2E6
 10
355.463375
 20
253.074313
 30
0.0
 11
358.463375
 21
256.074313
 31
0.0
  0
LINE
  8
LC-003-005-----0
  6
CONTINUOUS
  5
2E7
 10
355.180533
 20
253.074313
 30
0.0
 11
358.180533
 21
256.074313
 31
0.0
  0
LINE
  8
LC-003-005-----0
  6
CONTINUOUS
  5
2E8
 10
354.89769
 20
253.074313
 30
0.0
 11
357.89769
 21
256.074313
 31
0.0
  0
LINE
  8
LC-003-005-----0
  6
CONTINUOUS
  5
2E9
 10
354.614847
 20
253.074313
 30
0.0
 11
357.614847
 21
256.074313
 31
0.0
  0
LINE
  8
LC-003-005-----0
  6
CONTINUOUS
  5
2EA
 10
354.332005
 20
253.074313
 30
0.0
 11
357.332005
 21
256.074313
 31
0.0
  0
LINE
  8
LC-003-005-----0
  6
CONTINUOUS
  5
2EB
 10
354.191578
 20
253.21673
 30
0.0
 11
357.049162
 21
256.074313
 31
0.0
  0
LINE
  8
LC-003-005-----0
  6
CONTINUOUS
  5
2EC
 10
354.191578
 20
253.499572
 30
0.0
 11
356.766319
 21
256.074313
 31
0.0
  0
LINE
  8
LC-003-005-----0
  6
CONTINUOUS
  5
2ED
 10
354.191578
 20
253.782415
 30
0.0
 11
356.483476
 21
256.074313
 31
0.0
  0
LINE
  8
LC-003-005-----0
  6
CONTINUOUS
  5
2EE
 10
354.191578
 20
254.065258
 30
0.0
 11
356.200634
 21
256.074313
 31
0.0
  0
LINE
  8
LC-003-005-----0
  6
CONTINUOUS
  5
2EF
 10
354.191578
 20
254.348101
 30
0.0
 11
355.917791
 21
256.074313
 31
0.0
  0
LINE
  8
LC-003-005-----0
  6
CONTINUOUS
  5
2F0
 10
354.191578
 20
254.630943
 30
0.0
 11
355.634948
 21
256.074313
 31
0.0
  0
LINE
  8
LC-003-005-----0
  6
CONTINUOUS
  5
2F1
 10
354.191578
 20
254.913786
 30
0.0
 11
355.352106
 21
256.074313
 31
0.0
  0
LINE
  8
LC-003-005-----0
  6
CONTINUOUS
  5
2F2
 10
354.191578
 20
255.196629
 30
0.0
 11
355.069263
 21
256.074313
 31
0.0
  0
LINE
  8
LC-003-005-----0
  6
CONTINUOUS
  5
2F3
 10
354.191578
 20
255.479471
 30
0.0
 11
354.78642
 21
256.074313
 31
0.0
  0
LINE
  8
LC-003-005-----0
  6
CONTINUOUS
  5
2F4
 10
354.191578
 20
255.762314
 30
0.0
 11
354.503577
 21
256.074313
 31
0.0
  0
LINE
  8
LC-003-005-----0
  6
CONTINUOUS
  5
2F5
 10
354.191578
 20
256.045157
 30
0.0
 11
354.220735
 21
256.074313
 31
0.0
  0
ENDBLK
  8
0
  5
2F6
  0
BLOCK
  8
0
  5
2F8
  2
*X28
 70
    65
 10
344.191578
 20
253.074313
 30
0.0
  3
*X28
  0
LINE
  8
LC-003-005-----0
  6
CONTINUOUS
  5
2F9
 10
348.957993
 20
253.074313
 30
0.0
 11
349.191578
 21
253.307899
 31
0.0
  0
LINE
  8
LC-003-005-----0
  6
CONTINUOUS
  5
2FA
 10
348.67515
 20
253.074313
 30
0.0
 11
349.191578
 21
253.590741
 31
0.0
  0
LINE
  8
LC-003-005-----0
  6
CONTINUOUS
  5
2FB
 10
348.392308
 20
253.074313
 30
0.0
 11
349.191578
 21
253.873584
 31
0.0
  0
LINE
  8
LC-003-005-----0
  6
CONTINUOUS
  5
2FC
 10
348.109465
 20
253.074313
 30
0.0
 11
349.191578
 21
254.156427
 31
0.0
  0
LINE
  8
LC-003-005-----0
  6
CONTINUOUS
  5
2FD
 10
347.826622
 20
253.074313
 30
0.0
 11
349.191578
 21
254.439269
 31
0.0
  0
LINE
  8
LC-003-005-----0
  6
CONTINUOUS
  5
2FE
 10
347.543779
 20
253.074313
 30
0.0
 11
349.191578
 21
254.722112
 31
0.0
  0
LINE
  8
LC-003-005-----0
  6
CONTINUOUS
  5
2FF
 10
347.260937
 20
253.074313
 30
0.0
 11
349.191578
 21
255.004955
 31
0.0
  0
LINE
  8
LC-003-005-----0
  6
CONTINUOUS
  5
300
 10
346.978094
 20
253.074313
 30
0.0
 11
349.191578
 21
255.287798
 31
0.0
  0
LINE
  8
LC-003-005-----0
  6
CONTINUOUS
  5
301
 10
346.695251
 20
253.074313
 30
0.0
 11
349.191578
 21
255.57064
 31
0.0
  0
LINE
  8
LC-003-005-----0
  6
CONTINUOUS
  5
302
 10
346.412409
 20
253.074313
 30
0.0
 11
349.191578
 21
255.853483
 31
0.0
  0
LINE
  8
LC-003-005-----0
  6
CONTINUOUS
  5
303
 10
346.129566
 20
253.074313
 30
0.0
 11
349.129566
 21
256.074313
 31
0.0
  0
LINE
  8
LC-003-005-----0
  6
CONTINUOUS
  5
304
 10
345.846723
 20
253.074313
 30
0.0
 11
348.846723
 21
256.074313
 31
0.0
  0
LINE
  8
LC-003-005-----0
  6
CONTINUOUS
  5
305
 10
345.56388
 20
253.074313
 30
0.0
 11
348.56388
 21
256.074313
 31
0.0
  0
LINE
  8
LC-003-005-----0
  6
CONTINUOUS
  5
306
 10
345.281038
 20
253.074313
 30
0.0
 11
348.281038
 21
256.074313
 31
0.0
  0
LINE
  8
LC-003-005-----0
  6
CONTINUOUS
  5
307
 10
344.998195
 20
253.074313
 30
0.0
 11
347.998195
 21
256.074313
 31
0.0
  0
LINE
  8
LC-003-005-----0
  6
CONTINUOUS
  5
308
 10
344.715352
 20
253.074313
 30
0.0
 11
347.715352
 21
256.074313
 31
0.0
  0
LINE
  8
LC-003-005-----0
  6
CONTINUOUS
  5
309
 10
344.43251
 20
253.074313
 30
0.0
 11
347.43251
 21
256.074313
 31
0.0
  0
LINE
  8
LC-003-005-----0
  6
CONTINUOUS
  5
30A
 10
344.191578
 20
253.116225
 30
0.0
 11
347.149667
 21
256.074313
 31
0.0
  0
LINE
  8
LC-003-005-----0
  6
CONTINUOUS
  5
30B
 10
344.191578
 20
253.399067
 30
0.0
 11
346.866824
 21
256.074313
 31
0.0
  0
LINE
  8
LC-003-005-----0
  6
CONTINUOUS
  5
30C
 10
344.191578
 20
253.68191
 30
0.0
 11
346.583981
 21
256.074313
 31
0.0
  0
LINE
  8
LC-003-005-----0
  6
CONTINUOUS
  5
30D
 10
344.191578
 20
253.964753
 30
0.0
 11
346.301139
 21
256.074313
 31
0.0
  0
LINE
  8
LC-003-005-----0
  6
CONTINUOUS
  5
30E
 10
344.191578
 20
254.247595
 30
0.0
 11
346.018296
 21
256.074313
 31
0.0
  0
LINE
  8
LC-003-005-----0
  6
CONTINUOUS
  5
30F
 10
344.191578
 20
254.530438
 30
0.0
 11
345.735453
 21
256.074313
 31
0.0
  0
LINE
  8
LC-003-005-----0
  6
CONTINUOUS
  5
310
 10
344.191578
 20
254.813281
 30
0.0
 11
345.452611
 21
256.074313
 31
0.0
  0
LINE
  8
LC-003-005-----0
  6
CONTINUOUS
  5
311
 10
344.191578
 20
255.096124
 30
0.0
 11
345.169768
 21
256.074313
 31
0.0
  0
LINE
  8
LC-003-005-----0
  6
CONTINUOUS
  5
312
 10
344.191578
 20
255.378966
 30
0.0
 11
344.886925
 21
256.074313
 31
0.0
  0
LINE
  8
LC-003-005-----0
  6
CONTINUOUS
  5
313
 10
344.191578
 20
255.661809
 30
0.0
 11
344.604082
 21
256.074313
 31
0.0
  0
LINE
  8
LC-003-005-----0
  6
CONTINUOUS
  5
314
 10
344.191578
 20
255.944652
 30
0.0
 11
344.32124
 21
256.074313
 31
0.0
  0
ENDBLK
  8
0
  5
315
  0
BLOCK
  8
0
  5
317
  2
*X29
 70
    65
 10
334.191578
 20
253.074313
 30
0.0
  3
*X29
  0
LINE
  8
LC-003-005-----0
  6
CONTINUOUS
  5
318
 10
339.058498
 20
253.074313
 30
0.0
 11
339.191578
 21
253.207393
 31
0.0
  0
LINE
  8
LC-003-005-----0
  6
CONTINUOUS
  5
319
 10
338.775655
 20
253.074313
 30
0.0
 11
339.191578
 21
253.490236
 31
0.0
  0
LINE
  8
LC-003-005-----0
  6
CONTINUOUS
  5
31A
 10
338.492813
 20
253.074313
 30
0.0
 11
339.191578
 21
253.773079
 31
0.0
  0
LINE
  8
LC-003-005-----0
  6
CONTINUOUS
  5
31B
 10
338.20997
 20
253.074313
 30
0.0
 11
339.191578
 21
254.055922
 31
0.0
  0
LINE
  8
LC-003-005-----0
  6
CONTINUOUS
  5
31C
 10
337.927127
 20
253.074313
 30
0.0
 11
339.191578
 21
254.338764
 31
0.0
  0
LINE
  8
LC-003-005-----0
  6
CONTINUOUS
  5
31D
 10
337.644285
 20
253.074313
 30
0.0
 11
339.191578
 21
254.621607
 31
0.0
  0
LINE
  8
LC-003-005-----0
  6
CONTINUOUS
  5
31E
 10
337.361442
 20
253.074313
 30
0.0
 11
339.191578
 21
254.90445
 31
0.0
  0
LINE
  8
LC-003-005-----0
  6
CONTINUOUS
  5
31F
 10
337.078599
 20
253.074313
 30
0.0
 11
339.191578
 21
255.187292
 31
0.0
  0
LINE
  8
LC-003-005-----0
  6
CONTINUOUS
  5
320
 10
336.795756
 20
253.074313
 30
0.0
 11
339.191578
 21
255.470135
 31
0.0
  0
LINE
  8
LC-003-005-----0
  6
CONTINUOUS
  5
321
 10
336.512914
 20
253.074313
 30
0.0
 11
339.191578
 21
255.752978
 31
0.0
  0
LINE
  8
LC-003-005-----0
  6
CONTINUOUS
  5
322
 10
336.230071
 20
253.074313
 30
0.0
 11
339.191578
 21
256.035821
 31
0.0
  0
LINE
  8
LC-003-005-----0
  6
CONTINUOUS
  5
323
 10
335.947228
 20
253.074313
 30
0.0
 11
338.947228
 21
256.074313
 31
0.0
  0
LINE
  8
LC-003-005-----0
  6
CONTINUOUS
  5
324
 10
335.664386
 20
253.074313
 30
0.0
 11
338.664386
 21
256.074313
 31
0.0
  0
LINE
  8
LC-003-005-----0
  6
CONTINUOUS
  5
325
 10
335.381543
 20
253.074313
 30
0.0
 11
338.381543
 21
256.074313
 31
0.0
  0
LINE
  8
LC-003-005-----0
  6
CONTINUOUS
  5
326
 10
335.0987
 20
253.074313
 30
0.0
 11
338.0987
 21
256.074313
 31
0.0
  0
LINE
  8
LC-003-005-----0
  6
CONTINUOUS
  5
327
 10
334.815857
 20
253.074313
 30
0.0
 11
337.815857
 21
256.074313
 31
0.0
  0
LINE
  8
LC-003-005-----0
  6
CONTINUOUS
  5
328
 10
334.533015
 20
253.074313
 30
0.0
 11
337.533015
 21
256.074313
 31
0.0
  0
LINE
  8
LC-003-005-----0
  6
CONTINUOUS
  5
329
 10
334.250172
 20
253.074313
 30
0.0
 11
337.250172
 21
256.074313
 31
0.0
  0
LINE
  8
LC-003-005-----0
  6
CONTINUOUS
  5
32A
 10
334.191578
 20
253.298562
 30
0.0
 11
336.967329
 21
256.074313
 31
0.0
  0
LINE
  8
LC-003-005-----0
  6
CONTINUOUS
  5
32B
 10
334.191578
 20
253.581405
 30
0.0
 11
336.684487
 21
256.074313
 31
0.0
  0
LINE
  8
LC-003-005-----0
  6
CONTINUOUS
  5
32C
 10
334.191578
 20
253.864248
 30
0.0
 11
336.401644
 21
256.074313
 31
0.0
  0
LINE
  8
LC-003-005-----0
  6
CONTINUOUS
  5
32D
 10
334.191578
 20
254.14709
 30
0.0
 11
336.118801
 21
256.074313
 31
0.0
  0
LINE
  8
LC-003-005-----0
  6
CONTINUOUS
  5
32E
 10
334.191578
 20
254.429933
 30
0.0
 11
335.835958
 21
256.074313
 31
0.0
  0
LINE
  8
LC-003-005-----0
  6
CONTINUOUS
  5
32F
 10
334.191578
 20
254.712776
 30
0.0
 11
335.553116
 21
256.074313
 31
0.0
  0
LINE
  8
LC-003-005-----0
  6
CONTINUOUS
  5
330
 10
334.191578
 20
254.995619
 30
0.0
 11
335.270273
 21
256.074313
 31
0.0
  0
LINE
  8
LC-003-005-----0
  6
CONTINUOUS
  5
331
 10
334.191578
 20
255.278461
 30
0.0
 11
334.98743
 21
256.074313
 31
0.0
  0
LINE
  8
LC-003-005-----0
  6
CONTINUOUS
  5
332
 10
334.191578
 20
255.561304
 30
0.0
 11
334.704588
 21
256.074313
 31
0.0
  0
LINE
  8
LC-003-005-----0
  6
CONTINUOUS
  5
333
 10
334.191578
 20
255.844147
 30
0.0
 11
334.421745
 21
256.074313
 31
0.0
  0
ENDBLK
  8
0
  5
334
  0
BLOCK
  8
0
  5
336
  2
*X30
 70
    65
 10
314.191578
 20
250.478229
 30
0.0
  3
*X30
  0
LINE
  8
LC-003-005-----0
  6
CONTINUOUS
  5
337
 10
318.974122
 20
251.9404
 30
0.0
 11
319.191578
 21
252.157855
 31
0.0
  0
LINE
  8
LC-003-005-----0
  6
CONTINUOUS
  5
338
 10
318.566726
 20
251.815846
 30
0.0
 11
319.191578
 21
252.440698
 31
0.0
  0
LINE
  8
LC-003-005-----0
  6
CONTINUOUS
  5
339
 10
318.15933
 20
251.691292
 30
0.0
 11
319.191578
 21
252.723541
 31
0.0
  0
LINE
  8
LC-003-005-----0
  6
CONTINUOUS
  5
33A
 10
317.751934
 20
251.566739
 30
0.0
 11
319.191578
 21
253.006383
 31
0.0
  0
LINE
  8
LC-003-005-----0
  6
CONTINUOUS
  5
33B
 10
317.344537
 20
251.442185
 30
0.0
 11
319.191578
 21
253.289226
 31
0.0
  0
LINE
  8
LC-003-005-----0
  6
CONTINUOUS
  5
33C
 10
316.937141
 20
251.317632
 30
0.0
 11
319.191578
 21
253.572069
 31
0.0
  0
LINE
  8
LC-003-005-----0
  6
CONTINUOUS
  5
33D
 10
316.529745
 20
251.193078
 30
0.0
 11
319.191578
 21
253.854911
 31
0.0
  0
LINE
  8
LC-003-005-----0
  6
CONTINUOUS
  5
33E
 10
316.122349
 20
251.068525
 30
0.0
 11
319.191578
 21
254.137754
 31
0.0
  0
LINE
  8
LC-003-005-----0
  6
CONTINUOUS
  5
33F
 10
315.714952
 20
250.943971
 30
0.0
 11
319.191578
 21
254.420597
 31
0.0
  0
LINE
  8
LC-003-005-----0
  6
CONTINUOUS
  5
340
 10
315.307556
 20
250.819418
 30
0.0
 11
319.191578
 21
254.70344
 31
0.0
  0
LINE
  8
LC-003-005-----0
  6
CONTINUOUS
  5
341
 10
314.90016
 20
250.694864
 30
0.0
 11
319.191578
 21
254.986282
 31
0.0
  0
LINE
  8
LC-003-005-----0
  6
CONTINUOUS
  5
342
 10
314.492764
 20
250.570311
 30
0.0
 11
319.011292
 21
255.088839
 31
0.0
  0
LINE
  8
LC-003-005-----0
  6
CONTINUOUS
  5
343
 10
314.191578
 20
250.551968
 30
0.0
 11
318.603895
 21
254.964285
 31
0.0
  0
LINE
  8
LC-003-005-----0
  6
CONTINUOUS
  5
344
 10
314.191578
 20
250.83481
 30
0.0
 11
318.196499
 21
254.839732
 31
0.0
  0
LINE
  8
LC-003-005-----0
  6
CONTINUOUS
  5
345
 10
314.191578
 20
251.117653
 30
0.0
 11
317.789103
 21
254.715178
 31
0.0
  0
LINE
  8
LC-003-005-----0
  6
CONTINUOUS
  5
346
 10
314.191578
 20
251.400496
 30
0.0
 11
317.381707
 21
254.590624
 31
0.0
  0
LINE
  8
LC-003-005-----0
  6
CONTINUOUS
  5
347
 10
314.191578
 20
251.683339
 30
0.0
 11
316.97431
 21
254.466071
 31
0.0
  0
LINE
  8
LC-003-005-----0
  6
CONTINUOUS
  5
348
 10
314.191578
 20
251.966181
 30
0.0
 11
316.566914
 21
254.341517
 31
0.0
  0
LINE
  8
LC-003-005-----0
  6
CONTINUOUS
  5
349
 10
314.191578
 20
252.249024
 30
0.0
 11
316.159518
 21
254.216964
 31
0.0
  0
LINE
  8
LC-003-005-----0
  6
CONTINUOUS
  5
34A
 10
314.191578
 20
252.531867
 30
0.0
 11
315.752122
 21
254.09241
 31
0.0
  0
LINE
  8
LC-003-005-----0
  6
CONTINUOUS
  5
34B
 10
314.191578
 20
252.814709
 30
0.0
 11
315.344725
 21
253.967857
 31
0.0
  0
LINE
  8
LC-003-005-----0
  6
CONTINUOUS
  5
34C
 10
314.191578
 20
253.097552
 30
0.0
 11
314.937329
 21
253.843303
 31
0.0
  0
LINE
  8
LC-003-005-----0
  6
CONTINUOUS
  5
34D
 10
314.191578
 20
253.380395
 30
0.0
 11
314.529933
 21
253.71875
 31
0.0
  0
ENDBLK
  8
0
  5
34E
  0
BLOCK
  8
0
  5
350
  2
*X31
 70
    65
 10
304.191578
 20
247.420922
 30
0.0
  3
*X31
  0
LINE
  8
LC-003-005-----0
  6
CONTINUOUS
  5
351
 10
308.789216
 20
248.826561
 30
0.0
 11
309.191578
 21
249.228923
 31
0.0
  0
LINE
  8
LC-003-005-----0
  6
CONTINUOUS
  5
352
 10
308.38182
 20
248.702008
 30
0.0
 11
309.191578
 21
249.511766
 31
0.0
  0
LINE
  8
LC-003-005-----0
  6
CONTINUOUS
  5
353
 10
307.974424
 20
248.577454
 30
0.0
 11
309.191578
 21
249.794608
 31
0.0
  0
LINE
  8
LC-003-005-----0
  6
CONTINUOUS
  5
354
 10
307.567028
 20
248.452901
 30
0.0
 11
309.191578
 21
250.077451
 31
0.0
  0
LINE
  8
LC-003-005-----0
  6
CONTINUOUS
  5
355
 10
307.159631
 20
248.328347
 30
0.0
 11
309.191578
 21
250.360294
 31
0.0
  0
LINE
  8
LC-003-005-----0
  6
CONTINUOUS
  5
356
 10
306.752235
 20
248.203794
 30
0.0
 11
309.191578
 21
250.643137
 31
0.0
  0
LINE
  8
LC-003-005-----0
  6
CONTINUOUS
  5
357
 10
306.344839
 20
248.07924
 30
0.0
 11
309.191578
 21
250.925979
 31
0.0
  0
LINE
  8
LC-003-005-----0
  6
CONTINUOUS
  5
358
 10
305.937443
 20
247.954687
 30
0.0
 11
309.191578
 21
251.208822
 31
0.0
  0
LINE
  8
LC-003-005-----0
  6
CONTINUOUS
  5
359
 10
305.530046
 20
247.830133
 30
0.0
 11
309.191578
 21
251.491665
 31
0.0
  0
LINE
  8
LC-003-005-----0
  6
CONTINUOUS
  5
35A
 10
305.12265
 20
247.705579
 30
0.0
 11
309.191578
 21
251.774507
 31
0.0
  0
LINE
  8
LC-003-005-----0
  6
CONTINUOUS
  5
35B
 10
304.715254
 20
247.581026
 30
0.0
 11
309.191578
 21
252.05735
 31
0.0
  0
LINE
  8
LC-003-005-----0
  6
CONTINUOUS
  5
35C
 10
304.307858
 20
247.456472
 30
0.0
 11
308.826385
 21
251.975
 31
0.0
  0
LINE
  8
LC-003-005-----0
  6
CONTINUOUS
  5
35D
 10
304.191578
 20
247.623036
 30
0.0
 11
308.418989
 21
251.850447
 31
0.0
  0
LINE
  8
LC-003-005-----0
  6
CONTINUOUS
  5
35E
 10
304.191578
 20
247.905878
 30
0.0
 11
308.011593
 21
251.725893
 31
0.0
  0
LINE
  8
LC-003-005-----0
  6
CONTINUOUS
  5
35F
 10
304.191578
 20
248.188721
 30
0.0
 11
307.604197
 21
251.60134
 31
0.0
  0
LINE
  8
LC-003-005-----0
  6
CONTINUOUS
  5
360
 10
304.191578
 20
248.471564
 30
0.0
 11
307.196801
 21
251.476786
 31
0.0
  0
LINE
  8
LC-003-005-----0
  6
CONTINUOUS
  5
361
 10
304.191578
 20
248.754406
 30
0.0
 11
306.789404
 21
251.352233
 31
0.0
  0
LINE
  8
LC-003-005-----0
  6
CONTINUOUS
  5
362
 10
304.191578
 20
249.037249
 30
0.0
 11
306.382008
 21
251.227679
 31
0.0
  0
LINE
  8
LC-003-005-----0
  6
CONTINUOUS
  5
363
 10
304.191578
 20
249.320092
 30
0.0
 11
305.974612
 21
251.103126
 31
0.0
  0
LINE
  8
LC-003-005-----0
  6
CONTINUOUS
  5
364
 10
304.191578
 20
249.602935
 30
0.0
 11
305.567216
 21
250.978572
 31
0.0
  0
LINE
  8
LC-003-005-----0
  6
CONTINUOUS
  5
365
 10
304.191578
 20
249.885777
 30
0.0
 11
305.159819
 21
250.854019
 31
0.0
  0
LINE
  8
LC-003-005-----0
  6
CONTINUOUS
  5
366
 10
304.191578
 20
250.16862
 30
0.0
 11
304.752423
 21
250.729465
 31
0.0
  0
LINE
  8
LC-003-005-----0
  6
CONTINUOUS
  5
367
 10
304.191578
 20
250.451463
 30
0.0
 11
304.345027
 21
250.604911
 31
0.0
  0
ENDBLK
  8
0
  5
368
  0
BLOCK
  8
0
  5
36A
  2
*X32
 70
    65
 10
294.191578
 20
246.580013
 30
0.0
  3
*X32
  0
LINE
  8
LC-003-005-----0
  6
CONTINUOUS
  5
36B
 10
299.188758
 20
246.580013
 30
0.0
 11
299.191578
 21
246.582834
 31
0.0
  0
LINE
  8
LC-003-005-----0
  6
CONTINUOUS
  5
36C
 10
298.905915
 20
246.580013
 30
0.0
 11
299.191578
 21
246.865676
 31
0.0
  0
LINE
  8
LC-003-005-----0
  6
CONTINUOUS
  5
36D
 10
298.623072
 20
246.580013
 30
0.0
 11
299.191578
 21
247.148519
 31
0.0
  0
LINE
  8
LC-003-005-----0
  6
CONTINUOUS
  5
36E
 10
298.34023
 20
246.580013
 30
0.0
 11
299.191578
 21
247.431362
 31
0.0
  0
LINE
  8
LC-003-005-----0
  6
CONTINUOUS
  5
36F
 10
298.057387
 20
246.580013
 30
0.0
 11
299.191578
 21
247.714204
 31
0.0
  0
LINE
  8
LC-003-005-----0
  6
CONTINUOUS
  5
370
 10
297.774544
 20
246.580013
 30
0.0
 11
299.191578
 21
247.997047
 31
0.0
  0
LINE
  8
LC-003-005-----0
  6
CONTINUOUS
  5
371
 10
297.491701
 20
246.580013
 30
0.0
 11
299.191578
 21
248.27989
 31
0.0
  0
LINE
  8
LC-003-005-----0
  6
CONTINUOUS
  5
372
 10
297.208859
 20
246.580013
 30
0.0
 11
299.191578
 21
248.562733
 31
0.0
  0
LINE
  8
LC-003-005-----0
  6
CONTINUOUS
  5
373
 10
296.926016
 20
246.580013
 30
0.0
 11
299.191578
 21
248.845575
 31
0.0
  0
LINE
  8
LC-003-005-----0
  6
CONTINUOUS
  5
374
 10
296.643173
 20
246.580013
 30
0.0
 11
299.191578
 21
249.128418
 31
0.0
  0
LINE
  8
LC-003-005-----0
  6
CONTINUOUS
  5
375
 10
296.360331
 20
246.580013
 30
0.0
 11
299.191578
 21
249.411261
 31
0.0
  0
LINE
  8
LC-003-005-----0
  6
CONTINUOUS
  5
376
 10
296.077488
 20
246.580013
 30
0.0
 11
299.077488
 21
249.580013
 31
0.0
  0
LINE
  8
LC-003-005-----0
  6
CONTINUOUS
  5
377
 10
295.794645
 20
246.580013
 30
0.0
 11
298.794645
 21
249.580013
 31
0.0
  0
LINE
  8
LC-003-005-----0
  6
CONTINUOUS
  5
378
 10
295.511802
 20
246.580013
 30
0.0
 11
298.511802
 21
249.580013
 31
0.0
  0
LINE
  8
LC-003-005-----0
  6
CONTINUOUS
  5
379
 10
295.22896
 20
246.580013
 30
0.0
 11
298.22896
 21
249.580013
 31
0.0
  0
LINE
  8
LC-003-005-----0
  6
CONTINUOUS
  5
37A
 10
294.946117
 20
246.580013
 30
0.0
 11
297.946117
 21
249.580013
 31
0.0
  0
LINE
  8
LC-003-005-----0
  6
CONTINUOUS
  5
37B
 10
294.663274
 20
246.580013
 30
0.0
 11
297.663274
 21
249.580013
 31
0.0
  0
LINE
  8
LC-003-005-----0
  6
CONTINUOUS
  5
37C
 10
294.380432
 20
246.580013
 30
0.0
 11
297.380432
 21
249.580013
 31
0.0
  0
LINE
  8
LC-003-005-----0
  6
CONTINUOUS
  5
37D
 10
294.191578
 20
246.674002
 30
0.0
 11
297.097589
 21
249.580013
 31
0.0
  0
LINE
  8
LC-003-005-----0
  6
CONTINUOUS
  5
37E
 10
294.191578
 20
246.956845
 30
0.0
 11
296.814746
 21
249.580013
 31
0.0
  0
LINE
  8
LC-003-005-----0
  6
CONTINUOUS
  5
37F
 10
294.191578
 20
247.239688
 30
0.0
 11
296.531903
 21
249.580013
 31
0.0
  0
LINE
  8
LC-003-005-----0
  6
CONTINUOUS
  5
380
 10
294.191578
 20
247.52253
 30
0.0
 11
296.249061
 21
249.580013
 31
0.0
  0
LINE
  8
LC-003-005-----0
  6
CONTINUOUS
  5
381
 10
294.191578
 20
247.805373
 30
0.0
 11
295.966218
 21
249.580013
 31
0.0
  0
LINE
  8
LC-003-005-----0
  6
CONTINUOUS
  5
382
 10
294.191578
 20
248.088216
 30
0.0
 11
295.683375
 21
249.580013
 31
0.0
  0
LINE
  8
LC-003-005-----0
  6
CONTINUOUS
  5
383
 10
294.191578
 20
248.371059
 30
0.0
 11
295.400533
 21
249.580013
 31
0.0
  0
LINE
  8
LC-003-005-----0
  6
CONTINUOUS
  5
384
 10
294.191578
 20
248.653901
 30
0.0
 11
295.11769
 21
249.580013
 31
0.0
  0
LINE
  8
LC-003-005-----0
  6
CONTINUOUS
  5
385
 10
294.191578
 20
248.936744
 30
0.0
 11
294.834847
 21
249.580013
 31
0.0
  0
LINE
  8
LC-003-005-----0
  6
CONTINUOUS
  5
386
 10
294.191578
 20
249.219587
 30
0.0
 11
294.552004
 21
249.580013
 31
0.0
  0
LINE
  8
LC-003-005-----0
  6
CONTINUOUS
  5
387
 10
294.191578
 20
249.502429
 30
0.0
 11
294.269162
 21
249.580013
 31
0.0
  0
ENDBLK
  8
0
  5
388
  0
BLOCK
  8
0
  5
38A
  2
*X33
 70
    65
 10
281.191201
 20
248.079323
 30
0.0
  3
*X33
  0
LINE
  8
LC-003-005-----0
  6
CONTINUOUS
  5
38B
 10
283.434662
 20
248.079323
 30
0.0
 11
283.441578
 21
248.086239
 31
0.0
  0
LINE
  8
LC-003-005-----0
  6
CONTINUOUS
  5
38C
 10
283.151819
 20
248.079323
 30
0.0
 11
283.441578
 21
248.369082
 31
0.0
  0
LINE
  8
LC-003-005-----0
  6
CONTINUOUS
  5
38D
 10
282.868976
 20
248.079323
 30
0.0
 11
283.441578
 21
248.651924
 31
0.0
  0
LINE
  8
LC-003-005-----0
  6
CONTINUOUS
  5
38E
 10
282.586134
 20
248.079323
 30
0.0
 11
283.441578
 21
248.934767
 31
0.0
  0
LINE
  8
LC-003-005-----0
  6
CONTINUOUS
  5
38F
 10
282.303291
 20
248.079323
 30
0.0
 11
283.441578
 21
249.21761
 31
0.0
  0
LINE
  8
LC-003-005-----0
  6
CONTINUOUS
  5
390
 10
282.020448
 20
248.079323
 30
0.0
 11
283.441578
 21
249.500453
 31
0.0
  0
LINE
  8
LC-003-005-----0
  6
CONTINUOUS
  5
391
 10
281.737606
 20
248.079323
 30
0.0
 11
283.441578
 21
249.783295
 31
0.0
  0
LINE
  8
LC-003-005-----0
  6
CONTINUOUS
  5
392
 10
281.454763
 20
248.079323
 30
0.0
 11
283.441578
 21
250.066138
 31
0.0
  0
LINE
  8
LC-003-005-----0
  6
CONTINUOUS
  5
393
 10
281.191201
 20
248.098603
 30
0.0
 11
283.441578
 21
250.348981
 31
0.0
  0
LINE
  8
LC-003-005-----0
  6
CONTINUOUS
  5
394
 10
281.191201
 20
248.381446
 30
0.0
 11
283.441578
 21
250.631823
 31
0.0
  0
LINE
  8
LC-003-005-----0
  6
CONTINUOUS
  5
395
 10
281.191201
 20
248.664289
 30
0.0
 11
283.441578
 21
250.914666
 31
0.0
  0
LINE
  8
LC-003-005-----0
  6
CONTINUOUS
  5
396
 10
281.191201
 20
248.947132
 30
0.0
 11
283.323392
 21
251.079323
 31
0.0
  0
LINE
  8
LC-003-005-----0
  6
CONTINUOUS
  5
397
 10
281.191201
 20
249.229974
 30
0.0
 11
283.040549
 21
251.079323
 31
0.0
  0
LINE
  8
LC-003-005-----0
  6
CONTINUOUS
  5
398
 10
281.191201
 20
249.512817
 30
0.0
 11
282.757707
 21
251.079323
 31
0.0
  0
LINE
  8
LC-003-005-----0
  6
CONTINUOUS
  5
399
 10
281.191201
 20
249.79566
 30
0.0
 11
282.474864
 21
251.079323
 31
0.0
  0
LINE
  8
LC-003-005-----0
  6
CONTINUOUS
  5
39A
 10
281.191201
 20
250.078502
 30
0.0
 11
282.192021
 21
251.079323
 31
0.0
  0
LINE
  8
LC-003-005-----0
  6
CONTINUOUS
  5
39B
 10
281.191201
 20
250.361345
 30
0.0
 11
281.909178
 21
251.079323
 31
0.0
  0
LINE
  8
LC-003-005-----0
  6
CONTINUOUS
  5
39C
 10
281.191201
 20
250.644188
 30
0.0
 11
281.626336
 21
251.079323
 31
0.0
  0
LINE
  8
LC-003-005-----0
  6
CONTINUOUS
  5
39D
 10
281.191201
 20
250.927031
 30
0.0
 11
281.343493
 21
251.079323
 31
0.0
  0
ENDBLK
  8
0
  5
39E
  0
BLOCK
  8
0
  5
3A0
  2
*X34
 70
    65
 10
324.191578
 20
252.862285
 30
0.0
  3
*X34
  0
LINE
  8
LC-003-005-----0
  6
CONTINUOUS
  5
3A1
 10
329.107572
 20
253.022882
 30
0.0
 11
329.191578
 21
253.106888
 31
0.0
  0
LINE
  8
LC-003-005-----0
  6
CONTINUOUS
  5
3A2
 10
328.815177
 20
253.01333
 30
0.0
 11
329.191578
 21
253.389731
 31
0.0
  0
LINE
  8
LC-003-005-----0
  6
CONTINUOUS
  5
3A3
 10
328.522783
 20
253.003778
 30
0.0
 11
329.191578
 21
253.672574
 31
0.0
  0
LINE
  8
LC-003-005-----0
  6
CONTINUOUS
  5
3A4
 10
328.230388
 20
252.994226
 30
0.0
 11
329.191578
 21
253.955417
 31
0.0
  0
LINE
  8
LC-003-005-----0
  6
CONTINUOUS
  5
3A5
 10
327.937993
 20
252.984674
 30
0.0
 11
329.191578
 21
254.238259
 31
0.0
  0
LINE
  8
LC-003-005-----0
  6
CONTINUOUS
  5
3A6
 10
327.645598
 20
252.975122
 30
0.0
 11
329.191578
 21
254.521102
 31
0.0
  0
LINE
  8
LC-003-005-----0
  6
CONTINUOUS
  5
3A7
 10
327.353203
 20
252.96557
 30
0.0
 11
329.191578
 21
254.803945
 31
0.0
  0
LINE
  8
LC-003-005-----0
  6
CONTINUOUS
  5
3A8
 10
327.060809
 20
252.956018
 30
0.0
 11
329.191578
 21
255.086787
 31
0.0
  0
LINE
  8
LC-003-005-----0
  6
CONTINUOUS
  5
3A9
 10
326.768414
 20
252.946466
 30
0.0
 11
329.191578
 21
255.36963
 31
0.0
  0
LINE
  8
LC-003-005-----0
  6
CONTINUOUS
  5
3AA
 10
326.476019
 20
252.936914
 30
0.0
 11
329.191578
 21
255.652473
 31
0.0
  0
LINE
  8
LC-003-005-----0
  6
CONTINUOUS
  5
3AB
 10
326.183624
 20
252.927362
 30
0.0
 11
329.191578
 21
255.935316
 31
0.0
  0
LINE
  8
LC-003-005-----0
  6
CONTINUOUS
  5
3AC
 10
325.891229
 20
252.91781
 30
0.0
 11
328.994199
 21
256.020779
 31
0.0
  0
LINE
  8
LC-003-005-----0
  6
CONTINUOUS
  5
3AD
 10
325.598835
 20
252.908257
 30
0.0
 11
328.701804
 21
256.011227
 31
0.0
  0
LINE
  8
LC-003-005-----0
  6
CONTINUOUS
  5
3AE
 10
325.30644
 20
252.898705
 30
0.0
 11
328.409409
 21
256.001675
 31
0.0
  0
LINE
  8
LC-003-005-----0
  6
CONTINUOUS
  5
3AF
 10
325.014045
 20
252.889153
 30
0.0
 11
328.117015
 21
255.992123
 31
0.0
  0
LINE
  8
LC-003-005-----0
  6
CONTINUOUS
  5
3B0
 10
324.72165
 20
252.879601
 30
0.0
 11
327.82462
 21
255.982571
 31
0.0
  0
LINE
  8
LC-003-005-----0
  6
CONTINUOUS
  5
3B1
 10
324.429255
 20
252.870049
 30
0.0
 11
327.532225
 21
255.973019
 31
0.0
  0
LINE
  8
LC-003-005-----0
  6
CONTINUOUS
  5
3B2
 10
324.191578
 20
252.915215
 30
0.0
 11
327.23983
 21
255.963467
 31
0.0
  0
LINE
  8
LC-003-005-----0
  6
CONTINUOUS
  5
3B3
 10
324.191578
 20
253.198057
 30
0.0
 11
326.947435
 21
255.953915
 31
0.0
  0
LINE
  8
LC-003-005-----0
  6
CONTINUOUS
  5
3B4
 10
324.191578
 20
253.4809
 30
0.0
 11
326.655041
 21
255.944362
 31
0.0
  0
LINE
  8
LC-003-005-----0
  6
CONTINUOUS
  5
3B5
 10
324.191578
 20
253.763743
 30
0.0
 11
326.362646
 21
255.93481
 31
0.0
  0
LINE
  8
LC-003-005-----0
  6
CONTINUOUS
  5
3B6
 10
324.191578
 20
254.046585
 30
0.0
 11
326.070251
 21
255.925258
 31
0.0
  0
LINE
  8
LC-003-005-----0
  6
CONTINUOUS
  5
3B7
 10
324.191578
 20
254.329428
 30
0.0
 11
325.777856
 21
255.915706
 31
0.0
  0
LINE
  8
LC-003-005-----0
  6
CONTINUOUS
  5
3B8
 10
324.191578
 20
254.612271
 30
0.0
 11
325.485461
 21
255.906154
 31
0.0
  0
LINE
  8
LC-003-005-----0
  6
CONTINUOUS
  5
3B9
 10
324.191578
 20
254.895113
 30
0.0
 11
325.193067
 21
255.896602
 31
0.0
  0
LINE
  8
LC-003-005-----0
  6
CONTINUOUS
  5
3BA
 10
324.191578
 20
255.177956
 30
0.0
 11
324.900672
 21
255.88705
 31
0.0
  0
LINE
  8
LC-003-005-----0
  6
CONTINUOUS
  5
3BB
 10
324.191578
 20
255.460799
 30
0.0
 11
324.608277
 21
255.877498
 31
0.0
  0
LINE
  8
LC-003-005-----0
  6
CONTINUOUS
  5
3BC
 10
324.191578
 20
255.743642
 30
0.0
 11
324.315882
 21
255.867946
 31
0.0
  0
ENDBLK
  8
0
  5
3BD
  0
BLOCK
  8
0
  5
3BF
  2
BLK5
 70
    64
 10
0.0
 20
0.0
 30
0.0
  3
BLK5
  0
ENDBLK
  8
0
  5
3C0
  0
BLOCK
  8
0
  5
3C2
  2
*X36
 70
    65
 10
131.255752
 20
249.580002
 30
0.0
  3
*X36
  0
LINE
  8
LC-003-005-----0
  6
CONTINUOUS
  5
3C3
 10
157.856095
 20
249.779977
 30
0.0
 11
158.604506
 21
250.528388
 31
0.0
  0
LINE
  8
LC-003-005-----0
  6
CONTINUOUS
  5
3C4
 10
158.692684
 20
250.616566
 30
0.0
 11
159.324572
 21
251.248453
 31
0.0
  0
LINE
  8
LC-003-005-----0
  6
CONTINUOUS
  5
3C5
 10
156.941096
 20
250.279191
 30
0.0
 11
157.141873
 21
250.479969
 31
0.0
  0
LINE
  8
LC-003-005-----0
  6
CONTINUOUS
  5
3C6
 10
157.741877
 20
251.079972
 30
0.0
 11
158.441881
 21
251.779976
 31
0.0
  0
LINE
  8
LC-003-005-----0
  6
CONTINUOUS
  5
3C7
 10
156.327655
 20
251.079963
 30
0.0
 11
157.027659
 21
251.779968
 31
0.0
  0
LINE
  8
LC-003-005-----0
  6
CONTINUOUS
  5
3C8
 10
154.913432
 20
251.079955
 30
0.0
 11
155.613437
 21
251.779959
 31
0.0
  0
LINE
  8
LC-003-005-----0
  6
CONTINUOUS
  5
3C9
 10
153.500367
 20
251.081103
 30
0.0
 11
154.199214
 21
251.77995
 31
0.0
  0
LINE
  8
LC-003-005-----0
  6
CONTINUOUS
  5
3CA
 10
152.71677
 20
251.711719
 30
0.0
 11
153.21677
 21
252.211719
 31
0.0
  0
LINE
  8
LC-003-005-----0
  6
CONTINUOUS
  5
3CB
 10
151.670771
 20
252.079934
 30
0.0
 11
152.370776
 21
252.779939
 31
0.0
  0
LINE
  8
LC-003-005-----0
  6
CONTINUOUS
  5
3CC
 10
150.256549
 20
252.079926
 30
0.0
 11
150.956553
 21
252.77993
 31
0.0
  0
LINE
  8
LC-003-005-----0
  6
CONTINUOUS
  5
3CD
 10
141.771215
 20
252.079872
 30
0.0
 11
142.471219
 21
252.779877
 31
0.0
  0
LINE
  8
LC-003-005-----0
  6
CONTINUOUS
  5
3CE
 10
137.85714
 20
249.580012
 30
0.0
 11
138.557295
 21
250.280166
 31
0.0
  0
LINE
  8
LC-003-005-----0
  6
CONTINUOUS
  5
3CF
 10
136.442924
 20
249.580009
 30
0.0
 11
137.142925
 21
250.28001
 31
0.0
  0
LINE
  8
LC-003-005-----0
  6
CONTINUOUS
  5
3D0
 10
135.028707
 20
249.580005
 30
0.0
 11
135.728708
 21
250.280007
 31
0.0
  0
LINE
  8
LC-003-005-----0
  6
CONTINUOUS
  5
3D1
 10
133.67186
 20
249.637372
 30
0.0
 11
134.314492
 21
250.280004
 31
0.0
  0
LINE
  8
LC-003-005-----0
  6
CONTINUOUS
  5
3D2
 10
132.659931
 20
250.039657
 30
0.0
 11
133.172933
 21
250.552659
 31
0.0
  0
LINE
  8
LC-003-005-----0
  6
CONTINUOUS
  5
3D3
 10
131.912627
 20
250.706566
 30
0.0
 11
132.415521
 21
251.20946
 31
0.0
  0
ENDBLK
  8
0
  5
3D4
  0
BLOCK
  8
0
  5
3D6
  2
*X37
 70
    65
 10
273.441082
 20
249.580002
 30
0.0
  3
*X37
  0
LINE
  8
LC-003-005-----0
  6
CONTINUOUS
  5
3D7
 10
299.11803
 20
249.620555
 30
0.0
 11
301.077486
 21
251.580011
 31
0.0
  0
LINE
  8
LC-003-005-----0
  6
CONTINUOUS
  5
3D8
 10
297.663267
 20
249.580006
 30
0.0
 11
298.363265
 21
250.280004
 31
0.0
  0
LINE
  8
LC-003-005-----0
  6
CONTINUOUS
  5
3D9
 10
296.249057
 20
249.580009
 30
0.0
 11
296.949055
 21
250.280007
 31
0.0
  0
LINE
  8
LC-003-005-----0
  6
CONTINUOUS
  5
3DA
 10
294.834846
 20
249.580012
 30
0.0
 11
295.534845
 21
250.280011
 31
0.0
  0
LINE
  8
LC-003-005-----0
  6
CONTINUOUS
  5
3DB
 10
293.671757
 20
249.831137
 30
0.0
 11
294.169839
 21
250.329219
 31
0.0
  0
LINE
  8
LC-003-005-----0
  6
CONTINUOUS
  5
3DC
 10
292.963336
 20
250.53693
 30
0.0
 11
293.458311
 21
251.031904
 31
0.0
  0
LINE
  8
LC-003-005-----0
  6
CONTINUOUS
  5
3DD
 10
292.25623
 20
251.244036
 30
0.0
 11
292.751204
 21
251.739011
 31
0.0
  0
LINE
  8
LC-003-005-----0
  6
CONTINUOUS
  5
3DE
 10
291.549123
 20
251.951143
 30
0.0
 11
292.044098
 21
252.446118
 31
0.0
  0
LINE
  8
LC-003-005-----0
  6
CONTINUOUS
  5
3DF
 10
290.263644
 20
252.079878
 30
0.0
 11
290.96364
 21
252.779873
 31
0.0
  0
LINE
  8
LC-003-005-----0
  6
CONTINUOUS
  5
3E0
 10
281.778416
 20
252.079931
 30
0.0
 11
282.478411
 21
252.779926
 31
0.0
  0
LINE
  8
LC-003-005-----0
  6
CONTINUOUS
  5
3E1
 10
279.364596
 20
251.080325
 30
0.0
 11
281.064207
 21
252.779935
 31
0.0
  0
LINE
  8
LC-003-005-----0
  6
CONTINUOUS
  5
3E2
 10
277.950012
 20
251.079955
 30
0.0
 11
278.650008
 21
251.77995
 31
0.0
  0
LINE
  8
LC-003-005-----0
  6
CONTINUOUS
  5
3E3
 10
275.235821
 20
249.779977
 30
0.0
 11
275.935811
 21
250.479967
 31
0.0
  0
LINE
  8
LC-003-005-----0
  6
CONTINUOUS
  5
3E4
 10
276.535808
 20
251.079964
 30
0.0
 11
277.235803
 21
251.779959
 31
0.0
  0
LINE
  8
LC-003-005-----0
  6
CONTINUOUS
  5
3E5
 10
273.950316
 20
249.908685
 30
0.0
 11
274.521607
 21
250.479976
 31
0.0
  0
LINE
  8
LC-003-005-----0
  6
CONTINUOUS
  5
3E6
 10
275.121603
 20
251.079972
 30
0.0
 11
275.821599
 21
251.779968
 31
0.0
  0
LINE
  8
LC-003-005-----0
  6
CONTINUOUS
  5
3E7
 10
273.441669
 20
250.814252
 30
0.0
 11
274.406806
 21
251.779389
 31
0.0
  0
ENDBLK
  8
0
  5
3E8
  0
BLOCK
  8
0
  5
3EA
  2
*D38
 70
    65
 10
0.0
 20
0.0
 30
0.0
  3
*D38
  0
LINE
  8
LC-007-003-MTH-0
  6
CONTINUOUS
  5
3EB
 10
212.543475
 20
189.916058
 30
0.0
 11
87.2
 21
189.916058
 31
0.0
  0
LINE
  8
LC-007-003-MTH-0
  6
CONTINUOUS
  5
3EC
 10
101.431614
 20
249.558109
 30
0.0
 11
87.2
 21
249.558109
 31
0.0
  0
LINE
  8
LC-008-003-MTG-0
  6
CONTINUOUS
  5
3ED
 10
98.0
 20
189.916058
 30
0.0
 11
98.0
 21
249.558109
 31
0.0
  0
LINE
  8
LC-006-003-----0
  6
CONTINUOUS
  5
3EE
 10
95.650529
 20
207.762066
 30
0.0
 11
98.0
 21
189.916058
 31
0.0
  0
LINE
  8
LC-006-003-----0
  6
CONTINUOUS
  5
3EF
 10
98.0
 20
189.916058
 30
0.0
 11
100.349471
 21
207.762066
 31
0.0
  0
LINE
  8
LC-006-003-----0
  6
CONTINUOUS
  5
3F0
 10
100.349471
 20
207.762066
 30
0.0
 11
95.650529
 21
207.762066
 31
0.0
  0
LINE
  8
LC-006-003-----0
  6
CONTINUOUS
  5
3F1
 10
96.261391
 20
207.802104
 30
0.0
 11
98.0
 21
194.596058
 31
0.0
  0
LINE
  8
LC-006-003-----0
  6
CONTINUOUS
  5
3F2
 10
98.0
 20
194.596058
 30
0.0
 11
99.738609
 21
207.802104
 31
0.0
  0
LINE
  8
LC-006-003-----0
  6
CONTINUOUS
  5
3F3
 10
96.872254
 20
207.842142
 30
0.0
 11
98.0
 21
199.276058
 31
0.0
  0
LINE
  8
LC-006-003-----0
  6
CONTINUOUS
  5
3F4
 10
98.0
 20
199.276058
 30
0.0
 11
99.127746
 21
207.842142
 31
0.0
  0
LINE
  8
LC-006-003-----0
  6
CONTINUOUS
  5
3F5
 10
97.483116
 20
207.88218
 30
0.0
 11
98.0
 21
203.956058
 31
0.0
  0
LINE
  8
LC-006-003-----0
  6
CONTINUOUS
  5
3F6
 10
98.0
 20
203.956058
 30
0.0
 11
98.516884
 21
207.88218
 31
0.0
  0
LINE
  8
LC-006-003-----0
  6
CONTINUOUS
  5
3F7
 10
100.349471
 20
231.712102
 30
0.0
 11
98.0
 21
249.558109
 31
0.0
  0
LINE
  8
LC-006-003-----0
  6
CONTINUOUS
  5
3F8
 10
98.0
 20
249.558109
 30
0.0
 11
95.650529
 21
231.712102
 31
0.0
  0
LINE
  8
LC-006-003-----0
  6
CONTINUOUS
  5
3F9
 10
95.650529
 20
231.712102
 30
0.0
 11
100.349471
 21
231.712102
 31
0.0
  0
LINE
  8
LC-006-003-----0
  6
CONTINUOUS
  5
3FA
 10
99.738609
 20
231.672063
 30
0.0
 11
98.0
 21
244.878109
 31
0.0
  0
LINE
  8
LC-006-003-----0
  6
CONTINUOUS
  5
3FB
 10
98.0
 20
244.878109
 30
0.0
 11
96.261391
 21
231.672063
 31
0.0
  0
LINE
  8
LC-006-003-----0
  6
CONTINUOUS
  5
3FC
 10
99.127746
 20
231.632025
 30
0.0
 11
98.0
 21
240.198109
 31
0.0
  0
LINE
  8
LC-006-003-----0
  6
CONTINUOUS
  5
3FD
 10
98.0
 20
240.198109
 30
0.0
 11
96.872254
 21
231.632025
 31
0.0
  0
LINE
  8
LC-006-003-----0
  6
CONTINUOUS
  5
3FE
 10
98.516884
 20
231.591987
 30
0.0
 11
98.0
 21
235.518109
 31
0.0
  0
LINE
  8
LC-006-003-----0
  6
CONTINUOUS
  5
3FF
 10
98.0
 20
235.518109
 30
0.0
 11
97.483116
 21
231.591987
 31
0.0
  0
TEXT
  8
LC-006-003-----0
  6
CONTINUOUS
 62
     6
  5
400
 10
87.568001
 20
210.669337
 30
0.0
 40
18.0
  1
60
 50
90.0
 51
15.0
  7
LC-TXTSTYLE-150-400-0-0-D0
 72
     1
 11
87.568001
 21
222.532329
 31
0.0
  0
ENDBLK
  8
0
  5
401
  0
BLOCK
  8
0
  5
403
  2
BLK6
 70
    64
 10
0.0
 20
0.0
 30
0.0
  3
BLK6
  0
ENDBLK
  8
0
  5
404
  0
BLOCK
  8
0
  5
406
  2
BLK7
 70
    64
 10
0.0
 20
0.0
 30
0.0
  3
BLK7
  0
ENDBLK
  8
0
  5
407
  0
BLOCK
  8
0
  5
409
  2
BLK8
 70
    64
 10
0.0
 20
0.0
 30
0.0
  3
BLK8
  0
ENDBLK
  8
0
  5
40A
  0
BLOCK
  8
0
  5
40C
  2
*D42
 70
    65
 10
0.0
 20
0.0
 30
0.0
  3
*D42
  0
LINE
  8
LC-007-003-MTH-0
  6
CONTINUOUS
  5
40D
 10
366.441089
 20
208.06122
 30
0.0
 11
442.8
 21
208.06122
 31
0.0
  0
LINE
  8
LC-007-003-MTH-0
  6
CONTINUOUS
  5
40E
 10
331.450563
 20
249.558109
 30
0.0
 11
442.8
 21
249.558109
 31
0.0
  0
LINE
  8
LC-006-003-----0
  6
CONTINUOUS
  5
40F
 10
434.349471
 20
190.215212
 30
0.0
 11
432.0
 21
208.06122
 31
0.0
  0
LINE
  8
LC-006-003-----0
  6
CONTINUOUS
  5
410
 10
432.0
 20
208.06122
 30
0.0
 11
429.650529
 21
190.215212
 31
0.0
  0
LINE
  8
LC-006-003-----0
  6
CONTINUOUS
  5
411
 10
429.650529
 20
190.215212
 30
0.0
 11
434.349471
 21
190.215212
 31
0.0
  0
LINE
  8
LC-006-003-----0
  6
CONTINUOUS
  5
412
 10
433.738609
 20
190.175174
 30
0.0
 11
432.0
 21
203.38122
 31
0.0
  0
LINE
  8
LC-006-003-----0
  6
CONTINUOUS
  5
413
 10
432.0
 20
203.38122
 30
0.0
 11
430.261391
 21
190.175174
 31
0.0
  0
LINE
  8
LC-006-003-----0
  6
CONTINUOUS
  5
414
 10
433.127746
 20
190.135136
 30
0.0
 11
432.0
 21
198.70122
 31
0.0
  0
LINE
  8
LC-006-003-----0
  6
CONTINUOUS
  5
415
 10
432.0
 20
198.70122
 30
0.0
 11
430.872254
 21
190.135136
 31
0.0
  0
LINE
  8
LC-006-003-----0
  6
CONTINUOUS
  5
416
 10
432.516884
 20
190.095098
 30
0.0
 11
432.0
 21
194.02122
 31
0.0
  0
LINE
  8
LC-006-003-----0
  6
CONTINUOUS
  5
417
 10
432.0
 20
194.02122
 30
0.0
 11
431.483116
 21
190.095098
 31
0.0
  0
LINE
  8
LC-006-003-----0
  6
CONTINUOUS
  5
418
 10
429.650529
 20
267.404117
 30
0.0
 11
432.0
 21
249.558109
 31
0.0
  0
LINE
  8
LC-006-003-----0
  6
CONTINUOUS
  5
419
 10
432.0
 20
249.558109
 30
0.0
 11
434.349471
 21
267.404117
 31
0.0
  0
LINE
  8
LC-006-003-----0
  6
CONTINUOUS
  5
41A
 10
434.349471
 20
267.404117
 30
0.0
 11
429.650529
 21
267.404117
 31
0.0
  0
LINE
  8
LC-006-003-----0
  6
CONTINUOUS
  5
41B
 10
430.261391
 20
267.444155
 30
0.0
 11
432.0
 21
254.238109
 31
0.0
  0
LINE
  8
LC-006-003-----0
  6
CONTINUOUS
  5
41C
 10
432.0
 20
254.238109
 30
0.0
 11
433.738609
 21
267.444155
 31
0.0
  0
LINE
  8
LC-006-003-----0
  6
CONTINUOUS
  5
41D
 10
430.872254
 20
267.484193
 30
0.0
 11
432.0
 21
258.918109
 31
0.0
  0
LINE
  8
LC-006-003-----0
  6
CONTINUOUS
  5
41E
 10
432.0
 20
258.918109
 30
0.0
 11
433.127746
 21
267.484193
 31
0.0
  0
LINE
  8
LC-006-003-----0
  6
CONTINUOUS
  5
41F
 10
431.483116
 20
267.524231
 30
0.0
 11
432.0
 21
263.598109
 31
0.0
  0
LINE
  8
LC-006-003-----0
  6
CONTINUOUS
  5
420
 10
432.0
 20
263.598109
 30
0.0
 11
432.516884
 21
267.524231
 31
0.0
  0
LINE
  8
LC-008-003-MTG-0
  6
CONTINUOUS
  5
421
 10
432.0
 20
146.31874
 30
0.0
 11
432.0
 21
274.758109
 31
0.0
  0
TEXT
  8
LC-006-003-----0
  6
CONTINUOUS
 62
     6
  5
422
 10
426.968001
 20
158.910521
 30
0.0
 40
18.0
  1
42
 50
90.0
 51
15.0
  7
LC-TXTSTYLE-150-400-0-0-D0
 72
     2
 11
426.968001
 21
182.636506
 31
0.0
  0
ENDBLK
  8
0
  5
423
  0
BLOCK
  8
0
  5
425
  2
BLK9
 70
    64
 10
0.0
 20
0.0
 30
0.0
  3
BLK9
  0
ARC
  8
LC-001-002-----0
  6
CONTINUOUS
  5
427
 10
286.621254
 20
223.05815
 30
0.0
 40
24.165449
 50
155.269528
 51
168.646303
  0
ARC
  8
LC-001-002-----0
  6
CONTINUOUS
  5
428
 10
334.293439
 20
212.191434
 30
0.0
 40
73.055017
 50
167.650942
 51
174.013671
  0
ARC
  8
LC-001-002-----0
  6
CONTINUOUS
  5
429
 10
371.352269
 20
207.852227
 30
0.0
 40
110.365219
 50
173.779723
 51
178.606523
  0
ARC
  8
LC-001-002-----0
  6
CONTINUOUS
  5
42A
 10
359.18027
 20
207.868482
 30
0.0
 40
98.196823
 50
178.443293
 51
183.66266
  0
ENDBLK
  8
0
  5
42B
  0
BLOCK
  8
0
  5
42D
  2
BLK10
 70
    64
 10
0.0
 20
0.0
 30
0.0
  3
BLK10
  0
ENDBLK
  8
0
  5
42E
  0
BLOCK
  8
0
  5
430
  2
BLK11
 70
    64
 10
0.0
 20
0.0
 30
0.0
  3
BLK11
  0
ENDBLK
  8
0
  5
431
  0
BLOCK
  8
0
  5
433
  2
*D46
 70
    65
 10
0.0
 20
0.0
 30
0.0
  3
*D46
  0
LINE
  8
LC-007-003-MTH-0
  6
CONTINUOUS
  5
434
 10
16.441089
 20
256.074313
 30
0.0
 11
16.441089
 21
290.8
 31
0.0
  0
LINE
  8
LC-007-003-MTH-0
  6
CONTINUOUS
  5
435
 10
416.441089
 20
256.074313
 30
0.0
 11
416.441089
 21
290.8
 31
0.0
  0
LINE
  8
LC-008-003-MTG-0
  6
CONTINUOUS
  5
436
 10
16.441089
 20
280.0
 30
0.0
 11
416.441089
 21
280.0
 31
0.0
  0
LINE
  8
LC-006-003-----0
  6
CONTINUOUS
  5
437
 10
34.287096
 20
282.349471
 30
0.0
 11
16.441089
 21
280.0
 31
0.0
  0
LINE
  8
LC-006-003-----0
  6
CONTINUOUS
  5
438
 10
16.441089
 20
280.0
 30
0.0
 11
34.287096
 21
277.650529
 31
0.0
  0
LINE
  8
LC-006-003-----0
  6
CONTINUOUS
  5
439
 10
34.287096
 20
277.650529
 30
0.0
 11
34.287096
 21
282.349471
 31
0.0
  0
LINE
  8
LC-006-003-----0
  6
CONTINUOUS
  5
43A
 10
34.327134
 20
281.738609
 30
0.0
 11
21.121089
 21
280.0
 31
0.0
  0
LINE
  8
LC-006-003-----0
  6
CONTINUOUS
  5
43B
 10
21.121089
 20
280.0
 30
0.0
 11
34.327134
 21
278.261391
 31
0.0
  0
LINE
  8
LC-006-003-----0
  6
CONTINUOUS
  5
43C
 10
34.367172
 20
281.127746
 30
0.0
 11
25.801089
 21
280.0
 31
0.0
  0
LINE
  8
LC-006-003-----0
  6
CONTINUOUS
  5
43D
 10
25.801089
 20
280.0
 30
0.0
 11
34.367172
 21
278.872254
 31
0.0
  0
LINE
  8
LC-006-003-----0
  6
CONTINUOUS
  5
43E
 10
34.40721
 20
280.516884
 30
0.0
 11
30.481089
 21
280.0
 31
0.0
  0
LINE
  8
LC-006-003-----0
  6
CONTINUOUS
  5
43F
 10
30.481089
 20
280.0
 30
0.0
 11
34.40721
 21
279.483116
 31
0.0
  0
LINE
  8
LC-006-003-----0
  6
CONTINUOUS
  5
440
 10
398.595081
 20
277.650529
 30
0.0
 11
416.441089
 21
280.0
 31
0.0
  0
LINE
  8
LC-006-003-----0
  6
CONTINUOUS
  5
441
 10
416.441089
 20
280.0
 30
0.0
 11
398.595081
 21
282.349471
 31
0.0
  0
LINE
  8
LC-006-003-----0
  6
CONTINUOUS
  5
442
 10
398.595081
 20
282.349471
 30
0.0
 11
398.595081
 21
277.650529
 31
0.0
  0
LINE
  8
LC-006-003-----0
  6
CONTINUOUS
  5
443
 10
398.555043
 20
278.261391
 30
0.0
 11
411.761089
 21
280.0
 31
0.0
  0
LINE
  8
LC-006-003-----0
  6
CONTINUOUS
  5
444
 10
411.761089
 20
280.0
 30
0.0
 11
398.555043
 21
281.738609
 31
0.0
  0
LINE
  8
LC-006-003-----0
  6
CONTINUOUS
  5
445
 10
398.515005
 20
278.872254
 30
0.0
 11
407.081089
 21
280.0
 31
0.0
  0
LINE
  8
LC-006-003-----0
  6
CONTINUOUS
  5
446
 10
407.081089
 20
280.0
 30
0.0
 11
398.515005
 21
281.127746
 31
0.0
  0
LINE
  8
LC-006-003-----0
  6
CONTINUOUS
  5
447
 10
398.474967
 20
279.483116
 30
0.0
 11
402.401089
 21
280.0
 31
0.0
  0
LINE
  8
LC-006-003-----0
  6
CONTINUOUS
  5
448
 10
402.401089
 20
280.0
 30
0.0
 11
398.474967
 21
280.516884
 31
0.0
  0
TEXT
  8
LC-006-003-----0
  6
CONTINUOUS
 62
     6
  5
449
 10
194.744996
 20
290.431999
 30
0.0
 40
18.0
  1
Ø420
 51
15.0
  7
LC-TXTSTYLE-150-400-0-0-D0
 72
     1
 11
219.236334
 21
290.431999
 31
0.0
  0
ENDBLK
  8
0
  5
44A
  0
BLOCK
  8
0
  5
44C
  2
*D47
 70
    65
 10
0.0
 20
0.0
 30
0.0
  3
*D47
  0
LINE
  8
LC-007-003-MTH-0
  6
CONTINUOUS
  5
44D
 10
361.446385
 20
183.255476
 30
0.0
 11
413.917289
 21
181.278901
 31
0.0
  0
LINE
  8
LC-007-003-MTH-0
  6
CONTINUOUS
  5
44E
 10
363.32858
 20
233.220932
 30
0.0
 11
415.799483
 21
231.244357
 31
0.0
  0
LINE
  8
LC-006-003-----0
  6
CONTINUOUS
  5
44F
 10
404.800968
 20
163.763647
 30
0.0
 11
403.124943
 21
181.685448
 31
0.0
  0
LINE
  8
LC-006-003-----0
  6
CONTINUOUS
  5
450
 10
403.124943
 20
181.685448
 30
0.0
 11
400.105356
 21
163.940531
 31
0.0
  0
LINE
  8
LC-006-003-----0
  6
CONTINUOUS
  5
451
 10
400.105356
 20
163.940531
 30
0.0
 11
404.800968
 21
163.763647
 31
0.0
  0
LINE
  8
LC-006-003-----0
  6
CONTINUOUS
  5
452
 10
404.189032
 20
163.746633
 30
0.0
 11
402.948773
 21
177.008765
 31
0.0
  0
LINE
  8
LC-006-003-----0
  6
CONTINUOUS
  5
453
 10
402.948773
 20
177.008765
 30
0.0
 11
400.714278
 21
163.877526
 31
0.0
  0
LINE
  8
LC-006-003-----0
  6
CONTINUOUS
  5
454
 10
403.577095
 20
163.729618
 30
0.0
 11
402.772603
 21
172.332082
 31
0.0
  0
LINE
  8
LC-006-003-----0
  6
CONTINUOUS
  5
455
 10
402.772603
 20
172.332082
 30
0.0
 11
401.323201
 21
163.814522
 31
0.0
  0
LINE
  8
LC-006-003-----0
  6
CONTINUOUS
  5
456
 10
402.965158
 20
163.712603
 30
0.0
 11
402.596432
 21
167.655399
 31
0.0
  0
LINE
  8
LC-006-003-----0
  6
CONTINUOUS
  5
457
 10
402.596432
 20
167.655399
 30
0.0
 11
401.932123
 21
163.751517
 31
0.0
  0
LINE
  8
LC-006-003-----0
  6
CONTINUOUS
  5
458
 10
403.331113
 20
249.572705
 30
0.0
 11
405.007138
 21
231.650904
 31
0.0
  0
LINE
  8
LC-006-003-----0
  6
CONTINUOUS
  5
459
 10
405.007138
 20
231.650904
 30
0.0
 11
408.026725
 21
249.395821
 31
0.0
  0
LINE
  8
LC-006-003-----0
  6
CONTINUOUS
  5
45A
 10
408.026725
 20
249.395821
 30
0.0
 11
403.331113
 21
249.572705
 31
0.0
  0
LINE
  8
LC-006-003-----0
  6
CONTINUOUS
  5
45B
 10
403.94305
 20
249.58972
 30
0.0
 11
405.183308
 21
236.327587
 31
0.0
  0
LINE
  8
LC-006-003-----0
  6
CONTINUOUS
  5
45C
 10
405.183308
 20
236.327587
 30
0.0
 11
407.417803
 21
249.458826
 31
0.0
  0
LINE
  8
LC-006-003-----0
  6
CONTINUOUS
  5
45D
 10
404.554987
 20
249.606734
 30
0.0
 11
405.359479
 21
241.00427
 31
0.0
  0
LINE
  8
LC-006-003-----0
  6
CONTINUOUS
  5
45E
 10
405.359479
 20
241.00427
 30
0.0
 11
406.808881
 21
249.52183
 31
0.0
  0
LINE
  8
LC-006-003-----0
  6
CONTINUOUS
  5
45F
 10
405.166923
 20
249.623749
 30
0.0
 11
405.535649
 21
245.680953
 31
0.0
  0
LINE
  8
LC-006-003-----0
  6
CONTINUOUS
  5
460
 10
405.535649
 20
245.680953
 30
0.0
 11
406.199958
 21
249.584835
 31
0.0
  0
LINE
  8
LC-008-003-MTG-0
  6
CONTINUOUS
  5
461
 10
399.721901
 20
91.347002
 30
0.0
 11
405.955747
 21
256.833043
 31
0.0
  0
TEXT
  8
LC-006-003-----0
  6
CONTINUOUS
 62
     6
  5
462
 10
389.854367
 20
107.646105
 30
0.0
 40
18.0
  1
DN50
 50
87.8
 51
15.0
  7
LC-TXTSTYLE-150-400-0-0-D0
 72
     2
 11
391.881606
 21
160.416629
 31
0.0
  0
ENDBLK
  8
0
  5
463
  0
ENDSEC
  0
SECTION
  2
ENTITIES
  0
VIEWPORT
  8
LC-000
  5
650
 67
     1
 68
     1
 10
420.0
 20
297.0
 30
0.0
 40
840.0
 41
594.0
 69
     1
1001
ACAD
1000
MVIEW
1002
{
1070
    16
1010
0.0
1020
0.0
1030
0.0
1010
0.0
1020
0.0
1030
1.0
1040
0.0
1040
594.0
1040
420.0
1040
297.0
1040
50.0
1040
0.0
1040
0.0
1070
     0
1070
   100
1070
     1
1070
     1
1070
     0
1070
     0
1070
     0
1070
     0
1040
0.0
1040
0.0
1040
0.0
1040
1.0
1040
1.0
1040
0.0
1040
0.0
1070
     0
1002
{
1002
}
1002
}
  0
VIEWPORT
  8
0
  5
651
 67
     1
 68
     1
 10
0.0
 20
0.0
 30
0.0
 40
0.0
 41
0.0
 69
     1
1001
ACAD
1000
MVIEW
1002
{
1070
    16
1010
0.0
1020
0.0
1030
0.0
1010
0.0
1020
0.0
1030
1.0
1040
0.0
1040
594.0
1040
0.0
1040
0.0
1040
50.0
1040
0.0
1040
0.0
1070
     0
1070
   100
1070
     0
1070
     1
1070
     0
1070
     0
1070
     0
1070
     0
1040
0.0
1040
0.0
1040
0.0
1040
0.5
1040
0.5
1040
0.5
1040
0.5
1070
     0
1002
{
1002
}
1002
}
  0
INSERT
  8
0
  5
464
  2
*X0
 10
16.441089
 20
253.074313
 30
0.0
  0
INSERT
  8
0
  5
465
  2
*X1
 10
23.690599
 20
253.074313
 30
0.0
  0
INSERT
  8
0
  5
466
  2
*X2
 10
33.690599
 20
253.074313
 30
0.0
  0
INSERT
  8
0
  5
467
  2
*X3
 10
43.690599
 20
253.074313
 30
0.0
  0
INSERT
  8
0
  5
468
  2
*X4
 10
53.690599
 20
253.074313
 30
0.0
  0
INSERT
  8
0
  5
469
  2
*X5
 10
63.690599
 20
253.074313
 30
0.0
  0
INSERT
  8
0
  5
46A
  2
*X6
 10
73.690599
 20
253.074313
 30
0.0
  0
INSERT
  8
0
  5
46B
  2
*X7
 10
83.690599
 20
253.074313
 30
0.0
  0
INSERT
  8
0
  5
46C
  2
*X8
 10
93.690599
 20
253.074313
 30
0.0
  0
INSERT
  8
0
  5
46D
  2
*X9
 10
113.690599
 20
250.478229
 30
0.0
  0
INSERT
  8
0
  5
46E
  2
*X10
 10
123.690599
 20
247.420922
 30
0.0
  0
INSERT
  8
0
  5
46F
  2
*X11
 10
133.690599
 20
246.580013
 30
0.0
  0
INSERT
  8
0
  5
470
  2
*X12
 10
149.440599
 20
248.079323
 30
0.0
  0
INSERT
  8
0
  5
471
  2
*X13
 10
103.690599
 20
252.862285
 30
0.0
  0
INSERT
  8
0
  5
473
  2
BLK1
 10
0.0
 20
0.0
 30
0.0
  0
INSERT
  8
0
  5
474
  2
*X15
 10
131.255752
 20
249.580002
 30
0.0
  0
INSERT
  8
0
  5
475
  2
BLK2
 10
0.0
 20
0.0
 30
0.0
  0
INSERT
  8
0
  5
476
  2
*X17
 10
273.441082
 20
249.580002
 30
0.0
  0
INSERT
  8
0
  5
477
  2
BLK3
 10
0.0
 20
0.0
 30
0.0
  0
DIMENSION
  8
0
  5
478
  2
*D19
 10
286.713113
 20
144.0
 30
0.0
 11
286.713113
 21
144.0
 31
0.0
 13
366.441089
 23
208.06122
 33
0.0
 14
216.441089
 24
214.610361
 34
0.0
  3
LC-DIM-L-0090-01-02
  0
INSERT
  8
0
  5
479
  2
BLK4
 10
0.0
 20
0.0
 30
0.0
  0
INSERT
  8
0
  5
47A
  2
*X21
 10
414.191578
 20
253.074313
 30
0.0
  0
INSERT
  8
0
  5
47B
  2
*X22
 10
404.191578
 20
253.074313
 30
0.0
  0
INSERT
  8
0
  5
47C
  2
*X23
 10
394.191578
 20
253.074313
 30
0.0
  0
INSERT
  8
0
  5
47D
  2
*X24
 10
384.191578
 20
253.074313
 30
0.0
  0
INSERT
  8
0
  5
47E
  2
*X25
 10
374.191578
 20
253.074313
 30
0.0
  0
INSERT
  8
0
  5
47F
  2
*X26
 10
364.191578
 20
253.074313
 30
0.0
  0
INSERT
  8
0
  5
480
  2
*X27
 10
354.191578
 20
253.074313
 30
0.0
  0
INSERT
  8
0
  5
481
  2
*X28
 10
344.191578
 20
253.074313
 30
0.0
  0
INSERT
  8
0
  5
482
  2
*X29
 10
334.191578
 20
253.074313
 30
0.0
  0
INSERT
  8
0
  5
483
  2
*X30
 10
314.191578
 20
250.478229
 30
0.0
  0
INSERT
  8
0
  5
484
  2
*X31
 10
304.191578
 20
247.420922
 30
0.0
  0
INSERT
  8
0
  5
485
  2
*X32
 10
294.191578
 20
246.580013
 30
0.0
  0
INSERT
  8
0
  5
486
  2
*X33
 10
281.191201
 20
248.079323
 30
0.0
  0
INSERT
  8
0
  5
487
  2
*X34
 10
324.191578
 20
252.862285
 30
0.0
  0
INSERT
  8
0
  5
488
  2
BLK5
 10
0.0
 20
0.0
 30
0.0
  0
INSERT
  8
0
  5
489
  2
*X36
 10
131.255752
 20
249.580002
 30
0.0
  0
INSERT
  8
0
  5
48A
  2
*X37
 10
273.441082
 20
249.580002
 30
0.0
  0
DIMENSION
  8
0
  5
48B
  2
*D38
 10
98.0
 20
219.737084
 30
0.0
 11
98.0
 21
219.737084
 31
0.0
  1
60
 13
101.431614
 23
249.558109
 33
0.0
 14
212.543475
 24
189.916058
 34
0.0
 50
90.0
  3
LC-DIM-L-0090-02-02
  0
INSERT
  8
0
  5
48C
  2
BLK6
 10
0.0
 20
0.0
 30
0.0
  0
INSERT
  8
0
  5
48D
  2
BLK7
 10
0.0
 20
0.0
 30
0.0
  0
INSERT
  8
0
  5
48E
  2
BLK8
 10
0.0
 20
0.0
 30
0.0
  0
DIMENSION
  8
0
  5
48F
  2
*D42
 10
432.0
 20
166.32
 30
0.0
 11
432.0
 21
166.32
 31
0.0
  1
42
 13
331.450563
 23
249.558109
 33
0.0
 14
366.441089
 24
208.06122
 34
0.0
 50
90.0
  3
LC-DIM-L-0090-02-02
  0
INSERT
  8
0
  5
490
  2
BLK9
 10
0.0
 20
0.0
 30
0.0
  0
INSERT
  8
0
  5
491
  2
BLK10
 10
0.0
 20
0.0
 30
0.0
  0
INSERT
  8
0
  5
492
  2
BLK11
 10
0.0
 20
0.0
 30
0.0
  0
DIMENSION
  8
0
  5
493
  2
*D46
 10
216.441089
 20
280.0
 30
0.0
 11
216.441089
 21
280.0
 31
0.0
  1
%%c420
 13
16.441089
 23
256.074313
 33
0.0
 14
416.441089
 24
256.074313
 34
0.0
  3
LC-DIM-L-0090-02-02
  0
DIMENSION
  8
0
  5
494
  2
*D47
 10
401.634694
 20
142.124724
 30
0.0
 11
401.634694
 21
142.124724
 31
0.0
 70
     1
  1
DN50
 13
363.32858
 23
233.220932
 33
0.0
 14
361.446385
 24
183.255476
 34
0.0
  3
LC-DIM-L-0090-02-02
  0
LINE
  8
LC-001-002-----0
  6
CONTINUOUS
  5
495
 10
299.448052
 20
243.080016
 30
0.0
 11
299.443619
 21
246.580013
 31
0.0
  0
LINE
  8
LC-001-002-----0
  6
CONTINUOUS
  5
496
 10
330.441089
 20
253.090292
 30
0.0
 11
330.441089
 21
253.090292
 31
0.0
  0
LINE
  8
LC-001-002-----0
  6
CONTINUOUS
  5
497
 10
321.726018
 20
252.781739
 30
0.0
 11
321.726018
 21
252.781739
 31
0.0
  0
LINE
  8
LC-001-002-----0
  6
CONTINUOUS
  5
498
 10
166.441089
 20
236.080013
 30
0.0
 11
199.809239
 21
199.456762
 31
0.0
  0
LINE
  8
LC-001-002-----0
  6
CONTINUOUS
 62
     2
  5
499
 10
331.450563
 20
251.039252
 30
0.0
 11
331.450563
 21
252.090292
 31
0.0
  0
LINE
  8
LC-001-002-----0
  6
CONTINUOUS
  5
49A
 10
111.156159
 20
252.781739
 30
0.0
 11
111.156159
 21
252.781739
 31
0.0
  0
ARC
  8
LC-002-002-RND-0
  6
CONTINUOUS
  5
49C
 10
329.450563
 20
251.039252
 30
0.0
 40
2.0
 50
0.0
 51
91.898364
  0
LINE
  8
LC-001-002-----0
  6
CONTINUOUS
  5
49D
 10
140.440567
 20
240.676266
 30
0.0
 11
140.440567
 21
233.079323
 31
0.0
  0
LINE
  8
LC-001-002-----0
  6
CONTINUOUS
  5
49E
 10
331.441089
 20
252.065268
 30
0.0
 11
331.441089
 21
252.090292
 31
0.0
  0
ARC
  8
LC-001-002-----0
  6
CONTINUOUS
  5
49F
 10
146.440599
 20
242.079333
 30
0.0
 40
10.0
 50
244.158193
 51
295.842059
  0
LINE
  8
LC-001-002-----0
  6
CONTINUOUS
  5
4A0
 10
142.08172
 20
233.079323
 30
0.0
 11
140.440567
 21
233.079323
 31
0.0
  0
LINE
  8
LC-001-002-----0
  6
CONTINUOUS
  5
4A1
 10
143.940599
 20
239.946566
 30
0.0
 11
143.940599
 21
233.079323
 31
0.0
  0
LINE
  8
LC-001-002-----0
  6
DASHDOT
 62
     2
  5
4A3
 10
146.440599
 20
256.279904
 30
0.0
 11
146.440599
 21
233.079323
 31
0.0
  0
LINE
  8
LC-001-002-----0
  6
CONTINUOUS
  5
4A4
 10
148.940599
 20
239.947724
 30
0.0
 11
148.940599
 21
233.079323
 31
0.0
  0
LINE
  8
LC-001-002-----0
  6
CONTINUOUS
  5
4A5
 10
102.200272
 20
256.074313
 30
0.0
 11
16.441089
 21
256.074313
 31
0.0
  0
LINE
  8
LC-001-002-----0
  6
CONTINUOUS
  5
4A6
 10
111.652291
 20
255.767131
 30
0.0
 11
102.298225
 21
256.072714
 31
0.0
  0
LINE
  8
LC-001-002-----0
  6
CONTINUOUS
  5
4A7
 10
151.690976
 20
251.079323
 30
0.0
 11
151.690976
 21
248.079323
 31
0.0
  0
LINE
  8
LC-001-002-----0
  6
CONTINUOUS
  5
4A8
 10
197.961255
 20
197.773029
 30
0.0
 11
165.79301
 21
233.079323
 31
0.0
  0
LINE
  8
LC-001-002-----0
  6
CONTINUOUS
  5
4A9
 10
138.690599
 20
249.580013
 30
0.0
 11
138.690599
 21
246.580013
 31
0.0
  0
LINE
  8
LC-001-002-----0
  6
CONTINUOUS
  5
4AA
 10
133.690599
 20
249.580013
 30
0.0
 11
133.690599
 21
246.580013
 31
0.0
  0
LINE
  8
LC-001-002-----0
  6
CONTINUOUS
  5
4AB
 10
128.690599
 20
250.557997
 30
0.0
 11
128.690599
 21
247.420922
 31
0.0
  0
LINE
  8
LC-001-002-----0
  6
CONTINUOUS
  5
4AC
 10
123.690599
 20
252.086651
 30
0.0
 11
123.690599
 21
248.949576
 31
0.0
  0
LINE
  8
LC-001-002-----0
  6
CONTINUOUS
  5
4AD
 10
118.690599
 20
253.615304
 30
0.0
 11
118.690599
 21
250.478229
 31
0.0
  0
LINE
  8
LC-001-002-----0
  6
CONTINUOUS
  5
4AE
 10
102.441089
 20
253.074313
 30
0.0
 11
16.441089
 21
253.074313
 31
0.0
  0
LINE
  8
LC-001-002-----0
  6
CONTINUOUS
  5
4AF
 10
113.690599
 20
255.143958
 30
0.0
 11
113.690599
 21
252.006882
 31
0.0
  0
LINE
  8
LC-001-002-----0
  6
CONTINUOUS
  5
4B0
 10
16.441089
 20
256.074313
 30
0.0
 11
16.441089
 21
253.074313
 31
0.0
  0
LINE
  8
LC-001-002-----0
  6
CONTINUOUS
  5
4B1
 10
131.889442
 20
249.580013
 30
0.0
 11
111.652291
 21
255.767131
 31
0.0
  0
LINE
  8
LC-001-002-----0
  6
CONTINUOUS
  5
4B2
 10
140.815721
 20
251.079323
 30
0.0
 11
139.316411
 21
249.580013
 31
0.0
  0
LINE
  8
LC-001-002-----0
  6
CONTINUOUS
  5
4B3
 10
143.440599
 20
251.079323
 30
0.0
 11
140.815721
 21
251.079323
 31
0.0
  0
LINE
  8
LC-001-002-----0
  6
CONTINUOUS
  5
4B4
 10
156.440976
 20
251.079323
 30
0.0
 11
149.440599
 21
251.079323
 31
0.0
  0
LINE
  8
LC-001-002-----0
  6
CONTINUOUS
  5
4B5
 10
103.690599
 20
256.027227
 30
0.0
 11
103.690599
 21
253.046053
 31
0.0
  0
LINE
  8
LC-001-002-----0
  6
CONTINUOUS
  5
4B6
 10
108.690599
 20
255.863885
 30
0.0
 11
108.690599
 21
252.869031
 31
0.0
  0
LINE
  8
LC-001-002-----0
  6
CONTINUOUS
  5
4B7
 10
98.690599
 20
256.074313
 30
0.0
 11
98.690599
 21
253.074313
 31
0.0
  0
LINE
  8
LC-001-002-----0
  6
CONTINUOUS
  5
4B8
 10
93.690599
 20
256.074313
 30
0.0
 11
93.690599
 21
253.074313
 31
0.0
  0
LINE
  8
LC-001-002-----0
  6
CONTINUOUS
  5
4B9
 10
88.690599
 20
256.074313
 30
0.0
 11
88.690599
 21
253.074313
 31
0.0
  0
LINE
  8
LC-001-002-----0
  6
CONTINUOUS
  5
4BA
 10
83.690599
 20
256.074313
 30
0.0
 11
83.690599
 21
253.074313
 31
0.0
  0
LINE
  8
LC-001-002-----0
  6
CONTINUOUS
  5
4BB
 10
78.690599
 20
256.074313
 30
0.0
 11
78.690599
 21
253.074313
 31
0.0
  0
LINE
  8
LC-001-002-----0
  6
CONTINUOUS
  5
4BC
 10
73.690599
 20
256.074313
 30
0.0
 11
73.690599
 21
253.074313
 31
0.0
  0
LINE
  8
LC-001-002-----0
  6
CONTINUOUS
  5
4BD
 10
68.690599
 20
256.074313
 30
0.0
 11
68.690599
 21
253.074313
 31
0.0
  0
LINE
  8
LC-001-002-----0
  6
CONTINUOUS
  5
4BE
 10
63.690599
 20
256.074313
 30
0.0
 11
63.690599
 21
253.074313
 31
0.0
  0
LINE
  8
LC-001-002-----0
  6
CONTINUOUS
  5
4BF
 10
282.156842
 20
232.579323
 30
0.0
 11
276.441201
 21
232.579323
 31
0.0
  0
LINE
  8
LC-001-002-----0
  6
CONTINUOUS
  5
4C0
 10
292.44161
 20
232.57932
 30
0.0
 11
290.726316
 21
232.579324
 31
0.0
  0
LINE
  8
LC-001-002-----0
  6
CONTINUOUS
  5
4C1
 10
58.690599
 20
256.074313
 30
0.0
 11
58.690599
 21
253.074313
 31
0.0
  0
LINE
  8
LC-001-002-----0
  6
CONTINUOUS
  5
4C2
 10
53.690599
 20
256.074313
 30
0.0
 11
53.690599
 21
253.074313
 31
0.0
  0
LINE
  8
LC-001-002-----0
  6
CONTINUOUS
  5
4C3
 10
43.690599
 20
256.074313
 30
0.0
 11
43.690599
 21
253.074313
 31
0.0
  0
LINE
  8
LC-001-002-----0
  6
CONTINUOUS
  5
4C4
 10
38.690599
 20
256.074313
 30
0.0
 11
38.690599
 21
253.074313
 31
0.0
  0
LINE
  8
LC-001-002-----0
  6
CONTINUOUS
  5
4C5
 10
33.690599
 20
256.074313
 30
0.0
 11
33.690599
 21
253.074313
 31
0.0
  0
LINE
  8
LC-001-002-----0
  6
CONTINUOUS
  5
4C6
 10
28.690599
 20
256.074313
 30
0.0
 11
28.690599
 21
253.074313
 31
0.0
  0
LINE
  8
LC-001-002-----0
  6
CONTINUOUS
  5
4C7
 10
23.690599
 20
256.074313
 30
0.0
 11
23.690599
 21
253.074313
 31
0.0
  0
LINE
  8
LC-001-002-----0
  6
CONTINUOUS
  5
4C8
 10
18.690599
 20
256.074313
 30
0.0
 11
18.690599
 21
253.074313
 31
0.0
  0
LINE
  8
LC-004-004-----0
  6
CONTINUOUS
  5
4CA
 10
140.440628
 20
252.779918
 30
0.0
 11
146.440628
 21
252.779902
 31
0.0
  0
LINE
  8
LC-004-004-----0
  6
CONTINUOUS
  5
4CB
 10
143.440628
 20
252.77991
 30
0.0
 11
143.440596
 21
240.77991
 31
0.0
  0
LINE
  8
LC-004-004-----0
  6
CONTINUOUS
  5
4CC
 10
143.440596
 20
240.77991
 30
0.0
 11
146.440599
 21
235.779874
 31
0.0
  0
LINE
  8
LC-004-004-----0
  6
CONTINUOUS
 62
     2
  5
4CD
 10
144.440624
 20
251.279907
 30
0.0
 11
144.440592
 21
239.279907
 31
0.0
  0
LINE
  8
LC-004-004-----0
  6
CONTINUOUS
  5
4CE
 10
145.640638
 20
256.279904
 30
0.0
 11
145.640634
 21
254.779904
 31
0.0
  0
LINE
  8
LC-004-004-----0
  6
CONTINUOUS
  5
4CF
 10
145.640634
 20
254.779904
 30
0.0
 11
146.440634
 21
254.779902
 31
0.0
  0
LINE
  8
LC-004-004-----0
  6
CONTINUOUS
  5
4D0
 10
143.440596
 20
240.77991
 30
0.0
 11
146.440596
 21
240.779902
 31
0.0
  0
LINE
  8
LC-004-004-----0
  6
CONTINUOUS
  5
4D1
 10
152.439368
 20
252.778989
 30
0.0
 11
146.439368
 21
252.778993
 31
0.0
  0
LINE
  8
LC-004-004-----0
  6
CONTINUOUS
  5
4D2
 10
149.439368
 20
252.778991
 30
0.0
 11
149.43936
 21
240.778991
 31
0.0
  0
LINE
  8
LC-004-004-----0
  6
CONTINUOUS
  5
4D3
 10
149.43936
 20
240.778991
 30
0.0
 11
146.440599
 21
235.781064
 31
0.0
  0
LINE
  8
LC-004-004-----0
  6
CONTINUOUS
 62
     2
  5
4D4
 10
149.439367
 20
251.278991
 30
0.0
 11
143.440624
 21
251.278995
 31
0.0
  0
LINE
  8
LC-004-004-----0
  6
CONTINUOUS
 62
     2
  5
4D5
 10
148.439367
 20
251.278991
 30
0.0
 11
148.439359
 21
239.278992
 31
0.0
  0
LINE
  8
LC-004-004-----0
  6
CONTINUOUS
  5
4D6
 10
147.23937
 20
256.278992
 30
0.0
 11
147.239369
 21
254.778992
 31
0.0
  0
LINE
  8
LC-004-004-----0
  6
CONTINUOUS
  5
4D7
 10
147.239369
 20
254.778992
 30
0.0
 11
146.439369
 21
254.778993
 31
0.0
  0
LINE
  8
LC-004-004-----0
  6
CONTINUOUS
  5
4D8
 10
149.43936
 20
240.778991
 30
0.0
 11
146.43936
 21
240.778993
 31
0.0
  0
LINE
  8
LC-004-004-----0
  6
CONTINUOUS
  5
4D9
 10
140.440635
 20
255.279918
 30
0.0
 11
140.440628
 21
252.779918
 31
0.0
  0
ARC
  8
LC-004-004-----0
  6
CONTINUOUS
  5
4DA
 10
141.440635
 20
255.279915
 30
0.0
 40
1.0
 50
89.99996
 51
179.999846
  0
LINE
  8
LC-004-004-----0
  6
CONTINUOUS
  5
4DB
 10
145.640638
 20
256.279904
 30
0.0
 11
141.440638
 21
256.279915
 31
0.0
  0
ARC
  8
LC-001-002-----0
  6
CONTINUOUS
  5
4DC
 10
216.441089
 20
214.610361
 30
0.0
 40
22.5
 50
222.337255
 51
267.5
  0
LINE
  8
LC-001-002-----0
  6
CONTINUOUS
  5
4DD
 10
282.156842
 20
232.579323
 30
0.0
 11
290.726316
 21
232.579324
 31
0.0
  0
LINE
  8
LC-001-002-----0
  6
CONTINUOUS
  5
4DE
 10
367.490666
 20
232.100496
 30
0.0
 11
367.422525
 21
230.539805
 31
0.0
  0
LINE
  8
LC-001-002-----0
  6
CONTINUOUS
  5
4DF
 10
131.889442
 20
249.579998
 30
0.0
 11
139.316413
 21
249.580015
 31
0.0
  0
LINE
  8
LC-004-004-----0
  6
CONTINUOUS
  5
4E0
 10
152.439369
 20
255.278989
 30
0.0
 11
152.439368
 21
252.778989
 31
0.0
  0
ARC
  8
LC-004-004-----0
  6
CONTINUOUS
  5
4E1
 10
151.439369
 20
255.278989
 30
0.0
 40
1.0
 50
359.999963
 51
90.000002
  0
LINE
  8
LC-004-004-----0
  6
CONTINUOUS
  5
4E2
 10
147.23937
 20
256.278992
 30
0.0
 11
151.43937
 21
256.278989
 31
0.0
  0
ARC
  8
LC-002-002-RND-0
  6
CONTINUOUS
  5
4E3
 10
141.461782
 20
252.079871
 30
0.0
 40
0.7
 50
90.000358
 51
135.0
  0
ARC
  8
LC-002-002-RND-0
  6
CONTINUOUS
  5
4E4
 10
152.440604
 20
252.079939
 30
0.0
 40
0.7
 50
36.870027
 51
90.000358
  0
ARC
  8
LC-002-002-RND-0
  6
CONTINUOUS
  5
4E5
 10
153.540601
 20
251.779946
 30
0.0
 40
0.7
 50
216.870027
 51
270.000358
  0
LINE
  8
LC-001-002-----0
  6
CONTINUOUS
  5
4E6
 10
153.540601
 20
251.779946
 30
0.0
 11
153.000603
 21
252.49994
 31
0.0
  0
LINE
  8
LC-001-002-----0
  6
CONTINUOUS
  5
4E7
 10
153.540605
 20
251.079946
 30
0.0
 11
158.441094
 21
251.079977
 31
0.0
  0
LINE
  8
LC-001-002-----0
  6
CONTINUOUS
  5
4E8
 10
134.252634
 20
249.580004
 30
0.0
 11
138.547721
 21
249.580013
 31
0.0
  0
ARC
  8
LC-002-002-RND-0
  6
CONTINUOUS
  5
4E9
 10
138.547711
 20
250.580013
 30
0.0
 40
1.0
 50
270.000575
 51
315.0
  0
LINE
  8
LC-001-002-----0
  6
CONTINUOUS
  5
4EA
 10
141.461782
 20
252.079871
 30
0.0
 11
139.254818
 21
249.872906
 31
0.0
  0
ARC
  8
LC-001-002-----0
  6
CONTINUOUS
  5
4EB
 10
158.441096
 20
250.779977
 30
0.0
 40
1.0
 50
270.0
 51
90.001713
  0
ARC
  8
LC-001-002-----0
  6
CONTINUOUS
  5
4EC
 10
134.255752
 20
252.580002
 30
0.0
 40
3.0
 50
199.47104
 51
270.059811
  0
LINE
  8
LC-001-002-----0
  6
CONTINUOUS
  5
4ED
 10
152.980602
 20
251.359945
 30
0.0
 11
152.440604
 21
252.079939
 31
0.0
  0
ARC
  8
LC-001-002-----0
  6
CONTINUOUS
  5
4EE
 10
216.441089
 20
214.610361
 30
0.0
 40
25.0
 50
222.337255
 51
267.5
  0
LINE
  8
LC-001-002-----0
  6
CONTINUOUS
  5
4EF
 10
158.441097
 20
250.479977
 30
0.0
 11
156.941096
 21
250.479967
 31
0.0
  0
LINE
  8
LC-001-002-----0
  6
CONTINUOUS
  5
4F0
 10
365.459652
 20
185.582635
 30
0.0
 11
215.459652
 21
192.131776
 31
0.0
  0
LINE
  8
LC-001-002-----0
  6
CONTINUOUS
  5
4F1
 10
156.941096
 20
250.479967
 30
0.0
 11
156.941096
 21
249.779967
 31
0.0
  0
ARC
  8
LC-001-002-----0
  6
CONTINUOUS
  5
4F2
 10
158.441096
 20
250.779977
 30
0.0
 40
0.3
 50
269.991704
 51
90.009012
  0
LINE
  8
LC-001-002-----0
  6
CONTINUOUS
  5
4F3
 10
365.459652
 20
185.582635
 30
0.0
 11
365.391511
 21
184.021944
 31
0.0
  0
LINE
  8
LC-001-002-----0
  6
CONTINUOUS
  5
4F4
 10
152.440604
 20
252.079939
 30
0.0
 11
150.190604
 21
252.079925
 31
0.0
  0
LINE
  8
LC-001-002-----0
  6
CONTINUOUS
  5
4F5
 10
150.190604
 20
252.079925
 30
0.0
 11
150.190604
 21
252.779925
 31
0.0
  0
LINE
  8
LC-001-002-----0
  6
CONTINUOUS
  5
4F6
 10
150.190604
 20
252.779925
 30
0.0
 11
152.440599
 21
252.779939
 31
0.0
  0
LINE
  8
LC-001-002-----0
  6
CONTINUOUS
  5
4F7
 10
141.461782
 20
252.079871
 30
0.0
 11
142.690604
 21
252.079878
 31
0.0
  0
LINE
  8
LC-001-002-----0
  6
CONTINUOUS
  5
4F8
 10
142.690604
 20
252.079878
 30
0.0
 11
142.690604
 21
252.779878
 31
0.0
  0
LINE
  8
LC-001-002-----0
  6
CONTINUOUS
  5
4F9
 10
142.690604
 20
252.779878
 30
0.0
 11
141.461777
 21
252.779871
 31
0.0
  0
ARC
  8
LC-001-002-----0
  6
CONTINUOUS
  5
4FA
 10
134.255752
 20
252.566467
 30
0.0
 40
2.286465
 50
205.55853
 51
270.0
  0
LINE
  8
LC-001-002-----0
  6
CONTINUOUS
  5
4FB
 10
140.966807
 20
252.574845
 30
0.0
 11
138.759843
 21
250.367881
 31
0.0
  0
ARC
  8
LC-001-002-----0
  6
CONTINUOUS
  5
4FC
 10
138.547711
 20
250.580013
 30
0.0
 40
0.3
 50
270.000126
 51
315.0
  0
LINE
  8
LC-001-002-----0
  6
CONTINUOUS
  5
4FD
 10
138.547712
 20
250.280013
 30
0.0
 11
134.253169
 21
250.280004
 31
0.0
  0
LINE
  8
LC-001-002-----0
  6
CONTINUOUS
  5
4FE
 10
158.441089
 20
251.779977
 30
0.0
 11
153.540601
 21
251.779946
 31
0.0
  0
LINE
  8
LC-001-002-----0
  6
CONTINUOUS
  5
4FF
 10
131.427322
 20
251.580011
 30
0.0
 11
132.193029
 21
251.580011
 31
0.0
  0
LINE
  8
LC-001-002-----0
  6
CONTINUOUS
  5
500
 10
158.441096
 20
249.779977
 30
0.0
 11
156.941096
 21
249.779977
 31
0.0
  0
ARC
  8
LC-002-002-RND-0
  6
CONTINUOUS
  5
501
 10
291.420395
 20
252.079871
 30
0.0
 40
0.7
 50
45.0
 51
89.999642
  0
ARC
  8
LC-002-002-RND-0
  6
CONTINUOUS
  5
502
 10
280.441574
 20
252.079939
 30
0.0
 40
0.7
 50
89.999642
 51
143.129973
  0
ARC
  8
LC-002-002-RND-0
  6
CONTINUOUS
  5
503
 10
279.341576
 20
251.779946
 30
0.0
 40
0.7
 50
269.999642
 51
323.129973
  0
LINE
  8
LC-001-002-----0
  6
CONTINUOUS
  5
504
 10
279.341576
 20
251.779946
 30
0.0
 11
279.881575
 21
252.49994
 31
0.0
  0
LINE
  8
LC-001-002-----0
  6
CONTINUOUS
  5
505
 10
279.341572
 20
251.079946
 30
0.0
 11
274.441084
 21
251.079977
 31
0.0
  0
LINE
  8
LC-001-002-----0
  6
CONTINUOUS
  5
506
 10
298.629543
 20
249.580004
 30
0.0
 11
294.334456
 21
249.580013
 31
0.0
  0
ARC
  8
LC-002-002-RND-0
  6
CONTINUOUS
  5
507
 10
294.334466
 20
250.580013
 30
0.0
 40
1.0
 50
225.0
 51
269.999425
  0
LINE
  8
LC-001-002-----0
  6
CONTINUOUS
  5
508
 10
291.420395
 20
252.079871
 30
0.0
 11
293.62736
 21
249.872906
 31
0.0
  0
ARC
  8
LC-001-002-----0
  6
CONTINUOUS
  5
509
 10
274.441082
 20
250.779977
 30
0.0
 40
1.0
 50
89.998287
 51
270.0
  0
ARC
  8
LC-001-002-----0
  6
CONTINUOUS
  5
50A
 10
298.626425
 20
252.580002
 30
0.0
 40
3.0
 50
269.940189
 51
340.52896
  0
LINE
  8
LC-001-002-----0
  6
CONTINUOUS
  5
50B
 10
279.901575
 20
251.359945
 30
0.0
 11
280.441574
 21
252.079939
 31
0.0
  0
LINE
  8
LC-001-002-----0
  6
CONTINUOUS
  5
50C
 10
274.44108
 20
250.479977
 30
0.0
 11
275.941082
 21
250.479967
 31
0.0
  0
LINE
  8
LC-001-002-----0
  6
CONTINUOUS
  5
50D
 10
275.941082
 20
250.479967
 30
0.0
 11
275.941082
 21
249.779967
 31
0.0
  0
ARC
  8
LC-001-002-----0
  6
CONTINUOUS
  5
50E
 10
274.441082
 20
250.779977
 30
0.0
 40
0.3
 50
89.990988
 51
270.008296
  0
LINE
  8
LC-001-002-----0
  6
CONTINUOUS
  5
50F
 10
280.441574
 20
252.079939
 30
0.0
 11
282.691574
 21
252.079925
 31
0.0
  0
LINE
  8
LC-001-002-----0
  6
CONTINUOUS
  5
510
 10
282.691574
 20
252.079925
 30
0.0
 11
282.691574
 21
252.779925
 31
0.0
  0
LINE
  8
LC-001-002-----0
  6
CONTINUOUS
  5
511
 10
282.691574
 20
252.779925
 30
0.0
 11
280.441578
 21
252.779939
 31
0.0
  0
LINE
  8
LC-001-002-----0
  6
CONTINUOUS
  5
512
 10
291.420395
 20
252.079871
 30
0.0
 11
290.191574
 21
252.079878
 31
0.0
  0
LINE
  8
LC-001-002-----0
  6
CONTINUOUS
  5
513
 10
290.191574
 20
252.079878
 30
0.0
 11
290.191574
 21
252.779878
 31
0.0
  0
LINE
  8
LC-001-002-----0
  6
CONTINUOUS
  5
514
 10
290.191574
 20
252.779878
 30
0.0
 11
291.4204
 21
252.779871
 31
0.0
  0
ARC
  8
LC-001-002-----0
  6
CONTINUOUS
  5
515
 10
298.626425
 20
252.566467
 30
0.0
 40
2.286465
 50
270.0
 51
334.44147
  0
LINE
  8
LC-001-002-----0
  6
CONTINUOUS
  5
516
 10
291.91537
 20
252.574845
 30
0.0
 11
294.122334
 21
250.367881
 31
0.0
  0
ARC
  8
LC-001-002-----0
  6
CONTINUOUS
  5
517
 10
294.334466
 20
250.580013
 30
0.0
 40
0.3
 50
225.0
 51
269.999874
  0
LINE
  8
LC-001-002-----0
  6
CONTINUOUS
  5
518
 10
294.334466
 20
250.280013
 30
0.0
 11
298.629008
 21
250.280004
 31
0.0
  0
LINE
  8
LC-001-002-----0
  6
CONTINUOUS
  5
519
 10
274.441088
 20
251.779977
 30
0.0
 11
279.341576
 21
251.779946
 31
0.0
  0
LINE
  8
LC-001-002-----0
  6
CONTINUOUS
  5
51A
 10
301.454855
 20
251.580011
 30
0.0
 11
300.689148
 21
251.580011
 31
0.0
  0
LINE
  8
LC-001-002-----0
  6
CONTINUOUS
  5
51B
 10
274.441082
 20
249.779977
 30
0.0
 11
275.941082
 21
249.779977
 31
0.0
  0
LINE
  8
LC-001-002-----0
  6
CONTINUOUS
  5
51C
 10
330.681905
 20
256.074313
 30
0.0
 11
416.441089
 21
256.074313
 31
0.0
  0
LINE
  8
LC-001-002-----0
  6
CONTINUOUS
  5
51D
 10
853.25142
 20
-102554.601573
 30
0.0
 11
853.25142
 21
102840.411341
 31
0.0
  0
LINE
  8
LC-001-002-----0
  6
CONTINUOUS
  5
51E
 10
321.229887
 20
255.767131
 30
0.0
 11
330.583952
 21
256.072714
 31
0.0
  0
LINE
  8
LC-001-002-----0
  6
CONTINUOUS
  5
51F
 10
281.191201
 20
251.079323
 30
0.0
 11
281.191201
 21
248.079323
 31
0.0
  0
LINE
  8
LC-001-002-----0
  6
CONTINUOUS
  5
520
 10
294.191578
 20
249.580013
 30
0.0
 11
294.191578
 21
246.580013
 31
0.0
  0
LINE
  8
LC-001-002-----0
  6
CONTINUOUS
 62
     2
  5
521
 10
101.441089
 20
252.065268
 30
0.0
 11
101.441089
 21
251.039252
 31
0.0
  0
LINE
  8
LC-001-002-----0
  6
CONTINUOUS
  5
522
 10
299.191578
 20
249.580013
 30
0.0
 11
299.191578
 21
246.580013
 31
0.0
  0
LINE
  8
LC-001-002-----0
  6
CONTINUOUS
  5
523
 10
304.191578
 20
250.557997
 30
0.0
 11
304.191578
 21
247.420922
 31
0.0
  0
LINE
  8
LC-001-002-----0
  6
CONTINUOUS
  5
524
 10
309.191578
 20
252.086651
 30
0.0
 11
309.191578
 21
248.949576
 31
0.0
  0
LINE
  8
LC-001-002-----0
  6
CONTINUOUS
  5
525
 10
314.191578
 20
253.615304
 30
0.0
 11
314.191578
 21
250.478229
 31
0.0
  0
LINE
  8
LC-001-002-----0
  6
CONTINUOUS
  5
526
 10
330.441089
 20
253.074313
 30
0.0
 11
416.441089
 21
253.074313
 31
0.0
  0
LINE
  8
LC-001-002-----0
  6
CONTINUOUS
  5
527
 10
319.191578
 20
255.143958
 30
0.0
 11
319.191578
 21
252.006882
 31
0.0
  0
LINE
  8
LC-001-002-----0
  6
CONTINUOUS
  5
528
 10
416.441089
 20
256.074313
 30
0.0
 11
416.441089
 21
253.074313
 31
0.0
  0
LINE
  8
LC-001-002-----0
  6
CONTINUOUS
  5
529
 10
300.992736
 20
249.580013
 30
0.0
 11
321.229887
 21
255.767131
 31
0.0
  0
LINE
  8
LC-001-002-----0
  6
CONTINUOUS
  5
52A
 10
331.450563
 20
249.558109
 30
0.0
 11
331.450563
 21
251.039252
 31
0.0
  0
LINE
  8
LC-001-002-----0
  6
CONTINUOUS
  5
52B
 10
292.066456
 20
251.079323
 30
0.0
 11
293.565766
 21
249.580013
 31
0.0
  0
LINE
  8
LC-001-002-----0
  6
CONTINUOUS
  5
52C
 10
289.441578
 20
251.079323
 30
0.0
 11
292.066456
 21
251.079323
 31
0.0
  0
LINE
  8
LC-001-002-----0
  6
CONTINUOUS
  5
52D
 10
276.441201
 20
251.079323
 30
0.0
 11
283.441578
 21
251.079323
 31
0.0
  0
LINE
  8
LC-001-002-----0
  6
CONTINUOUS
  5
52E
 10
329.191578
 20
256.027227
 30
0.0
 11
329.191578
 21
253.046053
 31
0.0
  0
LINE
  8
LC-001-002-----0
  6
CONTINUOUS
  5
52F
 10
324.191578
 20
255.863885
 30
0.0
 11
324.191578
 21
252.869031
 31
0.0
  0
LINE
  8
LC-001-002-----0
  6
CONTINUOUS
  5
530
 10
334.191578
 20
256.074313
 30
0.0
 11
334.191578
 21
253.074313
 31
0.0
  0
LINE
  8
LC-001-002-----0
  6
CONTINUOUS
  5
531
 10
339.191578
 20
256.074313
 30
0.0
 11
339.191578
 21
253.074313
 31
0.0
  0
LINE
  8
LC-001-002-----0
  6
CONTINUOUS
  5
532
 10
344.191578
 20
256.074313
 30
0.0
 11
344.191578
 21
253.074313
 31
0.0
  0
LINE
  8
LC-001-002-----0
  6
CONTINUOUS
  5
533
 10
349.191578
 20
256.074313
 30
0.0
 11
349.191578
 21
253.074313
 31
0.0
  0
LINE
  8
LC-001-002-----0
  6
CONTINUOUS
  5
534
 10
354.191578
 20
256.074313
 30
0.0
 11
354.191578
 21
253.074313
 31
0.0
  0
LINE
  8
LC-001-002-----0
  6
CONTINUOUS
  5
535
 10
359.191578
 20
256.074313
 30
0.0
 11
359.191578
 21
253.074313
 31
0.0
  0
LINE
  8
LC-001-002-----0
  6
CONTINUOUS
  5
536
 10
364.191578
 20
256.074313
 30
0.0
 11
364.191578
 21
253.074313
 31
0.0
  0
LINE
  8
LC-001-002-----0
  6
CONTINUOUS
  5
537
 10
369.191578
 20
256.074313
 30
0.0
 11
369.191578
 21
253.074313
 31
0.0
  0
LINE
  8
LC-001-002-----0
  6
CONTINUOUS
  5
538
 10
374.191578
 20
256.074313
 30
0.0
 11
374.191578
 21
253.074313
 31
0.0
  0
LINE
  8
LC-001-002-----0
  6
CONTINUOUS
  5
539
 10
321.726018
 20
252.781739
 30
0.0
 11
330.441089
 21
253.090292
 31
0.0
  0
LINE
  8
LC-001-002-----0
  6
CONTINUOUS
  5
53A
 10
379.191578
 20
256.074313
 30
0.0
 11
379.191578
 21
253.074313
 31
0.0
  0
LINE
  8
LC-001-002-----0
  6
CONTINUOUS
  5
53B
 10
389.191578
 20
256.074313
 30
0.0
 11
389.191578
 21
253.074313
 31
0.0
  0
LINE
  8
LC-001-002-----0
  6
CONTINUOUS
  5
53C
 10
394.191578
 20
256.074313
 30
0.0
 11
394.191578
 21
253.074313
 31
0.0
  0
LINE
  8
LC-001-002-----0
  6
CONTINUOUS
  5
53D
 10
399.191578
 20
256.074313
 30
0.0
 11
399.191578
 21
253.074313
 31
0.0
  0
LINE
  8
LC-001-002-----0
  6
CONTINUOUS
  5
53E
 10
404.191578
 20
256.074313
 30
0.0
 11
404.191578
 21
253.074313
 31
0.0
  0
LINE
  8
LC-001-002-----0
  6
CONTINUOUS
  5
53F
 10
276.441201
 20
232.579323
 30
0.0
 11
264.67212
 21
233.16777
 31
0.0
  0
LINE
  8
LC-001-002-----0
  6
CONTINUOUS
  5
540
 10
409.191578
 20
256.074313
 30
0.0
 11
409.191578
 21
253.074313
 31
0.0
  0
LINE
  8
LC-001-002-----0
  6
CONTINUOUS
  5
541
 10
414.191578
 20
256.074313
 30
0.0
 11
414.191578
 21
253.074313
 31
0.0
  0
LINE
  8
LC-004-004-----0
  6
CONTINUOUS
  5
542
 10
292.441549
 20
252.779918
 30
0.0
 11
286.441549
 21
252.779902
 31
0.0
  0
LINE
  8
LC-004-004-----0
  6
CONTINUOUS
  5
543
 10
289.441549
 20
252.77991
 30
0.0
 11
289.441581
 21
240.77991
 31
0.0
  0
LINE
  8
LC-004-004-----0
  6
CONTINUOUS
  5
544
 10
289.441581
 20
240.77991
 30
0.0
 11
286.441578
 21
235.779874
 31
0.0
  0
LINE
  8
LC-004-004-----0
  6
CONTINUOUS
 62
     2
  5
545
 10
288.441553
 20
251.279907
 30
0.0
 11
288.441585
 21
239.279907
 31
0.0
  0
LINE
  8
LC-004-004-----0
  6
CONTINUOUS
  5
546
 10
287.24154
 20
256.279904
 30
0.0
 11
287.241544
 21
254.779904
 31
0.0
  0
LINE
  8
LC-004-004-----0
  6
CONTINUOUS
  5
547
 10
287.241544
 20
254.779904
 30
0.0
 11
286.441544
 21
254.779902
 31
0.0
  0
LINE
  8
LC-004-004-----0
  6
CONTINUOUS
  5
548
 10
289.441581
 20
240.77991
 30
0.0
 11
286.441581
 21
240.779902
 31
0.0
  0
LINE
  8
LC-001-002-----0
  6
CONTINUOUS
  5
549
 10
266.441089
 20
233.079323
 30
0.0
 11
266.441089
 21
236.080013
 31
0.0
  0
LINE
  8
LC-004-004-----0
  6
CONTINUOUS
  5
54A
 10
280.44281
 20
252.778989
 30
0.0
 11
286.44281
 21
252.778993
 31
0.0
  0
LINE
  8
LC-004-004-----0
  6
CONTINUOUS
  5
54B
 10
283.44281
 20
252.778991
 30
0.0
 11
283.442817
 21
240.778991
 31
0.0
  0
LINE
  8
LC-004-004-----0
  6
CONTINUOUS
  5
54C
 10
283.442817
 20
240.778991
 30
0.0
 11
286.441578
 21
235.781064
 31
0.0
  0
LINE
  8
LC-004-004-----0
  6
CONTINUOUS
 62
     2
  5
54D
 10
283.442811
 20
251.278991
 30
0.0
 11
289.441553
 21
251.278995
 31
0.0
  0
LINE
  8
LC-004-004-----0
  6
CONTINUOUS
 62
     2
  5
54E
 10
284.442811
 20
251.278991
 30
0.0
 11
284.442818
 21
239.278992
 31
0.0
  0
LINE
  8
LC-004-004-----0
  6
CONTINUOUS
  5
54F
 10
285.642807
 20
256.278992
 30
0.0
 11
285.642808
 21
254.778992
 31
0.0
  0
LINE
  8
LC-004-004-----0
  6
CONTINUOUS
  5
550
 10
285.642808
 20
254.778992
 30
0.0
 11
286.442808
 21
254.778993
 31
0.0
  0
LINE
  8
LC-004-004-----0
  6
CONTINUOUS
  5
551
 10
283.442817
 20
240.778991
 30
0.0
 11
286.442817
 21
240.778993
 31
0.0
  0
LINE
  8
LC-004-004-----0
  6
CONTINUOUS
  5
552
 10
292.441542
 20
255.279918
 30
0.0
 11
292.441549
 21
252.779918
 31
0.0
  0
ARC
  8
LC-004-004-----0
  6
CONTINUOUS
  5
553
 10
291.441542
 20
255.279915
 30
0.0
 40
1.0
 50
0.000154
 51
90.00004
  0
LINE
  8
LC-004-004-----0
  6
CONTINUOUS
  5
554
 10
287.24154
 20
256.279904
 30
0.0
 11
291.44154
 21
256.279915
 31
0.0
  0
LINE
  8
LC-001-002-----0
  6
CONTINUOUS
  5
555
 10
300.992736
 20
249.579998
 30
0.0
 11
293.565764
 21
249.580015
 31
0.0
  0
LINE
  8
LC-004-004-----0
  6
CONTINUOUS
  5
556
 10
280.442808
 20
255.278989
 30
0.0
 11
280.44281
 21
252.778989
 31
0.0
  0
ARC
  8
LC-004-004-----0
  6
CONTINUOUS
  5
557
 10
281.442808
 20
255.278989
 30
0.0
 40
1.0
 50
89.999998
 51
180.000037
  0
LINE
  8
LC-004-004-----0
  6
CONTINUOUS
  5
558
 10
285.642807
 20
256.278992
 30
0.0
 11
281.442807
 21
256.278989
 31
0.0
  0
LINE
  8
LC-001-002-----0
  6
CONTINUOUS
  5
559
 10
143.940599
 20
233.079323
 30
0.0
 11
148.940599
 21
233.079323
 31
0.0
  0
LINE
  8
LC-001-002-----0
  6
CONTINUOUS
  5
55A
 10
153.190864
 20
248.079323
 30
0.0
 11
149.439365
 21
248.079325
 31
0.0
  0
LINE
  8
LC-001-002-----0
  6
CONTINUOUS
  5
55B
 10
292.448058
 20
243.07115
 30
0.0
 11
299.448052
 21
243.080016
 31
0.0
  0
LINE
  8
LC-001-002-----0
  6
CONTINUOUS
  5
55C
 10
279.691089
 20
248.079323
 30
0.0
 11
283.442813
 21
248.079323
 31
0.0
  0
LINE
  8
LC-001-002-----0
  6
CONTINUOUS
  5
55D
 10
289.441562
 20
248.079323
 30
0.0
 11
290.823125
 21
248.079323
 31
0.0
  0
LINE
  8
LC-001-002-----0
  6
DASHDOT
 62
     2
  5
55E
 10
286.441578
 20
233.079323
 30
0.0
 11
286.441578
 21
256.279904
 31
0.0
  0
LINE
  8
LC-001-002-----0
  6
DASHDOT
 62
     2
  5
55F
 10
216.441089
 20
214.610361
 30
0.0
 11
366.441089
 21
208.06122
 31
0.0
  0
LINE
  8
LC-001-002-----0
  6
DASHDOT
 62
     2
  5
560
 10
216.441089
 20
251.779977
 30
0.0
 11
216.441089
 21
214.610361
 31
0.0
  0
LINE
  8
LC-001-002-----0
  6
CONTINUOUS
  5
561
 10
292.443103
 20
246.571147
 30
0.0
 11
292.447536
 21
243.071149
 31
0.0
  0
LINE
  8
LC-001-002-----0
  6
CONTINUOUS
  5
562
 10
299.451085
 20
240.685144
 30
0.0
 11
301.744067
 21
242.983941
 31
0.0
  0
LINE
  8
LC-001-002-----0
  6
CONTINUOUS
  5
563
 10
292.44161
 20
240.676266
 30
0.0
 11
299.451085
 21
240.685144
 31
0.0
  0
LINE
  8
LC-003-005-----0
  6
CONTINUOUS
  5
564
 10
364.941519
 20
183.922183
 30
0.0
 11
365.407501
 21
184.388165
 31
0.0
  0
ARC
  8
LC-002-002-RND-0
  6
CONTINUOUS
  5
565
 10
103.431614
 20
251.039252
 30
0.0
 40
2.0
 50
88.101636
 51
180.0
  0
LINE
  8
LC-001-002-----0
  6
CONTINUOUS
  5
566
 10
101.431614
 20
249.558109
 30
0.0
 11
101.431614
 21
251.039252
 31
0.0
  0
LINE
  8
LC-003-005-----0
  6
CONTINUOUS
  5
567
 10
361.446385
 20
183.255476
 30
0.0
 11
363.844081
 21
185.653172
 31
0.0
  0
LINE
  8
LC-003-005-----0
  6
CONTINUOUS
  5
568
 10
358.736283
 20
183.373802
 30
0.0
 11
361.133979
 21
185.771498
 31
0.0
  0
LINE
  8
LC-001-002-----0
  6
CONTINUOUS
  5
569
 10
110.805963
 20
249.201496
 30
0.0
 11
101.431614
 21
249.558109
 31
0.0
  0
LINE
  8
LC-003-005-----0
  6
CONTINUOUS
  5
56A
 10
356.026182
 20
183.492127
 30
0.0
 11
358.423878
 21
185.889823
 31
0.0
  0
LINE
  8
LC-003-005-----0
  6
CONTINUOUS
  5
56B
 10
353.31608
 20
183.610453
 30
0.0
 11
355.713776
 21
186.008149
 31
0.0
  0
LINE
  8
LC-001-002-----0
  6
CONTINUOUS
  5
56C
 10
266.441089
 20
236.080013
 30
0.0
 11
276.441201
 21
236.080013
 31
0.0
  0
LINE
  8
LC-003-005-----0
  6
CONTINUOUS
  5
56D
 10
350.605979
 20
183.728778
 30
0.0
 11
353.003675
 21
186.126475
 31
0.0
  0
LINE
  8
LC-003-005-----0
  6
CONTINUOUS
  5
56E
 10
347.895877
 20
183.847104
 30
0.0
 11
350.293573
 21
186.2448
 31
0.0
  0
LINE
  8
LC-003-005-----0
  6
CONTINUOUS
  5
56F
 10
345.185776
 20
183.96543
 30
0.0
 11
347.583472
 21
186.363126
 31
0.0
  0
LINE
  8
LC-003-005-----0
  6
CONTINUOUS
  5
570
 10
342.475674
 20
184.083755
 30
0.0
 11
344.87337
 21
186.481451
 31
0.0
  0
LINE
  8
LC-003-005-----0
  6
CONTINUOUS
  5
571
 10
339.765573
 20
184.202081
 30
0.0
 11
342.163269
 21
186.599777
 31
0.0
  0
LINE
  8
LC-003-005-----0
  6
CONTINUOUS
  5
572
 10
337.055471
 20
184.320406
 30
0.0
 11
339.453167
 21
186.718102
 31
0.0
  0
LINE
  8
LC-001-002-----0
  6
CONTINUOUS
  5
573
 10
268.440651
 20
236.080013
 30
0.0
 11
276.440696
 21
236.080013
 31
0.0
  0
LINE
  8
LC-003-005-----0
  6
CONTINUOUS
  5
574
 10
334.34537
 20
184.438732
 30
0.0
 11
336.743066
 21
186.836428
 31
0.0
  0
LINE
  8
LC-001-002-----0
  6
CONTINUOUS
  5
575
 10
276.440696
 20
236.080013
 30
0.0
 11
276.440696
 21
246.079239
 31
0.0
  0
LINE
  8
LC-003-005-----0
  6
CONTINUOUS
  5
576
 10
331.635268
 20
184.557058
 30
0.0
 11
334.032964
 21
186.954754
 31
0.0
  0
LINE
  8
LC-003-005-----0
  6
CONTINUOUS
  5
577
 10
328.925167
 20
184.675383
 30
0.0
 11
331.322863
 21
187.073079
 31
0.0
  0
LINE
  8
LC-003-005-----0
  6
CONTINUOUS
  5
578
 10
326.215065
 20
184.793709
 30
0.0
 11
328.612761
 21
187.191405
 31
0.0
  0
LINE
  8
LC-003-005-----0
  6
CONTINUOUS
  5
579
 10
323.504963
 20
184.912034
 30
0.0
 11
325.90266
 21
187.30973
 31
0.0
  0
LINE
  8
LC-003-005-----0
  6
CONTINUOUS
  5
57A
 10
320.794862
 20
185.03036
 30
0.0
 11
323.192558
 21
187.428056
 31
0.0
  0
LINE
  8
LC-003-005-----0
  6
CONTINUOUS
  5
57B
 10
318.08476
 20
185.148686
 30
0.0
 11
320.482456
 21
187.546382
 31
0.0
  0
LINE
  8
LC-003-005-----0
  6
CONTINUOUS
  5
57C
 10
315.374659
 20
185.267011
 30
0.0
 11
317.772355
 21
187.664707
 31
0.0
  0
LINE
  8
LC-003-005-----0
  6
CONTINUOUS
  5
57D
 10
312.664557
 20
185.385337
 30
0.0
 11
315.062253
 21
187.783033
 31
0.0
  0
LINE
  8
LC-003-005-----0
  6
CONTINUOUS
  5
57E
 10
309.954456
 20
185.503662
 30
0.0
 11
312.352152
 21
187.901358
 31
0.0
  0
LINE
  8
LC-003-005-----0
  6
CONTINUOUS
  5
57F
 10
307.244354
 20
185.621988
 30
0.0
 11
309.64205
 21
188.019684
 31
0.0
  0
LINE
  8
LC-003-005-----0
  6
CONTINUOUS
  5
580
 10
304.534253
 20
185.740313
 30
0.0
 11
306.931949
 21
188.13801
 31
0.0
  0
LINE
  8
LC-003-005-----0
  6
CONTINUOUS
  5
581
 10
301.824151
 20
185.858639
 30
0.0
 11
304.221847
 21
188.256335
 31
0.0
  0
LINE
  8
LC-003-005-----0
  6
CONTINUOUS
  5
582
 10
299.11405
 20
185.976965
 30
0.0
 11
301.511746
 21
188.374661
 31
0.0
  0
LINE
  8
LC-003-005-----0
  6
CONTINUOUS
  5
583
 10
296.403948
 20
186.09529
 30
0.0
 11
298.801644
 21
188.492986
 31
0.0
  0
LINE
  8
LC-003-005-----0
  6
CONTINUOUS
  5
584
 10
293.693847
 20
186.213616
 30
0.0
 11
296.091543
 21
188.611312
 31
0.0
  0
LINE
  8
LC-003-005-----0
  6
CONTINUOUS
  5
585
 10
290.983745
 20
186.331941
 30
0.0
 11
293.381441
 21
188.729637
 31
0.0
  0
LINE
  8
LC-003-005-----0
  6
CONTINUOUS
  5
586
 10
288.273643
 20
186.450267
 30
0.0
 11
290.67134
 21
188.847963
 31
0.0
  0
LINE
  8
LC-003-005-----0
  6
CONTINUOUS
  5
587
 10
285.563542
 20
186.568593
 30
0.0
 11
287.961238
 21
188.966289
 31
0.0
  0
LINE
  8
LC-003-005-----0
  6
CONTINUOUS
  5
588
 10
282.85344
 20
186.686918
 30
0.0
 11
285.251136
 21
189.084614
 31
0.0
  0
LINE
  8
LC-003-005-----0
  6
CONTINUOUS
  5
589
 10
280.143339
 20
186.805244
 30
0.0
 11
282.541035
 21
189.20294
 31
0.0
  0
LINE
  8
LC-001-002-----0
  6
CONTINUOUS
  5
58A
 10
214.941101
 20
236.080013
 30
0.0
 11
217.941076
 21
236.080013
 31
0.0
  0
LINE
  8
LC-003-005-----0
  6
CONTINUOUS
  5
58B
 10
277.433237
 20
186.923569
 30
0.0
 11
279.830933
 21
189.321265
 31
0.0
  0
LINE
  8
LC-003-005-----0
  6
CONTINUOUS
  5
58C
 10
274.723136
 20
187.041895
 30
0.0
 11
277.120832
 21
189.439591
 31
0.0
  0
LINE
  8
LC-003-005-----0
  6
CONTINUOUS
  5
58D
 10
272.013034
 20
187.160221
 30
0.0
 11
274.41073
 21
189.557917
 31
0.0
  0
LINE
  8
LC-001-002-----0
  6
CONTINUOUS
  5
58E
 10
268.440651
 20
236.080013
 30
0.0
 11
156.441482
 21
236.080013
 31
0.0
  0
LINE
  8
LC-001-002-----0
  6
CONTINUOUS
  5
58F
 10
156.441482
 20
236.080013
 30
0.0
 11
156.441482
 21
246.079239
 31
0.0
  0
LINE
  8
LC-003-005-----0
  6
CONTINUOUS
  5
590
 10
269.302933
 20
187.278546
 30
0.0
 11
271.700629
 21
189.676242
 31
0.0
  0
LINE
  8
LC-003-005-----0
  6
CONTINUOUS
  5
591
 10
266.592831
 20
187.396872
 30
0.0
 11
268.990527
 21
189.794568
 31
0.0
  0
LINE
  8
LC-003-005-----0
  6
CONTINUOUS
  5
592
 10
263.88273
 20
187.515197
 30
0.0
 11
266.280426
 21
189.912893
 31
0.0
  0
LINE
  8
LC-003-005-----0
  6
CONTINUOUS
  5
593
 10
261.172628
 20
187.633523
 30
0.0
 11
263.570324
 21
190.031219
 31
0.0
  0
LINE
  8
LC-003-005-----0
  6
CONTINUOUS
  5
594
 10
258.462527
 20
187.751848
 30
0.0
 11
260.860223
 21
190.149545
 31
0.0
  0
LINE
  8
LC-003-005-----0
  6
CONTINUOUS
  5
595
 10
255.752425
 20
187.870174
 30
0.0
 11
258.150121
 21
190.26787
 31
0.0
  0
LINE
  8
LC-003-005-----0
  6
CONTINUOUS
  5
596
 10
253.042324
 20
187.9885
 30
0.0
 11
255.44002
 21
190.386196
 31
0.0
  0
LINE
  8
LC-003-005-----0
  6
CONTINUOUS
  5
597
 10
250.332222
 20
188.106825
 30
0.0
 11
252.729918
 21
190.504521
 31
0.0
  0
LINE
  8
LC-003-005-----0
  6
CONTINUOUS
  5
598
 10
247.62212
 20
188.225151
 30
0.0
 11
250.019816
 21
190.622847
 31
0.0
  0
LINE
  8
LC-003-005-----0
  6
CONTINUOUS
  5
599
 10
244.912019
 20
188.343476
 30
0.0
 11
247.309715
 21
190.741172
 31
0.0
  0
LINE
  8
LC-003-005-----0
  6
CONTINUOUS
  5
59A
 10
242.201917
 20
188.461802
 30
0.0
 11
244.599613
 21
190.859498
 31
0.0
  0
LINE
  8
LC-003-005-----0
  6
CONTINUOUS
  5
59B
 10
239.491816
 20
188.580128
 30
0.0
 11
241.889512
 21
190.977824
 31
0.0
  0
LINE
  8
LC-003-005-----0
  6
CONTINUOUS
  5
59C
 10
236.781714
 20
188.698453
 30
0.0
 11
239.17941
 21
191.096149
 31
0.0
  0
LINE
  8
LC-003-005-----0
  6
CONTINUOUS
  5
59D
 10
234.071613
 20
188.816779
 30
0.0
 11
236.469309
 21
191.214475
 31
0.0
  0
LINE
  8
LC-003-005-----0
  6
CONTINUOUS
  5
59E
 10
231.361511
 20
188.935104
 30
0.0
 11
233.759207
 21
191.3328
 31
0.0
  0
LINE
  8
LC-003-005-----0
  6
CONTINUOUS
  5
59F
 10
228.65141
 20
189.05343
 30
0.0
 11
231.049106
 21
191.451126
 31
0.0
  0
LINE
  8
LC-003-005-----0
  6
CONTINUOUS
  5
5A0
 10
225.941308
 20
189.171756
 30
0.0
 11
228.339004
 21
191.569452
 31
0.0
  0
LINE
  8
LC-003-005-----0
  6
CONTINUOUS
  5
5A1
 10
223.231207
 20
189.290081
 30
0.0
 11
225.628903
 21
191.687777
 31
0.0
  0
LINE
  8
LC-003-005-----0
  6
CONTINUOUS
  5
5A2
 10
220.521105
 20
189.408407
 30
0.0
 11
222.918801
 21
191.806103
 31
0.0
  0
LINE
  8
LC-003-005-----0
  6
CONTINUOUS
  5
5A3
 10
217.811004
 20
189.526732
 30
0.0
 11
220.2087
 21
191.924428
 31
0.0
  0
LINE
  8
LC-003-005-----0
  6
CONTINUOUS
  5
5A4
 10
215.102089
 20
189.646245
 30
0.0
 11
217.498598
 21
192.042754
 31
0.0
  0
LINE
  8
LC-003-005-----0
  6
CONTINUOUS
  5
5A5
 10
212.543475
 20
189.916058
 30
0.0
 11
214.797863
 21
192.170446
 31
0.0
  0
LINE
  8
LC-003-005-----0
  6
CONTINUOUS
  5
5A6
 10
210.20072
 20
190.40173
 30
0.0
 11
212.294706
 21
192.495716
 31
0.0
  0
LINE
  8
LC-003-005-----0
  6
CONTINUOUS
  5
5A7
 10
208.03614
 20
191.065577
 30
0.0
 11
210.017388
 21
193.046825
 31
0.0
  0
LINE
  8
LC-003-005-----0
  6
CONTINUOUS
  5
5A8
 10
206.025513
 20
191.883378
 30
0.0
 11
207.925995
 21
193.783859
 31
0.0
  0
LINE
  8
LC-003-005-----0
  6
CONTINUOUS
  5
5A9
 10
204.152656
 20
192.838948
 30
0.0
 11
205.995635
 21
194.681927
 31
0.0
  0
LINE
  8
LC-003-005-----0
  6
CONTINUOUS
  5
5AA
 10
202.406648
 20
193.921367
 30
0.0
 11
204.210274
 21
195.724992
 31
0.0
  0
LINE
  8
LC-003-005-----0
  6
CONTINUOUS
  5
5AB
 10
200.780302
 20
195.123448
 30
0.0
 11
202.559685
 21
196.902831
 31
0.0
  0
LINE
  8
LC-003-005-----0
  6
CONTINUOUS
  5
5AC
 10
199.269309
 20
196.440882
 30
0.0
 11
201.037858
 21
198.209431
 31
0.0
  0
LINE
  8
LC-003-005-----0
  6
CONTINUOUS
  5
5AD
 10
197.871519
 20
197.871519
 30
0.0
 11
199.641197
 21
199.641197
 31
0.0
  0
LINE
  8
LC-003-005-----0
  6
CONTINUOUS
  5
5AE
 10
196.523077
 20
199.351504
 30
0.0
 11
198.292754
 21
201.121181
 31
0.0
  0
LINE
  8
LC-003-005-----0
  6
CONTINUOUS
  5
5AF
 10
195.174634
 20
200.831488
 30
0.0
 11
196.944312
 21
202.601166
 31
0.0
  0
LINE
  8
LC-003-005-----0
  6
CONTINUOUS
  5
5B0
 10
193.826191
 20
202.311473
 30
0.0
 11
195.595869
 21
204.081151
 31
0.0
  0
LINE
  8
LC-003-005-----0
  6
CONTINUOUS
  5
5B1
 10
192.477749
 20
203.791457
 30
0.0
 11
194.247427
 21
205.561135
 31
0.0
  0
LINE
  8
LC-003-005-----0
  6
CONTINUOUS
  5
5B2
 10
191.129306
 20
205.271442
 30
0.0
 11
192.898984
 21
207.04112
 31
0.0
  0
LINE
  8
LC-003-005-----0
  6
CONTINUOUS
  5
5B3
 10
189.780864
 20
206.751427
 30
0.0
 11
191.550542
 21
208.521104
 31
0.0
  0
LINE
  8
LC-003-005-----0
  6
CONTINUOUS
  5
5B4
 10
188.432421
 20
208.231411
 30
0.0
 11
190.202099
 21
210.001089
 31
0.0
  0
LINE
  8
LC-003-005-----0
  6
CONTINUOUS
  5
5B5
 10
187.083979
 20
209.711396
 30
0.0
 11
188.853657
 21
211.481074
 31
0.0
  0
LINE
  8
LC-001-002-----0
  6
CONTINUOUS
  5
5B6
 10
140.439074
 20
246.571147
 30
0.0
 11
140.434642
 21
243.071149
 31
0.0
  0
LINE
  8
LC-003-005-----0
  6
CONTINUOUS
  5
5B7
 10
185.735536
 20
211.191381
 30
0.0
 11
187.505214
 21
212.961058
 31
0.0
  0
LINE
  8
LC-003-005-----0
  6
CONTINUOUS
  5
5B8
 10
184.387094
 20
212.671365
 30
0.0
 11
186.156772
 21
214.441043
 31
0.0
  0
LINE
  8
LC-003-005-----0
  6
CONTINUOUS
  5
5B9
 10
183.038651
 20
214.15135
 30
0.0
 11
184.808329
 21
215.921027
 31
0.0
  0
LINE
  8
LC-003-005-----0
  6
CONTINUOUS
  5
5BA
 10
181.690209
 20
215.631334
 30
0.0
 11
183.459887
 21
217.401012
 31
0.0
  0
LINE
  8
LC-003-005-----0
  6
CONTINUOUS
  5
5BB
 10
180.341766
 20
217.111319
 30
0.0
 11
182.111444
 21
218.880997
 31
0.0
  0
LINE
  8
LC-001-002-----0
  6
CONTINUOUS
  5
5BC
 10
140.43412
 20
243.07115
 30
0.0
 11
133.434125
 21
243.080016
 31
0.0
  0
LINE
  8
LC-001-002-----0
  6
CONTINUOUS
  5
5BD
 10
133.434125
 20
243.080016
 30
0.0
 11
133.438558
 21
246.580013
 31
0.0
  0
LINE
  8
LC-001-002-----0
  6
CONTINUOUS
  5
5BE
 10
140.440567
 20
240.676266
 30
0.0
 11
133.431092
 21
240.685144
 31
0.0
  0
LINE
  8
LC-001-002-----0
  6
CONTINUOUS
  5
5BF
 10
133.431092
 20
240.685144
 30
0.0
 11
131.138111
 21
242.983941
 31
0.0
  0
LINE
  8
LC-003-005-----0
  6
CONTINUOUS
  5
5C0
 10
178.993324
 20
218.591304
 30
0.0
 11
180.763002
 21
220.360981
 31
0.0
  0
LINE
  8
LC-003-005-----0
  6
CONTINUOUS
  5
5C1
 10
177.644881
 20
220.071288
 30
0.0
 11
179.414559
 21
221.840966
 31
0.0
  0
LINE
  8
LC-003-005-----0
  6
CONTINUOUS
  5
5C2
 10
176.296439
 20
221.551273
 30
0.0
 11
178.066117
 21
223.320951
 31
0.0
  0
LINE
  8
LC-003-005-----0
  6
CONTINUOUS
  5
5C3
 10
174.947996
 20
223.031257
 30
0.0
 11
176.717674
 21
224.800935
 31
0.0
  0
LINE
  8
LC-003-005-----0
  6
CONTINUOUS
  5
5C4
 10
173.599554
 20
224.511242
 30
0.0
 11
175.369232
 21
226.28092
 31
0.0
  0
LINE
  8
LC-003-005-----0
  6
CONTINUOUS
  5
5C5
 10
172.251111
 20
225.991227
 30
0.0
 11
174.020789
 21
227.760904
 31
0.0
  0
LINE
  8
LC-003-005-----0
  6
CONTINUOUS
  5
5C6
 10
170.902669
 20
227.471211
 30
0.0
 11
172.672346
 21
229.240889
 31
0.0
  0
LINE
  8
LC-003-005-----0
  6
CONTINUOUS
  5
5C7
 10
169.554226
 20
228.951196
 30
0.0
 11
171.323904
 21
230.720874
 31
0.0
  0
LINE
  8
LC-003-005-----0
  6
CONTINUOUS
  5
5C8
 10
168.205784
 20
230.431181
 30
0.0
 11
169.975461
 21
232.200858
 31
0.0
  0
LINE
  8
LC-003-005-----0
  6
CONTINUOUS
  5
5C9
 10
166.857341
 20
231.911165
 30
0.0
 11
168.627019
 21
233.680843
 31
0.0
  0
LINE
  8
LC-003-005-----0
  6
CONTINUOUS
  5
5CA
 10
165.197072
 20
233.079323
 30
0.0
 11
167.278576
 21
235.160827
 31
0.0
  0
LINE
  8
LC-003-005-----0
  6
CONTINUOUS
  5
5CB
 10
162.368645
 20
233.079323
 30
0.0
 11
165.369335
 21
236.080013
 31
0.0
  0
LINE
  8
LC-003-005-----0
  6
CONTINUOUS
  5
5CC
 10
159.540218
 20
233.079323
 30
0.0
 11
162.540908
 21
236.080013
 31
0.0
  0
LINE
  8
LC-003-005-----0
  6
CONTINUOUS
  5
5CD
 10
156.71179
 20
233.079323
 30
0.0
 11
159.712481
 21
236.080013
 31
0.0
  0
LINE
  8
LC-003-005-----0
  6
CONTINUOUS
  5
5CE
 10
153.883363
 20
233.079323
 30
0.0
 11
156.884054
 21
236.080013
 31
0.0
  0
LINE
  8
LC-003-005-----0
  6
CONTINUOUS
  5
5CF
 10
151.054936
 20
233.079323
 30
0.0
 11
156.441063
 21
238.465449
 31
0.0
  0
LINE
  8
LC-003-005-----0
  6
CONTINUOUS
  5
5D0
 10
147.26016
 20
232.112974
 30
0.0
 11
148.226509
 21
233.079323
 31
0.0
  0
LINE
  8
LC-003-005-----0
  6
CONTINUOUS
  5
5D1
 10
148.940599
 20
233.793413
 30
0.0
 11
156.441063
 21
241.293876
 31
0.0
  0
LINE
  8
LC-003-005-----0
  6
CONTINUOUS
  5
5D2
 10
144.573871
 20
232.255112
 30
0.0
 11
145.398082
 21
233.079323
 31
0.0
  0
LINE
  8
LC-003-005-----0
  6
CONTINUOUS
  5
5D3
 10
148.940599
 20
236.62184
 30
0.0
 11
156.441063
 21
244.122303
 31
0.0
  0
LINE
  8
LC-001-002-----0
  6
CONTINUOUS
  5
5D4
 10
271.402548
 20
248.009711
 30
0.0
 11
271.406348
 21
251.009709
 31
0.0
  0
LINE
  8
LC-001-002-----0
  6
CONTINUOUS
  5
5D5
 10
271.406348
 20
251.009709
 30
0.0
 11
267.858163
 21
251.014203
 31
0.0
  0
LINE
  8
LC-001-002-----0
  6
CONTINUOUS
  5
5D6
 10
267.858163
 20
251.014203
 30
0.0
 11
267.854363
 21
248.014205
 31
0.0
  0
LINE
  8
LC-001-002-----0
  6
CONTINUOUS
  5
5D7
 10
270.682788
 20
248.010623
 30
0.0
 11
270.686588
 21
251.01062
 31
0.0
  0
LINE
  8
LC-001-002-----0
  6
CONTINUOUS
  5
5D8
 10
165.027728
 20
248.144441
 30
0.0
 11
165.031528
 21
251.144438
 31
0.0
  0
LINE
  8
LC-001-002-----0
  6
CONTINUOUS
  5
5D9
 10
165.031528
 20
251.144438
 30
0.0
 11
161.483343
 21
251.148932
 31
0.0
  0
LINE
  8
LC-001-002-----0
  6
CONTINUOUS
  5
5DA
 10
161.483343
 20
251.148932
 30
0.0
 11
161.479543
 21
248.148935
 31
0.0
  0
LINE
  8
LC-001-002-----0
  6
CONTINUOUS
  5
5DB
 10
162.203103
 20
251.148021
 30
0.0
 11
162.199303
 21
248.148023
 31
0.0
  0
LINE
  8
LC-003-005-----0
  6
CONTINUOUS
  5
5DC
 10
142.415506
 20
232.925174
 30
0.0
 11
143.940599
 21
234.450267
 31
0.0
  0
LINE
  8
LC-003-005-----0
  6
CONTINUOUS
  5
5DD
 10
148.940599
 20
239.450267
 30
0.0
 11
156.441063
 21
246.950731
 31
0.0
  0
LINE
  8
LC-003-005-----0
  6
CONTINUOUS
  5
5DE
 10
140.440567
 20
233.778662
 30
0.0
 11
143.940599
 21
237.278694
 31
0.0
  0
LINE
  8
LC-003-005-----0
  6
CONTINUOUS
  5
5DF
 10
149.439361
 20
242.777456
 30
0.0
 11
154.741228
 21
248.079323
 31
0.0
  0
LINE
  8
LC-003-005-----0
  6
CONTINUOUS
  5
5E0
 10
140.440567
 20
236.607089
 30
0.0
 11
143.880391
 21
240.046913
 31
0.0
  0
LINE
  8
LC-003-005-----0
  6
CONTINUOUS
  5
5E1
 10
149.439363
 20
245.605885
 30
0.0
 11
151.912801
 21
248.079324
 31
0.0
  0
LINE
  8
LC-003-005-----0
  6
CONTINUOUS
  5
5E2
 10
140.440567
 20
239.435516
 30
0.0
 11
143.4406
 21
242.43555
 31
0.0
  0
LINE
  8
LC-003-005-----0
  6
CONTINUOUS
  5
5E3
 10
138.854898
 20
240.678274
 30
0.0
 11
143.440608
 21
245.263984
 31
0.0
  0
LINE
  8
LC-003-005-----0
  6
CONTINUOUS
  5
5E4
 10
136.030049
 20
240.681852
 30
0.0
 11
138.421895
 21
243.073699
 31
0.0
  0
LINE
  8
LC-003-005-----0
  6
CONTINUOUS
  5
5E5
 10
140.437197
 20
245.089001
 30
0.0
 11
143.42821
 21
248.080013
 31
0.0
  0
LINE
  8
LC-003-005-----0
  6
CONTINUOUS
  5
5E6
 10
133.318146
 20
240.798377
 30
0.0
 11
135.597046
 21
243.077277
 31
0.0
  0
LINE
  8
LC-003-005-----0
  6
CONTINUOUS
  5
5E7
 10
131.905724
 20
242.214381
 30
0.0
 11
133.434966
 21
243.743624
 31
0.0
  0
LINE
  8
LC-003-005-----0
  6
CONTINUOUS
  5
5E8
 10
130.149249
 20
243.286334
 30
0.0
 11
133.438553
 21
246.575638
 31
0.0
  0
LINE
  8
LC-003-005-----0
  6
CONTINUOUS
  5
5E9
 10
127.983199
 20
243.948711
 30
0.0
 11
130.808043
 21
246.773555
 31
0.0
  0
LINE
  8
LC-003-005-----0
  6
CONTINUOUS
  5
5EA
 10
125.817148
 20
244.611087
 30
0.0
 11
128.641878
 21
247.435818
 31
0.0
  0
LINE
  8
LC-003-005-----0
  6
CONTINUOUS
  5
5EB
 10
123.651098
 20
245.273464
 30
0.0
 11
126.475714
 21
248.09808
 31
0.0
  0
LINE
  8
LC-003-005-----0
  6
CONTINUOUS
  5
5EC
 10
121.485047
 20
245.935841
 30
0.0
 11
124.30955
 21
248.760343
 31
0.0
  0
LINE
  8
LC-003-005-----0
  6
CONTINUOUS
  5
5ED
 10
119.318997
 20
246.598217
 30
0.0
 11
122.143386
 21
249.422606
 31
0.0
  0
LINE
  8
LC-003-005-----0
  6
CONTINUOUS
  5
5EE
 10
117.152946
 20
247.260594
 30
0.0
 11
119.977221
 21
250.084869
 31
0.0
  0
LINE
  8
LC-003-005-----0
  6
CONTINUOUS
  5
5EF
 10
114.986895
 20
247.92297
 30
0.0
 11
117.811057
 21
250.747132
 31
0.0
  0
LINE
  8
LC-003-005-----0
  6
CONTINUOUS
  5
5F0
 10
112.820845
 20
248.585347
 30
0.0
 11
115.644893
 21
251.409395
 31
0.0
  0
LINE
  8
LC-003-005-----0
  6
CONTINUOUS
  5
5F1
 10
110.615801
 20
249.20873
 30
0.0
 11
113.478729
 21
252.071658
 31
0.0
  0
LINE
  8
LC-003-005-----0
  6
CONTINUOUS
  5
5F2
 10
107.891028
 20
249.312384
 30
0.0
 11
111.312564
 21
252.733921
 31
0.0
  0
LINE
  8
LC-003-005-----0
  6
CONTINUOUS
  5
5F3
 10
105.166255
 20
249.416038
 30
0.0
 11
108.621687
 21
252.87147
 31
0.0
  0
LINE
  8
LC-003-005-----0
  6
CONTINUOUS
  5
5F4
 10
102.441482
 20
249.519692
 30
0.0
 11
105.889975
 21
252.968185
 31
0.0
  0
LINE
  8
LC-003-005-----0
  6
CONTINUOUS
  5
5F5
 10
101.458312
 20
251.364949
 30
0.0
 11
103.158263
 21
253.064901
 31
0.0
  0
LINE
  8
LC-001-002-----0
  6
CONTINUOUS
  5
5F6
 10
322.076214
 20
249.201496
 30
0.0
 11
331.450563
 21
249.558109
 31
0.0
  0
LINE
  8
LC-003-005-----0
  6
CONTINUOUS
  5
5F7
 10
366.351087
 20
230.586585
 30
0.0
 11
367.473576
 21
231.709074
 31
0.0
  0
LINE
  8
LC-003-005-----0
  6
CONTINUOUS
  5
5F8
 10
363.640985
 20
230.70491
 30
0.0
 11
365.624858
 21
232.688783
 31
0.0
  0
LINE
  8
LC-003-005-----0
  6
CONTINUOUS
  5
5F9
 10
360.930884
 20
230.823236
 30
0.0
 11
363.32858
 21
233.220932
 31
0.0
  0
LINE
  8
LC-003-005-----0
  6
CONTINUOUS
  5
5FA
 10
358.220782
 20
230.941562
 30
0.0
 11
360.618478
 21
233.339258
 31
0.0
  0
LINE
  8
LC-003-005-----0
  6
CONTINUOUS
  5
5FB
 10
355.510681
 20
231.059887
 30
0.0
 11
357.908377
 21
233.457583
 31
0.0
  0
LINE
  8
LC-003-005-----0
  6
CONTINUOUS
  5
5FC
 10
352.800579
 20
231.178213
 30
0.0
 11
355.198275
 21
233.575909
 31
0.0
  0
LINE
  8
LC-003-005-----0
  6
CONTINUOUS
  5
5FD
 10
350.090478
 20
231.296538
 30
0.0
 11
352.488174
 21
233.694234
 31
0.0
  0
LINE
  8
LC-003-005-----0
  6
CONTINUOUS
  5
5FE
 10
347.380376
 20
231.414864
 30
0.0
 11
349.778072
 21
233.81256
 31
0.0
  0
LINE
  8
LC-003-005-----0
  6
CONTINUOUS
  5
5FF
 10
344.670274
 20
231.533189
 30
0.0
 11
347.06797
 21
233.930885
 31
0.0
  0
LINE
  8
LC-003-005-----0
  6
CONTINUOUS
  5
600
 10
341.960173
 20
231.651515
 30
0.0
 11
344.357869
 21
234.049211
 31
0.0
  0
LINE
  8
LC-003-005-----0
  6
CONTINUOUS
  5
601
 10
339.250071
 20
231.769841
 30
0.0
 11
341.647767
 21
234.167537
 31
0.0
  0
LINE
  8
LC-003-005-----0
  6
CONTINUOUS
  5
602
 10
336.53997
 20
231.888166
 30
0.0
 11
338.937666
 21
234.285862
 31
0.0
  0
LINE
  8
LC-003-005-----0
  6
CONTINUOUS
  5
603
 10
333.829868
 20
232.006492
 30
0.0
 11
336.227564
 21
234.404188
 31
0.0
  0
LINE
  8
LC-003-005-----0
  6
CONTINUOUS
  5
604
 10
331.119767
 20
232.124817
 30
0.0
 11
333.517463
 21
234.522513
 31
0.0
  0
LINE
  8
LC-003-005-----0
  6
CONTINUOUS
  5
605
 10
328.409665
 20
232.243143
 30
0.0
 11
330.807361
 21
234.640839
 31
0.0
  0
LINE
  8
LC-003-005-----0
  6
CONTINUOUS
  5
606
 10
325.699564
 20
232.361469
 30
0.0
 11
328.09726
 21
234.759165
 31
0.0
  0
LINE
  8
LC-003-005-----0
  6
CONTINUOUS
  5
607
 10
322.989462
 20
232.479794
 30
0.0
 11
325.387158
 21
234.87749
 31
0.0
  0
LINE
  8
LC-003-005-----0
  6
CONTINUOUS
  5
608
 10
320.279361
 20
232.59812
 30
0.0
 11
322.677057
 21
234.995816
 31
0.0
  0
LINE
  8
LC-003-005-----0
  6
CONTINUOUS
  5
609
 10
317.569259
 20
232.716445
 30
0.0
 11
319.966955
 21
235.114141
 31
0.0
  0
LINE
  8
LC-003-005-----0
  6
CONTINUOUS
  5
60A
 10
314.859158
 20
232.834771
 30
0.0
 11
317.256854
 21
235.232467
 31
0.0
  0
LINE
  8
LC-003-005-----0
  6
CONTINUOUS
  5
60B
 10
312.149056
 20
232.953097
 30
0.0
 11
314.546752
 21
235.350793
 31
0.0
  0
LINE
  8
LC-003-005-----0
  6
CONTINUOUS
  5
60C
 10
328.647434
 20
249.451474
 30
0.0
 11
331.201594
 21
252.005634
 31
0.0
  0
LINE
  8
LC-003-005-----0
  6
CONTINUOUS
  5
60D
 10
309.438954
 20
233.071422
 30
0.0
 11
311.836651
 21
235.469118
 31
0.0
  0
LINE
  8
LC-003-005-----0
  6
CONTINUOUS
  5
60E
 10
325.707154
 20
249.339622
 30
0.0
 11
329.421734
 21
253.054202
 31
0.0
  0
LINE
  8
LC-003-005-----0
  6
CONTINUOUS
  5
60F
 10
306.728853
 20
233.189748
 30
0.0
 11
309.126549
 21
235.587444
 31
0.0
  0
LINE
  8
LC-003-005-----0
  6
CONTINUOUS
  5
610
 10
323.033268
 20
249.494162
 30
0.0
 11
326.489492
 21
252.950387
 31
0.0
  0
LINE
  8
LC-003-005-----0
  6
CONTINUOUS
  5
611
 10
304.018751
 20
233.308073
 30
0.0
 11
306.416447
 21
235.705769
 31
0.0
  0
LINE
  8
LC-003-005-----0
  6
CONTINUOUS
  5
612
 10
318.958903
 20
248.248225
 30
0.0
 11
323.557251
 21
252.846573
 31
0.0
  0
LINE
  8
LC-003-005-----0
  6
CONTINUOUS
  5
613
 10
301.30865
 20
233.426399
 30
0.0
 11
303.706346
 21
235.824095
 31
0.0
  0
LINE
  8
LC-003-005-----0
  6
CONTINUOUS
  5
614
 10
314.884538
 20
247.002287
 30
0.0
 11
320.196311
 21
252.31406
 31
0.0
  0
LINE
  8
LC-003-005-----0
  6
CONTINUOUS
  5
615
 10
298.598548
 20
233.544724
 30
0.0
 11
300.996244
 21
235.942421
 31
0.0
  0
LINE
  8
LC-003-005-----0
  6
CONTINUOUS
  5
616
 10
310.810174
 20
245.75635
 30
0.0
 11
316.122349
 21
251.068525
 31
0.0
  0
LINE
  8
LC-003-005-----0
  6
CONTINUOUS
  5
617
 10
295.888447
 20
233.66305
 30
0.0
 11
298.286143
 21
236.060746
 31
0.0
  0
LINE
  8
LC-003-005-----0
  6
CONTINUOUS
  5
618
 10
306.735809
 20
244.510412
 30
0.0
 11
312.048386
 21
249.822989
 31
0.0
  0
LINE
  8
LC-003-005-----0
  6
CONTINUOUS
  5
619
 10
291.97629
 20
232.579321
 30
0.0
 11
292.44161
 21
233.044641
 31
0.0
  0
LINE
  8
LC-003-005-----0
  6
CONTINUOUS
  5
61A
 10
293.178345
 20
233.781376
 30
0.0
 11
295.576041
 21
236.179072
 31
0.0
  0
LINE
  8
LC-003-005-----0
  6
CONTINUOUS
  5
61B
 10
302.661444
 20
243.264475
 30
0.0
 11
307.974424
 21
248.577454
 31
0.0
  0
LINE
  8
LC-003-005-----0
  6
CONTINUOUS
  5
61C
 10
289.147866
 20
232.579323
 30
0.0
 11
292.86594
 21
236.297397
 31
0.0
  0
LINE
  8
LC-003-005-----0
  6
CONTINUOUS
  5
61D
 10
297.2509
 20
240.682357
 30
0.0
 11
303.900461
 21
247.331919
 31
0.0
  0
LINE
  8
LC-003-005-----0
  6
CONTINUOUS
  5
61E
 10
286.319439
 20
232.579323
 30
0.0
 11
286.819438
 21
233.079323
 31
0.0
  0
LINE
  8
LC-003-005-----0
  6
CONTINUOUS
  5
61F
 10
288.941578
 20
235.201463
 30
0.0
 11
292.44161
 21
238.701495
 31
0.0
  0
LINE
  8
LC-003-005-----0
  6
CONTINUOUS
  5
620
 10
294.418886
 20
240.67877
 30
0.0
 11
296.816799
 21
243.076683
 31
0.0
  0
LINE
  8
LC-003-005-----0
  6
CONTINUOUS
  5
621
 10
299.444728
 20
245.704612
 30
0.0
 11
300.320129
 21
246.580013
 31
0.0
  0
LINE
  8
LC-003-005-----0
  6
CONTINUOUS
  5
622
 10
283.491011
 20
232.579323
 30
0.0
 11
283.991011
 21
233.079323
 31
0.0
  0
LINE
  8
LC-003-005-----0
  6
CONTINUOUS
  5
623
 10
288.941578
 20
238.02989
 30
0.0
 11
293.984785
 21
243.073096
 31
0.0
  0
LINE
  8
LC-003-005-----0
  6
CONTINUOUS
  5
624
 10
280.662584
 20
232.579323
 30
0.0
 11
283.941578
 21
235.858317
 31
0.0
  0
LINE
  8
LC-003-005-----0
  6
CONTINUOUS
  5
625
 10
289.44158
 20
241.358319
 30
0.0
 11
292.4459
 21
244.362639
 31
0.0
  0
LINE
  8
LC-003-005-----0
  6
CONTINUOUS
  5
626
 10
277.834157
 20
232.579323
 30
0.0
 11
283.941578
 21
238.686744
 31
0.0
  0
LINE
  8
LC-003-005-----0
  6
CONTINUOUS
  5
627
 10
289.441572
 20
244.186738
 30
0.0
 11
292.078986
 21
246.824152
 31
0.0
  0
LINE
  8
LC-003-005-----0
  6
CONTINUOUS
  5
628
 10
275.074085
 20
232.647678
 30
0.0
 11
283.442817
 21
241.01641
 31
0.0
  0
LINE
  8
LC-003-005-----0
  6
CONTINUOUS
  5
629
 10
289.441565
 20
247.015158
 30
0.0
 11
290.50573
 21
248.079323
 31
0.0
  0
LINE
  8
LC-003-005-----0
  6
CONTINUOUS
  5
62A
 10
272.380343
 20
232.782363
 30
0.0
 11
275.677993
 21
236.080013
 31
0.0
  0
LINE
  8
LC-003-005-----0
  6
CONTINUOUS
  5
62B
 10
276.441201
 20
236.843221
 30
0.0
 11
283.442815
 21
243.844836
 31
0.0
  0
LINE
  8
LC-003-005-----0
  6
CONTINUOUS
  5
62C
 10
269.686602
 20
232.917049
 30
0.0
 11
272.849566
 21
236.080013
 31
0.0
  0
LINE
  8
LC-003-005-----0
  6
CONTINUOUS
  5
62D
 10
276.441201
 20
239.671648
 30
0.0
 11
283.442814
 21
246.673261
 31
0.0
  0
LINE
  8
LC-003-005-----0
  6
CONTINUOUS
  5
62E
 10
266.99286
 20
233.051735
 30
0.0
 11
270.021139
 21
236.080013
 31
0.0
  0
LINE
  8
LC-003-005-----0
  6
CONTINUOUS
  5
62F
 10
276.441201
 20
242.500075
 30
0.0
 11
282.020448
 21
248.079323
 31
0.0
  0
LINE
  8
LC-003-005-----0
  6
CONTINUOUS
  5
630
 10
266.441089
 20
235.32839
 30
0.0
 11
267.192712
 21
236.080013
 31
0.0
  0
LINE
  8
LC-003-005-----0
  6
CONTINUOUS
  5
631
 10
276.441201
 20
245.328502
 30
0.0
 11
279.192712
 21
248.080013
 31
0.0
  0
LINE
  8
LC-001-002-----0
  6
CONTINUOUS
  5
632
 10
276.441201
 20
248.079323
 30
0.0
 11
153.190864
 21
248.079323
 31
0.0
  0
LINE
  8
LC-001-002-----0
  6
CONTINUOUS
  5
633
 10
288.941578
 20
233.079323
 30
0.0
 11
283.941578
 21
233.079323
 31
0.0
  0
LINE
  8
LC-001-002-----0
  6
CONTINUOUS
  5
634
 10
283.941578
 20
239.947724
 30
0.0
 11
283.941578
 21
233.079323
 31
0.0
  0
LINE
  8
LC-001-002-----0
  6
CONTINUOUS
  5
635
 10
288.941578
 20
239.946566
 30
0.0
 11
288.941578
 21
233.079323
 31
0.0
  0
LINE
  8
LC-001-002-----0
  6
CONTINUOUS
  5
636
 10
292.44161
 20
233.813542
 30
0.0
 11
292.44161
 21
232.57932
 31
0.0
  0
LINE
  8
LC-001-002-----0
  6
CONTINUOUS
  5
637
 10
292.44161
 20
240.676266
 30
0.0
 11
292.44161
 21
236.315924
 31
0.0
  0
LINE
  8
LC-001-002-----0
  6
CONTINUOUS
  5
638
 10
142.059052
 20
248.080013
 30
0.0
 11
143.440616
 21
248.080013
 31
0.0
  0
LINE
  8
LC-001-002-----0
  6
CONTINUOUS
  5
639
 10
279.691089
 20
248.080013
 30
0.0
 11
276.441201
 21
248.080013
 31
0.0
  0
LINE
  8
LC-001-002-----0
  6
CONTINUOUS
  5
63A
 10
142.059052
 20
248.080013
 30
0.0
 11
140.559052
 21
246.580013
 31
0.0
  0
LINE
  8
LC-001-002-----0
  6
CONTINUOUS
  5
63B
 10
131.441089
 20
246.580013
 30
0.0
 11
140.559052
 21
246.580013
 31
0.0
  0
LINE
  8
LC-001-002-----0
  6
CONTINUOUS
  5
63C
 10
364.034905
 20
233.190093
 30
0.0
 11
292.44161
 21
236.315924
 31
0.0
  0
LINE
  8
LC-001-002-----0
  6
CONTINUOUS
  5
63D
 10
292.323125
 20
246.580013
 30
0.0
 11
301.441089
 21
246.580013
 31
0.0
  0
LINE
  8
LC-001-002-----0
  6
CONTINUOUS
  5
63E
 10
111.156159
 20
252.781739
 30
0.0
 11
102.441089
 21
253.090292
 31
0.0
  0
LINE
  8
LC-001-002-----0
  6
CONTINUOUS
  5
63F
 10
156.441063
 20
236.080013
 30
0.0
 11
166.441089
 21
236.080013
 31
0.0
  0
LINE
  8
LC-001-002-----0
  6
CONTINUOUS
  5
640
 10
156.441063
 20
236.080013
 30
0.0
 11
156.441063
 21
240.080013
 31
0.0
  0
LINE
  8
LC-001-002-----0
  6
CONTINUOUS
  5
641
 10
131.441089
 20
246.580013
 30
0.0
 11
111.156159
 21
252.781739
 31
0.0
  0
LINE
  8
LC-001-002-----0
  6
CONTINUOUS
  5
642
 10
367.422525
 20
230.539805
 30
0.0
 11
365.459652
 21
185.582635
 31
0.0
  0
LINE
  8
LC-001-002-----0
  6
CONTINUOUS
  5
643
 10
276.441201
 20
251.079323
 30
0.0
 11
276.441201
 21
236.080013
 31
0.0
  0
LINE
  8
LC-001-002-----0
  6
CONTINUOUS
  5
644
 10
131.138111
 20
242.983941
 30
0.0
 11
110.805963
 21
249.201496
 31
0.0
  0
LINE
  8
LC-001-002-----0
  6
CONTINUOUS
  5
645
 10
367.490666
 20
232.100496
 30
0.0
 11
364.034905
 21
233.190093
 31
0.0
  0
LINE
  8
LC-001-002-----0
  6
CONTINUOUS
  5
646
 10
365.391511
 20
184.021944
 30
0.0
 11
361.853935
 21
183.237682
 31
0.0
  0
LINE
  8
LC-001-002-----0
  6
CONTINUOUS
  5
647
 10
156.441063
 20
251.079323
 30
0.0
 11
156.441063
 21
240.080013
 31
0.0
  0
LINE
  8
LC-001-002-----0
  6
CONTINUOUS
  5
648
 10
301.744067
 20
242.983941
 30
0.0
 11
322.076214
 21
249.201496
 31
0.0
  0
LINE
  8
LC-001-002-----0
  6
CONTINUOUS
  5
649
 10
301.441089
 20
246.580013
 30
0.0
 11
321.726018
 21
252.781739
 31
0.0
  0
LINE
  8
LC-001-002-----0
  6
CONTINUOUS
  5
64A
 10
290.823125
 20
248.080013
 30
0.0
 11
292.323125
 21
246.580013
 31
0.0
  0
LINE
  8
LC-001-002-----0
  6
CONTINUOUS
  5
64B
 10
150.799518
 20
233.079323
 30
0.0
 11
165.79301
 21
233.079323
 31
0.0
  0
LINE
  8
LC-001-002-----0
  6
CONTINUOUS
  5
64C
 10
367.422525
 20
230.539805
 30
0.0
 11
292.441615
 21
233.813542
 31
0.0
  0
LINE
  8
LC-001-002-----0
  6
CONTINUOUS
  5
64D
 10
361.853935
 20
183.237682
 30
0.0
 11
215.350604
 21
189.634156
 31
0.0
  0
LINE
  8
LC-001-002-----0
  6
CONTINUOUS
  5
64E
 10
166.441089
 20
236.080013
 30
0.0
 11
266.441089
 21
236.080013
 31
0.0
  0
ENDSEC
  0
EOF
